osu file format v14

[General]
AudioFilename: audio.mp3
AudioLeadIn: 0
PreviewTime: 74673
Countdown: 0
SampleSet: Soft
StackLeniency: 0.2
Mode: 0
LetterboxInBreaks: 0
WidescreenStoryboard: 1

[Editor]
Bookmarks: 31535,92363,121328
DistanceSpacing: 0.6
BeatDivisor: 4
GridSize: 4
TimelineZoom: 1.4

[Metadata]
Title:Neudachnitsa
TitleUnicode:Неудачница
Artist:AUTLAYT
ArtistUnicode:АУТЛАЙТ
Creator:schoolboy
Version:Normal
Source:
Tags:testo komore russian русский pop punk metal outlight
BeatmapID:1830027
BeatmapSetID:846636

[Difficulty]
HPDrainRate:3
CircleSize:4
OverallDifficulty:4
ApproachRate:5
SliderMultiplier:1.4
SliderTickRate:1

[Events]
//Background and Video events
0,0,"d.jpg",0,0
//Break Periods
//Storyboard Layer 0 (Background)
//Storyboard Layer 1 (Fail)
//Storyboard Layer 2 (Pass)
//Storyboard Layer 3 (Foreground)
//Storyboard Sound Samples

[TimingPoints]
5260,413.707508791285,4,2,1,60,1,0
91466,-100,4,2,1,5,0,0
91518,-100,4,2,1,60,0,0
98085,-100,4,2,1,5,0,0
98137,-100,4,2,1,60,0,0
104704,-100,4,2,1,5,0,0
104756,-100,4,2,1,60,0,0
111324,-100,4,2,1,5,0,0
111375,-100,4,2,1,60,0,0
134750,-100,4,2,1,50,0,0
135164,-100,4,2,1,40,0,0
135577,-100,4,2,1,30,0,0
135991,-100,4,2,1,20,0,0
136405,-100,4,2,1,15,0,0
136818,-100,4,2,1,10,0,0
137232,-100,4,2,1,5,0,0

[Colours]
Combo1 : 255,94,55
Combo2 : 173,255,95
Combo3 : 17,254,176
Combo4 : 255,88,100

[HitObjects]
76,278,5260,6,0,L|86:194,1,70,6|8,1:2|0:0,0:0:0:0:
65,170,5673,2,0,L|75:93,1,70,0|10,0:0|0:0,0:0:0:0:
106,74,6087,2,0,B|186:58|155:113|239:92,1,140,2|0,0:0|0:0,0:0:0:0:
294,28,6914,2,0,P|318:52|327:86,1,70,2|8,1:2|0:0,0:0:0:0:
350,121,7328,2,0,P|340:154|315:178,1,70,0|10,0:0|0:0,0:0:0:0:
301,218,7742,2,0,L|460:207,1,140,2|0,0:0|0:0,0:0:0:0:
452,291,8569,6,0,P|421:328|417:356,1,70,2|8,0:0|0:0,0:0:0:0:
377,364,8983,2,0,L|296:358,1,70,0|8,0:0|0:0,0:0:0:0:
276,329,9397,2,0,B|226:325|226:325|184:340|184:340|138:338,1,140,2|0,1:0|0:0,0:0:0:0:
73,285,10224,1,4,0:0:0:0:
95,249,10431,2,0,L|95:179,1,70,8|0,0:0|3:0,0:0:0:0:
120,145,10845,1,8,0:0:0:0:
120,145,11051,2,0,B|197:163|172:111|254:124,1,140,6|0,0:0|1:0,0:0:0:0:
301,55,11879,6,0,P|269:40|234:38,1,70,6|8,1:2|0:0,0:0:0:0:
198,16,12293,2,0,P|163:18|131:32,1,70,0|10,0:0|0:0,0:0:0:0:
89,28,12706,2,0,L|97:191,1,140,2|0,0:0|0:0,0:0:0:0:
43,233,13534,2,0,L|54:308,1,70,2|8,1:2|0:0,0:0:0:0:
84,330,13947,2,0,L|159:319,1,70,0|10,0:0|0:0,0:0:0:0:
191,337,14361,2,0,B|237:333|237:333|275:353|275:353|326:350,1,140,2|0,0:0|0:0,0:0:0:0:
392,299,15188,6,0,L|395:219,1,70,2|8,0:0|0:0,0:0:0:0:
423,198,15602,2,0,P|462:180|477:152,1,70,0|8,0:0|0:0,0:0:0:0:
480,115,16016,2,0,P|426:72|359:83,1,140,2|0,1:0|0:0,0:0:0:0:
290,35,16843,1,4,0:0:0:0:
249,22,17050,2,0,P|226:68|218:112,1,70,8|0,0:0|3:0,0:0:0:0:
194,118,17464,1,8,0:0:0:0:
194,118,17671,2,0,P|219:171|229:253,1,140,6|0,0:0|3:0,0:0:0:0:
193,327,18498,5,6,1:2:0:0:
193,327,18705,2,0,L|98:319,1,70,8|0,0:0|0:0,0:0:0:0:
84,337,19119,2,0,P|57:273|82:210,1,140,10|8,0:0|0:0,0:0:0:0:
115,184,19739,1,0,0:0:0:0:
152,108,20153,1,2,1:2:0:0:
152,108,20360,2,0,L|145:17,1,70,8|0,0:0|0:0,0:0:0:0:
172,4,20774,1,8,0:0:0:0:
254,45,21187,1,8,0:0:0:0:
284,16,21394,2,0,L|370:3,1,70,2|10,0:0|0:0,0:0:0:0:
391,23,21808,5,2,1:2:0:0:
391,23,22015,2,0,P|403:57|409:91,1,70,8|0,0:0|0:0,0:0:0:0:
435,122,22428,2,0,P|359:136|317:195,1,140,10|8,0:0|0:0,0:0:0:0:
308,222,23049,1,0,0:0:0:0:
243,275,23463,1,2,1:2:0:0:
243,275,23669,2,0,L|171:274,1,70,8|0,0:0|0:0,0:0:0:0:
137,296,24083,1,8,0:0:0:0:
75,238,24497,1,8,0:0:0:0:
53,201,24704,2,0,P|52:165|68:122,1,70,2|10,0:0|0:0,0:0:0:0:
96,107,25117,5,6,1:2:0:0:
96,107,25324,2,0,L|181:93,1,70,8|0,0:0|0:0,0:0:0:0:
198,69,25738,2,0,P|267:77|337:85,1,140,10|8,0:0|0:0,0:0:0:0:
375,66,26359,1,0,0:0:0:0:
440,118,26772,1,2,1:2:0:0:
461,154,26979,2,0,L|448:230,1,70,8|0,0:0|0:0,0:0:0:0:
475,256,27393,1,8,0:0:0:0:
414,313,27807,1,8,0:0:0:0:
414,313,28013,2,0,P|363:301|325:306,1,70,2|10,0:0|0:0,0:0:0:0:
310,325,28427,5,2,1:2:0:0:
310,325,28634,2,0,L|231:330,1,70,8|0,0:0|0:0,0:0:0:0:
204,352,29048,2,0,P|171:318|67:318,1,140,10|8,0:0|0:0,0:0:0:0:
43,325,29668,1,0,0:0:0:0:
14,245,30082,1,2,1:2:0:0:
14,245,30289,2,0,P|24:183|38:96,1,140,8|8,0:0|0:0,0:0:0:0:
59,71,30909,2,0,L|153:54,1,70,6|8,1:2|0:0,0:0:0:0:
164,78,31323,2,0,L|232:65,1,70,8|8,0:0|0:0,0:0:0:0:
268,43,31737,6,0,P|296:62|312:93,1,70,6|8,1:2|0:0,0:0:0:0:
343,121,32150,2,0,L|338:207,1,70,6|8,0:0|0:0,0:0:0:0:
323,229,32564,2,0,P|390:200|459:225,1,140,6|6,0:0|0:0,0:0:0:0:
477,298,33392,2,0,L|461:366,1,70,6|8,1:2|0:0,0:0:0:0:
419,373,33805,1,2,0:0:0:0:
347,329,34219,2,0,B|280:328|286:375|216:372,1,140,0|2,1:0|0:0,0:0:0:0:
181,349,34840,1,10,0:0:0:0:
181,349,35046,6,0,L|195:268,1,70,6|8,1:2|0:0,0:0:0:0:
159,254,35460,2,0,L|144:164,1,70,6|8,0:0|0:0,0:0:0:0:
172,151,35874,2,0,P|114:172|53:107,1,140,6|6,0:0|0:0,0:0:0:0:
0,189,36701,2,0,L|13:275,1,70,6|8,1:2|0:0,0:0:0:0:
0,299,37115,1,2,0:0:0:0:
68,347,37529,2,0,B|125:336|125:336|145:316|145:316|206:302,1,140,0|2,1:0|0:0,0:0:0:0:
234,324,38149,1,10,0:0:0:0:
234,324,38356,6,0,P|271:308|322:320,1,70,6|8,1:2|0:0,0:0:0:0:
333,336,38770,2,0,L|414:331,1,70,6|8,0:0|0:0,0:0:0:0:
436,357,39184,2,0,B|453:327|453:327|432:221,1,140,6|6,0:0|0:0,0:0:0:0:
361,178,40011,2,0,P|313:162|279:165,1,70,6|8,1:2|0:0,0:0:0:0:
262,189,40425,1,2,0:0:0:0:
185,222,40838,2,0,P|115:210|46:200,1,140,0|2,1:0|0:0,0:0:0:0:
27,163,41459,1,10,0:0:0:0:
27,163,41666,6,0,L|48:91,1,70,6|8,1:2|0:0,0:0:0:0:
85,80,42079,2,0,P|120:62|168:59,1,70,6|8,0:0|0:0,0:0:0:0:
186,77,42493,2,0,L|347:60,1,140,6|6,0:0|0:0,0:0:0:0:
394,110,43321,2,0,P|401:133|398:179,1,70,6|8,1:2|0:0,0:0:0:0:
384,218,43734,1,2,0:0:0:0:
445,274,44148,2,0,P|378:257|317:287,1,140,0|2,1:0|0:0,0:0:0:0:
282,312,44769,1,10,0:0:0:0:
282,312,44975,6,0,L|269:160,1,140,6|8,3:2|0:0,0:0:0:0:
203,120,45803,2,0,L|121:136,1,70,0|0,1:0|0:0,0:0:0:0:
95,149,46217,2,0,P|77:184|78:215,1,70,8|2,0:0|0:0,0:0:0:0:
56,250,46630,2,0,P|107:278|181:241,1,140,0|8,1:0|0:0,0:0:0:0:
243,297,47458,2,0,P|304:264|372:275,1,140,0|0,1:0|1:0,0:0:0:0:
404,301,48078,1,0,1:0:0:0:
404,301,48285,6,0,L|415:231,1,70,6|8,1:2|0:0,0:0:0:0:
444,201,48699,2,0,L|430:114,1,70,0|10,0:0|0:0,0:0:0:0:
397,109,49112,2,0,B|336:99|330:144|255:133,1,140,2|0,0:0|0:0,0:0:0:0:
205,197,49940,2,0,L|216:273,1,70,2|8,1:2|0:0,0:0:0:0:
183,294,50354,2,0,P|152:283|106:288,1,70,0|10,0:0|0:0,0:0:0:0:
76,299,50767,2,0,P|71:258|50:148,1,140,2|0,0:0|0:0,0:0:0:0:
98,87,51595,6,0,P|125:79|175:92,1,70,2|8,0:0|0:0,0:0:0:0:
203,104,52008,2,0,L|279:89,1,70,0|8,0:0|0:0,0:0:0:0:
301,60,52422,2,0,B|358:65|358:65|378:84|378:84|432:92,1,140,2|0,1:0|0:0,0:0:0:0:
489,155,53250,1,4,0:0:0:0:
489,155,53456,2,0,L|477:233,1,70,8|0,0:0|3:0,0:0:0:0:
490,264,53870,1,8,0:0:0:0:
490,264,54077,2,0,P|434:261|394:333,1,140,6|0,0:0|1:0,0:0:0:0:
316,360,54904,6,0,P|260:351|239:350,1,70,6|8,1:2|0:0,0:0:0:0:
224,314,55318,2,0,P|176:327|128:339,1,70,0|10,0:0|0:0,0:0:0:0:
118,351,55732,2,0,B|100:318|100:318|112:205,1,140,2|0,0:0|0:0,0:0:0:0:
48,159,56559,2,0,P|36:115|42:83,1,70,2|8,1:2|0:0,0:0:0:0:
73,66,56973,2,0,L|144:74,1,70,0|8,0:0|0:0,0:0:0:0:
175,100,57387,2,0,B|316:88,1,140,2|0,0:0|0:0,0:0:0:0:
393,118,58214,6,0,L|380:192,1,70,2|8,0:0|0:0,0:0:0:0:
408,219,58628,2,0,P|425:247|417:296,1,70,0|8,0:0|0:0,0:0:0:0:
396,315,59041,2,0,P|350:306|285:375,1,140,0|0,0:0|0:0,0:0:0:0:
212,324,59869,1,4,0:0:0:0:
212,324,60076,2,0,L|141:334,1,70,8|0,0:0|3:0,0:0:0:0:
114,364,60489,1,8,0:0:0:0:
114,364,60696,2,0,B|100:311|100:311|106:278|106:278|92:212,1,140,6|2,0:0|3:2,0:0:0:0:
52,155,61524,5,6,1:2:0:0:
52,155,61731,2,0,L|72:78,1,70,8|0,0:0|0:0,0:0:0:0:
108,70,62144,2,0,B|146:83|146:83|254:60,1,140,10|8,0:0|0:0,0:0:0:0:
279,39,62765,1,0,0:0:0:0:
343,93,63179,1,2,1:2:0:0:
365,128,63385,2,0,L|351:207,1,70,8|0,0:0|0:0,0:0:0:0:
379,229,63799,1,8,0:0:0:0:
420,302,64213,1,8,0:0:0:0:
420,302,64420,2,0,P|455:296|504:294,1,70,2|10,0:0|0:0,0:0:0:0:
503,254,64833,5,2,1:2:0:0:
503,254,65040,2,0,L|492:177,1,70,8|0,0:0|0:0,0:0:0:0:
457,162,65454,2,0,B|443:103|476:84|459:22,1,140,10|8,0:0|0:0,0:0:0:0:
419,8,66075,1,0,0:0:0:0:
354,61,66488,1,2,1:2:0:0:
354,61,66695,2,0,L|273:45,1,70,8|0,0:0|0:0,0:0:0:0:
249,70,67109,1,8,0:0:0:0:
200,138,67522,1,8,0:0:0:0:
200,138,67729,2,0,L|210:224,1,70,2|10,0:0|0:0,0:0:0:0:
245,226,68143,5,6,1:2:0:0:
245,226,68350,2,0,L|324:213,1,70,8|0,0:0|0:0,0:0:0:0:
356,212,68764,2,0,B|345:271|345:271|354:297|354:297|343:360,1,140,10|8,0:0|0:0,0:0:0:0:
318,379,69384,1,0,0:0:0:0:
245,336,69798,1,2,1:2:0:0:
211,306,70005,2,0,L|137:314,1,70,8|0,0:0|0:0,0:0:0:0:
102,297,70418,1,8,0:0:0:0:
24,330,70832,1,8,0:0:0:0:
24,330,71039,2,0,P|19:289|33:253,1,70,0|8,0:0|0:0,0:0:0:0:
62,238,71453,5,6,1:2:0:0:
62,238,71660,2,0,L|54:162,1,70,8|0,0:0|0:0,0:0:0:0:
19,145,72073,2,0,P|7:79|40:2,1,140,10|8,0:0|0:0,0:0:0:0:
72,1,72694,1,0,0:0:0:0:
143,45,73108,1,2,1:2:0:0:
143,45,73314,2,0,B|226:52|206:9|296:21,1,140,8|8,0:0|0:0,0:0:0:0:
316,36,73935,2,0,L|303:113,1,70,6|8,1:2|0:0,0:0:0:0:
333,135,74349,2,0,L|320:215,1,70,8|8,0:0|0:0,0:0:0:0:
346,238,74762,6,0,P|360:276|348:318,1,70,6|8,1:2|0:0,0:0:0:0:
330,338,75176,2,0,P|270:331|247:333,1,70,6|8,0:0|0:0,0:0:0:0:
224,353,75590,2,0,L|86:374,1,140,6|6,0:0|0:0,0:0:0:0:
40,303,76417,2,0,P|45:271|55:229,1,70,6|8,1:2|0:0,0:0:0:0:
89,212,76831,1,2,0:0:0:0:
40,143,77245,2,0,P|88:151|145:73,1,140,0|2,1:0|0:0,0:0:0:0:
178,63,77865,1,10,0:0:0:0:
178,63,78072,6,0,L|261:70,1,70,6|8,1:2|0:0,0:0:0:0:
282,92,78486,2,0,P|327:90|355:71,1,70,6|8,0:0|0:0,0:0:0:0:
382,53,78899,2,0,L|351:216,1,140,6|6,0:0|0:0,0:0:0:0:
411,253,79727,2,0,P|424:287|416:326,1,70,6|8,1:2|0:0,0:0:0:0:
395,354,80141,1,2,0:0:0:0:
317,321,80554,2,0,B|244:318|253:366|175:365,1,140,0|2,1:0|0:0,0:0:0:0:
155,336,81175,1,10,0:0:0:0:
155,336,81382,6,0,L|166:245,1,70,6|8,1:2|0:0,0:0:0:0:
199,244,81795,2,0,L|190:162,1,70,6|8,0:0|0:0,0:0:0:0:
229,156,82209,2,0,P|303:181|371:160,1,140,6|6,0:0|0:0,0:0:0:0:
427,114,83037,2,0,P|442:144|441:190,1,70,6|8,1:2|0:0,0:0:0:0:
423,217,83450,1,2,0:0:0:0:
353,264,83864,2,0,B|410:259|410:259|437:275|437:275|508:268,1,140,0|2,1:0|0:0,0:0:0:0:
505,308,84484,1,10,0:0:0:0:
505,308,84691,6,0,P|495:361|491:392,1,70,6|8,1:2|0:0,0:0:0:0:
451,384,85105,2,0,P|410:370|376:373,1,70,6|8,0:0|0:0,0:0:0:0:
352,343,85519,2,0,B|281:336|294:391|206:377,1,140,6|6,0:0|0:0,0:0:0:0:
164,316,86346,2,0,P|152:277|158:240,1,70,6|8,1:2|0:0,0:0:0:0:
168,209,86760,1,2,0:0:0:0:
145,128,87174,2,0,P|114:96|28:123,1,140,0|2,1:0|0:0,0:0:0:0:
18,160,87794,1,10,0:0:0:0:
18,160,88001,6,0,L|33:311,1,140,4|8,0:0|0:0,0:0:0:0:
107,262,88828,2,0,L|94:114,1,140,0|8,1:0|0:0,0:0:0:0:
163,73,89656,2,0,B|203:85|203:85|312:56,1,140,0|8,1:0|0:0,0:0:0:0:
336,43,90276,1,2,0:0:0:0:
336,43,90483,2,0,P|325:106|311:184,1,140,0|0,1:0|1:0,0:0:0:0:
352,192,91104,1,2,1:2:0:0:
352,192,91311,6,0,P|367:224|369:259,1,70,2|4,1:0|0:0,0:0:0:0:
385,296,91724,2,0,P|380:331|358:358,1,70,0|12,3:0|0:0,0:0:0:0:
322,367,92138,1,0,3:0:0:0:
322,367,92345,2,0,P|253:353|183:352,1,140,12|12,0:0|0:0,0:0:0:0:
143,366,92965,2,0,L|138:283,1,70,0|12,3:0|0:0,0:0:0:0:
109,265,93379,1,0,3:0:0:0:
156,195,93793,1,0,3:0:0:0:
156,195,94000,2,0,P|218:204|263:137,1,140,12|10,0:0|0:0,0:0:0:0:
288,115,94620,6,0,L|431:141,1,140,6|0,0:0|0:0,0:0:0:0:
457,167,95241,1,8,0:0:0:0:
457,167,95448,2,0,B|476:125|476:125|454:25,1,140,0|0,1:0|0:0,0:0:0:0:
372,26,96275,2,0,P|331:44|238:10,1,140,2|0,1:2|0:0,0:0:0:0:
201,15,96896,1,8,0:0:0:0:
201,15,97103,2,0,L|207:96,1,70,2|8,1:2|0:0,0:0:0:0:
178,116,97516,2,0,P|142:102|86:105,1,70,0|8,0:0|0:0,0:0:0:0:
76,124,97930,5,2,1:0:0:0:
43,201,98344,2,0,L|51:270,1,70,0|12,3:0|0:0,0:0:0:0:
85,295,98757,1,0,3:0:0:0:
85,295,98964,2,0,B|135:274|135:274|235:289,1,140,12|12,0:0|0:0,0:0:0:0:
256,308,99585,2,0,L|339:296,1,70,0|12,3:0|0:0,0:0:0:0:
356,269,99999,2,0,L|433:280,1,70,0|12,3:0|0:0,0:0:0:0:
464,300,100412,1,0,3:0:0:0:
464,300,100619,2,0,L|483:139,1,140,12|10,0:0|0:0,0:0:0:0:
448,133,101240,5,6,0:0:0:0:
376,89,101653,2,0,P|337:88|303:103,1,70,0|8,0:0|0:0,0:0:0:0:
281,132,102067,2,0,L|137:111,1,140,0|0,1:0|0:0,0:0:0:0:
77,164,102894,2,0,B|59:251|59:251|71:300,1,140,6|0,0:0|0:0,0:0:0:0:
114,373,103722,2,0,L|206:355,1,70,4|8,1:2|0:0,0:0:0:0:
218,337,104136,2,0,L|296:350,1,70,8|0,0:0|1:0,0:0:0:0:
328,355,104549,6,0,P|339:323|339:277,1,70,2|4,1:0|0:0,0:0:0:0:
322,249,104963,2,0,L|316:164,1,70,0|12,3:0|0:0,0:0:0:0:
284,151,105377,1,0,3:0:0:0:
284,151,105584,2,0,P|219:140|165:201,1,140,12|12,0:0|0:0,0:0:0:0:
147,223,106204,2,0,L|155:299,1,70,0|12,3:0|0:0,0:0:0:0:
161,334,106618,1,0,3:0:0:0:
83,366,107032,1,0,3:0:0:0:
83,366,107238,2,0,P|76:293|68:199,1,140,12|10,0:0|0:0,0:0:0:0:
31,210,107859,6,0,B|16:176|16:176|37:66,1,140,6|0,0:0|0:0,0:0:0:0:
73,57,108480,1,8,0:0:0:0:
73,57,108686,2,0,P|130:74|191:19,1,140,0|0,1:0|0:0,0:0:0:0:
265,61,109514,2,0,B|342:64|319:111|388:118,1,140,2|0,1:2|0:0,0:0:0:0:
429,109,110134,1,8,0:0:0:0:
429,109,110341,2,0,P|440:142|433:184,1,70,2|8,1:2|0:0,0:0:0:0:
414,212,110755,2,0,L|423:291,1,70,0|8,0:0|0:0,0:0:0:0:
449,313,111169,5,2,1:0:0:0:
386,368,111582,2,0,P|336:354|308:357,1,70,0|12,3:0|0:0,0:0:0:0:
279,371,111996,1,0,3:0:0:0:
279,371,112203,2,0,B|205:382|220:335|144:344,1,140,12|12,0:0|0:0,0:0:0:0:
112,370,112823,2,0,L|97:280,1,70,0|12,3:0|0:0,0:0:0:0:
67,274,113237,2,0,L|79:194,1,70,0|12,3:0|0:0,0:0:0:0:
102,170,113651,1,0,3:0:0:0:
102,170,113858,2,0,P|151:186|216:123,1,140,12|10,0:0|0:0,0:0:0:0:
245,106,114478,5,6,0:0:0:0:
327,127,114892,2,0,P|363:121|399:114,1,70,0|8,0:0|0:0,0:0:0:0:
421,147,115306,2,0,B|439:185|439:185|422:288,1,140,0|0,1:0|0:0,0:0:0:0:
352,328,116133,1,6,0:0:0:0:
352,328,116340,2,0,P|269:318|232:366,1,140,8|8,0:0|0:0,0:0:0:0:
194,366,116961,2,0,L|114:356,1,70,4|8,1:2|0:0,0:0:0:0:
95,327,117374,2,0,L|22:333,1,70,8|8,0:0|0:0,0:0:0:0:
5,295,117788,6,0,P|5:257|19:219,1,70,6|8,1:2|0:0,0:0:0:0:
42,194,118202,2,0,L|27:116,1,70,6|8,0:0|0:0,0:0:0:0:
50,88,118615,2,0,B|84:70|84:70|208:87,1,140,6|6,0:0|0:0,0:0:0:0:
257,126,119443,2,0,L|333:116,1,70,6|8,1:2|0:0,0:0:0:0:
357,88,119856,1,2,0:0:0:0:
421,141,120270,2,0,P|408:237|401:291,1,140,0|2,1:0|0:0,0:0:0:0:
416,319,120891,1,10,0:0:0:0:
416,319,121098,6,0,P|356:325|332:349,1,70,6|8,1:2|0:0,0:0:0:0:
316,355,121511,2,0,L|239:347,1,70,6|8,0:0|0:0,0:0:0:0:
212,322,121925,2,0,P|148:332|60:347,1,140,6|6,0:0|0:0,0:0:0:0:
22,278,122752,2,0,L|34:204,1,70,6|8,1:2|0:0,0:0:0:0:
66,183,123166,1,2,0:0:0:0:
16,115,123580,2,0,P|79:125|125:58,1,140,0|2,1:0|0:0,0:0:0:0:
140,32,124200,1,10,0:0:0:0:
140,32,124407,6,0,L|224:43,1,70,6|8,1:2|0:0,0:0:0:0:
238,72,124821,2,0,P|281:73|314:52,1,70,6|8,0:0|0:0,0:0:0:0:
336,33,125235,2,0,L|310:178,1,140,6|6,0:0|0:0,0:0:0:0:
230,192,126062,2,0,P|190:182|140:182,1,70,6|8,1:2|0:0,0:0:0:0:
134,212,126476,1,2,0:0:0:0:
62,256,126890,2,0,B|80:312|80:312|103:326|103:326|117:378,1,140,0|2,1:0|0:0,0:0:0:0:
159,373,127510,1,10,0:0:0:0:
159,373,127717,6,0,P|206:355|237:357,1,70,6|8,1:2|0:0,0:0:0:0:
259,330,128131,2,0,L|340:335,1,70,6|8,0:0|0:0,0:0:0:0:
358,364,128544,2,0,B|373:325|373:325|349:225,1,140,6|6,0:0|0:0,0:0:0:0:
276,188,129372,2,0,L|289:103,1,70,6|8,1:2|0:0,0:0:0:0:
315,88,129785,1,2,0:0:0:0:
251,32,130199,2,0,B|177:21|186:65|116:50,1,140,0|2,1:0|0:0,0:0:0:0:
77,30,130820,1,10,0:0:0:0:
77,30,131027,6,0,P|52:87|85:179,1,140,4|8,1:2|0:0,0:0:0:0:
103,185,131647,1,2,0:0:0:0:
103,185,131854,2,0,L|94:272,1,70,0|0,1:0|0:0,0:0:0:0:
94,296,132268,1,8,0:0:0:0:
162,344,132681,2,0,P|198:309|288:316,1,140,4|8,1:2|0:0,0:0:0:0:
319,335,133302,1,0,0:0:0:0:
319,335,133509,2,0,L|333:179,1,140,0|8,1:0|0:0,0:0:0:0:
391,135,134336,5,4,0:0:0:0:
256,192,134543,12,0,137232,0:0:0:0:
