osu file format v14

[General]
AudioFilename: audio.mp3
AudioLeadIn: 0
PreviewTime: -1
Countdown: 0
SampleSet: Soft
StackLeniency: 0.7
Mode: 3
LetterboxInBreaks: 0
SpecialStyle: 0
WidescreenStoryboard: 0

[Editor]
Bookmarks: 1190,10790,15590,25190,34790,44390,53990,58790,61190,63590,65990,75590,85190
DistanceSpacing: 1
BeatDivisor: 3
GridSize: 8
TimelineZoom: 1

[Metadata]
Title:Rotterdam Cirno
TitleUnicode:Rotterdam Cirno
Artist:AU
ArtistUnicode:AU
Creator:E x e
Version:Freeeeeeze
Source:Touhou
Tags:
BeatmapID:1250645
BeatmapSetID:590914

[Difficulty]
HPDrainRate:6
CircleSize:4
OverallDifficulty:8
ApproachRate:5
SliderMultiplier:1.4
SliderTickRate:1

[Events]
//Background and Video events
0,0,"cirno_minimalist_by_desquishyfish-dau34ou.png",0,0
//Break Periods
//Storyboard Layer 0 (Background)
//Storyboard Layer 1 (Fail)
//Storyboard Layer 2 (Pass)
//Storyboard Layer 3 (Foreground)
//Storyboard Sound Samples

[TimingPoints]
1190,300,4,2,0,30,1,0

[HitObjects]
64,192,1190,5,0,0:0:0:0:
320,192,1190,1,0,0:0:0:0:
448,192,1190,1,0,0:0:0:0:
192,192,1340,1,0,0:0:0:0:
64,192,1490,1,0,0:0:0:0:
320,192,1490,1,0,0:0:0:0:
448,192,1640,1,0,0:0:0:0:
64,192,1790,1,0,0:0:0:0:
320,192,1940,1,0,0:0:0:0:
448,192,1940,1,0,0:0:0:0:
192,192,2090,1,0,0:0:0:0:
64,192,2090,1,0,0:0:0:0:
320,192,2240,1,0,0:0:0:0:
448,192,2390,1,0,0:0:0:0:
64,192,2390,128,0,2540:0:0:0:0:
320,192,2540,128,0,2690:0:0:0:0:
64,192,2690,128,0,2840:0:0:0:0:
320,192,2840,128,0,2990:0:0:0:0:
448,192,2990,1,0,0:0:0:0:
64,192,2990,1,0,0:0:0:0:
192,192,3065,1,0,0:0:0:0:
320,192,3140,1,0,0:0:0:0:
448,192,3215,1,0,0:0:0:0:
320,192,3290,1,0,0:0:0:0:
64,192,3290,128,0,3590:0:0:0:0:
192,192,3440,1,0,0:0:0:0:
320,192,3590,1,0,0:0:0:0:
192,192,3590,1,0,0:0:0:0:
448,192,3590,1,0,0:0:0:0:
64,192,3740,1,0,0:0:0:0:
448,192,3890,1,0,0:0:0:0:
192,192,3890,1,0,0:0:0:0:
320,192,4040,1,0,0:0:0:0:
192,192,4190,1,0,0:0:0:0:
64,192,4340,1,0,0:0:0:0:
448,192,4340,1,0,0:0:0:0:
192,192,4490,1,0,0:0:0:0:
320,192,4490,1,0,0:0:0:0:
448,192,4640,1,0,0:0:0:0:
64,192,4790,1,0,0:0:0:0:
192,192,4790,1,0,0:0:0:0:
320,192,4940,1,0,0:0:0:0:
448,192,4940,1,0,0:0:0:0:
192,192,5090,1,0,0:0:0:0:
64,192,5090,1,0,0:0:0:0:
320,192,5240,1,0,0:0:0:0:
448,192,5240,1,0,0:0:0:0:
192,192,5390,1,0,0:0:0:0:
320,192,5465,1,0,0:0:0:0:
448,192,5540,1,0,0:0:0:0:
64,192,5540,1,0,0:0:0:0:
64,192,5690,1,0,0:0:0:0:
448,192,5690,1,0,0:0:0:0:
64,192,5840,1,0,0:0:0:0:
448,192,5840,1,0,0:0:0:0:
320,192,5990,1,0,0:0:0:0:
448,192,5990,1,0,0:0:0:0:
192,192,5990,1,0,0:0:0:0:
64,192,6140,1,0,0:0:0:0:
448,192,6290,1,0,0:0:0:0:
320,192,6290,1,0,0:0:0:0:
192,192,6440,1,0,0:0:0:0:
64,192,6590,1,0,0:0:0:0:
448,192,6590,1,0,0:0:0:0:
320,192,6740,1,0,0:0:0:0:
192,192,6740,1,0,0:0:0:0:
448,192,6890,1,0,0:0:0:0:
320,192,6965,1,0,0:0:0:0:
192,192,7040,1,0,0:0:0:0:
64,192,7115,1,0,0:0:0:0:
192,192,7190,1,0,0:0:0:0:
320,192,7190,1,0,0:0:0:0:
448,192,7190,1,0,0:0:0:0:
64,192,7340,1,0,0:0:0:0:
192,192,7490,1,0,0:0:0:0:
448,192,7490,1,0,0:0:0:0:
320,192,7640,128,0,7790:0:0:0:0:
192,192,7790,1,0,0:0:0:0:
64,192,7790,1,0,0:0:0:0:
448,192,7865,1,0,0:0:0:0:
320,192,7940,1,0,0:0:0:0:
192,192,8015,1,0,0:0:0:0:
448,192,8090,128,0,8390:0:0:0:0:
64,192,8090,1,0,0:0:0:0:
320,192,8240,1,0,0:0:0:0:
320,192,8390,1,0,0:0:0:0:
192,192,8390,1,0,0:0:0:0:
64,192,8390,1,0,0:0:0:0:
448,192,8540,1,0,0:0:0:0:
320,192,8690,1,0,0:0:0:0:
64,192,8690,1,0,0:0:0:0:
192,192,8840,1,0,0:0:0:0:
64,192,8990,1,0,0:0:0:0:
320,192,8990,1,0,0:0:0:0:
448,192,8990,1,0,0:0:0:0:
448,192,9140,1,0,0:0:0:0:
192,192,9290,1,0,0:0:0:0:
64,192,9290,1,0,0:0:0:0:
320,192,9440,1,0,0:0:0:0:
192,192,9590,1,0,0:0:0:0:
64,192,9590,1,0,0:0:0:0:
448,192,9590,1,0,0:0:0:0:
320,192,9740,1,0,0:0:0:0:
192,192,9740,1,0,0:0:0:0:
192,192,9890,1,0,0:0:0:0:
320,192,9890,1,0,0:0:0:0:
320,192,10040,1,0,0:0:0:0:
192,192,10040,1,0,0:0:0:0:
64,192,10190,1,0,0:0:0:0:
448,192,10190,1,0,0:0:0:0:
320,192,10190,1,0,0:0:0:0:
64,192,10415,1,0,0:0:0:0:
448,192,10415,1,0,0:0:0:0:
320,192,10415,1,0,0:0:0:0:
64,192,10640,1,0,0:0:0:0:
320,192,10640,1,0,0:0:0:0:
448,192,10640,1,0,0:0:0:0:
192,192,10790,1,0,0:0:0:0:
64,192,10790,1,0,0:0:0:0:
448,192,10865,1,0,0:0:0:0:
320,192,10940,1,0,0:0:0:0:
192,192,11015,1,0,0:0:0:0:
448,192,11090,1,0,0:0:0:0:
64,192,11090,1,0,0:0:0:0:
320,192,11165,1,0,0:0:0:0:
192,192,11240,1,0,0:0:0:0:
320,192,11315,1,0,0:0:0:0:
448,192,11390,1,0,0:0:0:0:
64,192,11390,1,0,0:0:0:0:
192,192,11465,1,0,0:0:0:0:
320,192,11540,1,0,0:0:0:0:
192,192,11615,1,0,0:0:0:0:
448,192,11690,1,0,0:0:0:0:
64,192,11690,1,0,0:0:0:0:
192,192,11840,1,0,0:0:0:0:
320,192,11840,1,0,0:0:0:0:
448,192,11915,1,0,0:0:0:0:
320,192,11990,1,0,0:0:0:0:
448,192,12065,1,0,0:0:0:0:
64,192,12140,1,0,0:0:0:0:
192,192,12140,1,0,0:0:0:0:
448,192,12290,1,0,0:0:0:0:
320,192,12290,1,0,0:0:0:0:
192,192,12365,1,0,0:0:0:0:
320,192,12440,1,0,0:0:0:0:
448,192,12515,1,0,0:0:0:0:
192,192,12590,1,0,0:0:0:0:
64,192,12590,1,0,0:0:0:0:
320,192,12665,1,0,0:0:0:0:
64,192,12740,1,0,0:0:0:0:
320,192,12815,1,0,0:0:0:0:
192,192,12890,1,0,0:0:0:0:
64,192,12890,1,0,0:0:0:0:
448,192,12965,1,0,0:0:0:0:
192,192,13040,1,0,0:0:0:0:
448,192,13115,1,0,0:0:0:0:
192,192,13190,1,0,0:0:0:0:
64,192,13190,1,0,0:0:0:0:
320,192,13265,1,0,0:0:0:0:
192,192,13340,1,0,0:0:0:0:
64,192,13415,1,0,0:0:0:0:
192,192,13490,1,0,0:0:0:0:
448,192,13490,1,0,0:0:0:0:
320,192,13565,1,0,0:0:0:0:
64,192,13640,1,0,0:0:0:0:
192,192,13715,1,0,0:0:0:0:
320,192,13790,1,0,0:0:0:0:
448,192,13790,1,0,0:0:0:0:
192,192,13865,1,0,0:0:0:0:
64,192,13940,1,0,0:0:0:0:
448,192,14015,1,0,0:0:0:0:
320,192,14090,1,0,0:0:0:0:
192,192,14090,1,0,0:0:0:0:
64,192,14240,1,0,0:0:0:0:
448,192,14240,1,0,0:0:0:0:
192,192,14315,1,0,0:0:0:0:
320,192,14390,1,0,0:0:0:0:
448,192,14465,1,0,0:0:0:0:
192,192,14540,1,0,0:0:0:0:
64,192,14540,1,0,0:0:0:0:
320,192,14690,1,0,0:0:0:0:
448,192,14690,1,0,0:0:0:0:
64,192,14765,1,0,0:0:0:0:
192,192,14840,1,0,0:0:0:0:
320,192,14915,1,0,0:0:0:0:
64,192,14990,1,0,0:0:0:0:
448,192,14990,1,0,0:0:0:0:
192,192,15065,1,0,0:0:0:0:
320,192,15140,1,0,0:0:0:0:
192,192,15215,1,0,0:0:0:0:
64,192,15290,1,0,0:0:0:0:
448,192,15290,1,0,0:0:0:0:
320,192,15365,1,0,0:0:0:0:
192,192,15440,1,0,0:0:0:0:
320,192,15515,1,0,0:0:0:0:
192,192,15590,1,0,0:0:0:0:
448,192,15590,1,0,0:0:0:0:
64,192,15590,128,0,15740:0:0:0:0:
320,192,15740,1,0,0:0:0:0:
448,192,15740,128,0,15890:0:0:0:0:
192,192,15890,128,0,16040:0:0:0:0:
320,192,16040,128,0,16340:0:0:0:0:
64,192,16040,1,0,0:0:0:0:
448,192,16190,1,0,0:0:0:0:
192,192,16190,1,0,0:0:0:0:
64,192,16340,128,0,16490:0:0:0:0:
448,192,16490,128,0,16640:0:0:0:0:
320,192,16490,1,0,0:0:0:0:
192,192,16640,128,0,16790:0:0:0:0:
64,192,16790,128,0,16940:0:0:0:0:
320,192,16790,1,0,0:0:0:0:
448,192,16790,1,0,0:0:0:0:
448,192,16940,128,0,17090:0:0:0:0:
192,192,17090,128,0,17240:0:0:0:0:
320,192,17240,128,0,17540:0:0:0:0:
448,192,17390,1,0,0:0:0:0:
192,192,17390,1,0,0:0:0:0:
64,192,17390,1,0,0:0:0:0:
448,192,17540,128,0,17690:0:0:0:0:
320,192,17690,128,0,17840:0:0:0:0:
192,192,17840,128,0,17990:0:0:0:0:
64,192,17990,128,0,18140:0:0:0:0:
448,192,17990,1,0,0:0:0:0:
320,192,17990,1,0,0:0:0:0:
448,192,18140,128,0,18290:0:0:0:0:
192,192,18290,128,0,18440:0:0:0:0:
64,192,18290,1,0,0:0:0:0:
320,192,18290,1,0,0:0:0:0:
320,192,18440,128,0,18740:0:0:0:0:
448,192,18590,1,0,0:0:0:0:
192,192,18590,1,0,0:0:0:0:
64,192,18590,1,0,0:0:0:0:
192,192,18740,128,0,18890:0:0:0:0:
448,192,18890,128,0,19040:0:0:0:0:
64,192,18890,1,0,0:0:0:0:
320,192,18890,1,0,0:0:0:0:
64,192,19040,128,0,19190:0:0:0:0:
192,192,19190,1,0,0:0:0:0:
320,192,19190,1,0,0:0:0:0:
448,192,19190,1,0,0:0:0:0:
448,192,19340,1,0,0:0:0:0:
320,192,19340,1,0,0:0:0:0:
192,192,19340,1,0,0:0:0:0:
320,192,19640,1,0,0:0:0:0:
192,192,19640,1,0,0:0:0:0:
64,192,19640,1,0,0:0:0:0:
448,192,19940,1,0,0:0:0:0:
320,192,19940,1,0,0:0:0:0:
192,192,19940,1,0,0:0:0:0:
192,192,20090,1,0,0:0:0:0:
64,192,20090,128,0,20390:0:0:0:0:
448,192,20090,1,0,0:0:0:0:
320,192,20240,1,0,0:0:0:0:
448,192,20240,1,0,0:0:0:0:
192,192,20390,1,0,0:0:0:0:
320,192,20390,1,0,0:0:0:0:
448,192,20390,128,0,20540:0:0:0:0:
64,192,20540,128,0,20690:0:0:0:0:
320,192,20690,128,0,20840:0:0:0:0:
448,192,20690,1,0,0:0:0:0:
192,192,20840,128,0,21140:0:0:0:0:
64,192,20990,1,0,0:0:0:0:
448,192,20990,1,0,0:0:0:0:
448,192,21140,128,0,21290:0:0:0:0:
320,192,21290,128,0,21440:0:0:0:0:
192,192,21290,1,0,0:0:0:0:
64,192,21440,128,0,21590:0:0:0:0:
192,192,21590,1,0,0:0:0:0:
320,192,21590,1,0,0:0:0:0:
448,192,21590,128,0,21740:0:0:0:0:
64,192,21740,128,0,21890:0:0:0:0:
320,192,21890,1,0,0:0:0:0:
448,192,21890,1,0,0:0:0:0:
192,192,22040,128,0,22190:0:0:0:0:
64,192,22190,1,0,0:0:0:0:
448,192,22190,1,0,0:0:0:0:
320,192,22265,1,0,0:0:0:0:
192,192,22340,1,0,0:0:0:0:
320,192,22415,1,0,0:0:0:0:
64,192,22490,128,0,22640:0:0:0:0:
192,192,22490,1,0,0:0:0:0:
448,192,22640,128,0,22790:0:0:0:0:
320,192,22640,1,0,0:0:0:0:
192,192,22790,1,0,0:0:0:0:
320,192,22790,1,0,0:0:0:0:
64,192,22790,128,0,22940:0:0:0:0:
320,192,22940,128,0,23090:0:0:0:0:
192,192,23090,128,0,23240:0:0:0:0:
64,192,23090,1,0,0:0:0:0:
448,192,23240,128,0,23540:0:0:0:0:
320,192,23390,1,0,0:0:0:0:
192,192,23390,1,0,0:0:0:0:
64,192,23390,1,0,0:0:0:0:
64,192,23540,128,0,23690:0:0:0:0:
192,192,23690,128,0,23840:0:0:0:0:
448,192,23690,1,0,0:0:0:0:
320,192,23840,128,0,23990:0:0:0:0:
192,192,23990,1,0,0:0:0:0:
64,192,23990,1,0,0:0:0:0:
448,192,23990,1,0,0:0:0:0:
192,192,24290,1,0,0:0:0:0:
64,192,24290,1,0,0:0:0:0:
448,192,24290,1,0,0:0:0:0:
448,192,24590,1,0,0:0:0:0:
192,192,24590,1,0,0:0:0:0:
64,192,24590,1,0,0:0:0:0:
64,192,24740,1,0,0:0:0:0:
192,192,24740,1,0,0:0:0:0:
448,192,24740,1,0,0:0:0:0:
320,192,24890,1,0,0:0:0:0:
448,192,24890,1,0,0:0:0:0:
192,192,25040,1,0,0:0:0:0:
64,192,25040,1,0,0:0:0:0:
64,192,25190,1,0,0:0:0:0:
320,192,25190,1,0,0:0:0:0:
448,192,25190,1,0,0:0:0:0:
192,192,25340,1,0,0:0:0:0:
448,192,25340,1,0,0:0:0:0:
192,192,25490,1,0,0:0:0:0:
64,192,25490,1,0,0:0:0:0:
64,192,25640,1,0,0:0:0:0:
448,192,25640,1,0,0:0:0:0:
192,192,25790,1,0,0:0:0:0:
320,192,25790,1,0,0:0:0:0:
448,192,25790,1,0,0:0:0:0:
320,192,25940,1,0,0:0:0:0:
64,192,25940,1,0,0:0:0:0:
192,192,26090,1,0,0:0:0:0:
64,192,26090,1,0,0:0:0:0:
448,192,26240,1,0,0:0:0:0:
192,192,26240,1,0,0:0:0:0:
320,192,26390,1,0,0:0:0:0:
64,192,26390,1,0,0:0:0:0:
448,192,26390,1,0,0:0:0:0:
192,192,26540,1,0,0:0:0:0:
320,192,26540,1,0,0:0:0:0:
64,192,26690,1,0,0:0:0:0:
448,192,26690,1,0,0:0:0:0:
192,192,26840,1,0,0:0:0:0:
64,192,26840,1,0,0:0:0:0:
448,192,26990,1,0,0:0:0:0:
192,192,26990,1,0,0:0:0:0:
320,192,27140,1,0,0:0:0:0:
448,192,27140,1,0,0:0:0:0:
192,192,27290,1,0,0:0:0:0:
64,192,27290,1,0,0:0:0:0:
320,192,27290,1,0,0:0:0:0:
448,192,27365,1,0,0:0:0:0:
320,192,27440,1,0,0:0:0:0:
192,192,27515,1,0,0:0:0:0:
64,192,27590,1,0,0:0:0:0:
320,192,27590,1,0,0:0:0:0:
448,192,27590,1,0,0:0:0:0:
192,192,27740,1,0,0:0:0:0:
64,192,27740,1,0,0:0:0:0:
192,192,27890,1,0,0:0:0:0:
448,192,27890,1,0,0:0:0:0:
320,192,28040,1,0,0:0:0:0:
64,192,28040,1,0,0:0:0:0:
320,192,28190,1,0,0:0:0:0:
448,192,28190,1,0,0:0:0:0:
64,192,28340,1,0,0:0:0:0:
448,192,28340,1,0,0:0:0:0:
192,192,28490,1,0,0:0:0:0:
320,192,28490,1,0,0:0:0:0:
64,192,28640,1,0,0:0:0:0:
192,192,28640,1,0,0:0:0:0:
64,192,28790,1,0,0:0:0:0:
320,192,28790,1,0,0:0:0:0:
448,192,28790,1,0,0:0:0:0:
192,192,28865,1,0,0:0:0:0:
448,192,28940,1,0,0:0:0:0:
64,192,29015,1,0,0:0:0:0:
320,192,29090,1,0,0:0:0:0:
192,192,29165,1,0,0:0:0:0:
448,192,29240,1,0,0:0:0:0:
64,192,29315,1,0,0:0:0:0:
320,192,29390,1,0,0:0:0:0:
64,192,29465,1,0,0:0:0:0:
448,192,29540,1,0,0:0:0:0:
192,192,29615,1,0,0:0:0:0:
320,192,29690,1,0,0:0:0:0:
448,192,29690,1,0,0:0:0:0:
64,192,29690,1,0,0:0:0:0:
192,192,29765,1,0,0:0:0:0:
64,192,29840,1,0,0:0:0:0:
320,192,29915,1,0,0:0:0:0:
192,192,29990,1,0,0:0:0:0:
448,192,29990,1,0,0:0:0:0:
64,192,29990,1,0,0:0:0:0:
320,192,30140,1,0,0:0:0:0:
192,192,30140,1,0,0:0:0:0:
64,192,30290,1,0,0:0:0:0:
448,192,30290,1,0,0:0:0:0:
448,192,30440,1,0,0:0:0:0:
320,192,30440,1,0,0:0:0:0:
64,192,30590,1,0,0:0:0:0:
320,192,30590,1,0,0:0:0:0:
448,192,30665,1,0,0:0:0:0:
320,192,30740,1,0,0:0:0:0:
192,192,30815,1,0,0:0:0:0:
448,192,30890,1,0,0:0:0:0:
64,192,30890,1,0,0:0:0:0:
448,192,31040,1,0,0:0:0:0:
320,192,31040,1,0,0:0:0:0:
64,192,31190,1,0,0:0:0:0:
192,192,31190,1,0,0:0:0:0:
320,192,31190,1,0,0:0:0:0:
448,192,31340,1,0,0:0:0:0:
192,192,31340,1,0,0:0:0:0:
320,192,31490,1,0,0:0:0:0:
64,192,31490,1,0,0:0:0:0:
192,192,31640,1,0,0:0:0:0:
64,192,31640,1,0,0:0:0:0:
448,192,31790,1,0,0:0:0:0:
320,192,31790,1,0,0:0:0:0:
192,192,31865,1,0,0:0:0:0:
448,192,31940,1,0,0:0:0:0:
64,192,31940,1,0,0:0:0:0:
320,192,32015,1,0,0:0:0:0:
192,192,32090,1,0,0:0:0:0:
64,192,32090,1,0,0:0:0:0:
448,192,32165,1,0,0:0:0:0:
320,192,32240,1,0,0:0:0:0:
64,192,32240,1,0,0:0:0:0:
192,192,32315,1,0,0:0:0:0:
64,192,32390,1,0,0:0:0:0:
320,192,32390,1,0,0:0:0:0:
448,192,32390,1,0,0:0:0:0:
192,192,32540,1,0,0:0:0:0:
448,192,32540,1,0,0:0:0:0:
320,192,32690,1,0,0:0:0:0:
64,192,32690,1,0,0:0:0:0:
192,192,32765,1,0,0:0:0:0:
320,192,32840,1,0,0:0:0:0:
448,192,32840,1,0,0:0:0:0:
192,192,32915,1,0,0:0:0:0:
64,192,32990,1,0,0:0:0:0:
320,192,32990,1,0,0:0:0:0:
448,192,32990,1,0,0:0:0:0:
192,192,33140,1,0,0:0:0:0:
64,192,33140,1,0,0:0:0:0:
192,192,33290,1,0,0:0:0:0:
448,192,33290,1,0,0:0:0:0:
320,192,33440,1,0,0:0:0:0:
448,192,33440,1,0,0:0:0:0:
64,192,33590,1,0,0:0:0:0:
320,192,33590,1,0,0:0:0:0:
64,192,33740,1,0,0:0:0:0:
448,192,33740,1,0,0:0:0:0:
320,192,33890,1,0,0:0:0:0:
192,192,33890,1,0,0:0:0:0:
448,192,34040,1,0,0:0:0:0:
192,192,34040,1,0,0:0:0:0:
64,192,34190,1,0,0:0:0:0:
320,192,34190,1,0,0:0:0:0:
192,192,34340,1,0,0:0:0:0:
64,192,34340,1,0,0:0:0:0:
320,192,34490,1,0,0:0:0:0:
448,192,34490,128,0,34790:0:0:0:0:
320,192,34790,1,0,0:0:0:0:
192,192,34790,1,0,0:0:0:0:
64,192,34790,1,0,0:0:0:0:
448,192,34865,1,0,0:0:0:0:
320,192,34940,1,0,0:0:0:0:
192,192,35015,1,0,0:0:0:0:
320,192,35090,1,0,0:0:0:0:
64,192,35165,1,0,0:0:0:0:
192,192,35240,1,0,0:0:0:0:
320,192,35315,1,0,0:0:0:0:
64,192,35390,1,0,0:0:0:0:
320,192,35465,1,0,0:0:0:0:
192,192,35540,1,0,0:0:0:0:
320,192,35615,1,0,0:0:0:0:
448,192,35690,1,0,0:0:0:0:
64,192,35765,1,0,0:0:0:0:
320,192,35840,1,0,0:0:0:0:
192,192,35915,1,0,0:0:0:0:
64,192,35990,1,0,0:0:0:0:
192,192,36065,1,0,0:0:0:0:
448,192,36140,1,0,0:0:0:0:
320,192,36215,1,0,0:0:0:0:
64,192,36290,1,0,0:0:0:0:
192,192,36365,1,0,0:0:0:0:
320,192,36440,1,0,0:0:0:0:
64,192,36515,1,0,0:0:0:0:
448,192,36590,1,0,0:0:0:0:
192,192,36665,1,0,0:0:0:0:
320,192,36740,1,0,0:0:0:0:
448,192,36815,1,0,0:0:0:0:
320,192,36890,1,0,0:0:0:0:
64,192,36965,1,0,0:0:0:0:
320,192,37040,1,0,0:0:0:0:
192,192,37115,1,0,0:0:0:0:
64,192,37190,1,0,0:0:0:0:
448,192,37265,1,0,0:0:0:0:
320,192,37340,1,0,0:0:0:0:
192,192,37415,1,0,0:0:0:0:
320,192,37490,1,0,0:0:0:0:
64,192,37565,1,0,0:0:0:0:
320,192,37640,1,0,0:0:0:0:
192,192,37715,1,0,0:0:0:0:
64,192,37790,1,0,0:0:0:0:
192,192,37865,1,0,0:0:0:0:
448,192,37940,1,0,0:0:0:0:
320,192,38015,1,0,0:0:0:0:
192,192,38090,1,0,0:0:0:0:
64,192,38165,1,0,0:0:0:0:
320,192,38240,1,0,0:0:0:0:
448,192,38315,1,0,0:0:0:0:
320,192,38390,1,0,0:0:0:0:
192,192,38465,1,0,0:0:0:0:
448,192,38540,1,0,0:0:0:0:
320,192,38615,1,0,0:0:0:0:
64,192,38690,1,0,0:0:0:0:
448,192,38765,1,0,0:0:0:0:
192,192,38840,1,0,0:0:0:0:
64,192,38915,1,0,0:0:0:0:
192,192,38990,1,0,0:0:0:0:
320,192,39065,1,0,0:0:0:0:
64,192,39140,1,0,0:0:0:0:
448,192,39215,1,0,0:0:0:0:
192,192,39290,1,0,0:0:0:0:
320,192,39365,1,0,0:0:0:0:
448,192,39440,1,0,0:0:0:0:
320,192,39515,1,0,0:0:0:0:
64,192,39590,1,0,0:0:0:0:
192,192,39665,1,0,0:0:0:0:
320,192,39740,1,0,0:0:0:0:
192,192,39815,1,0,0:0:0:0:
448,192,39890,1,0,0:0:0:0:
320,192,39965,1,0,0:0:0:0:
192,192,40040,1,0,0:0:0:0:
64,192,40115,1,0,0:0:0:0:
192,192,40190,1,0,0:0:0:0:
448,192,40265,1,0,0:0:0:0:
64,192,40340,1,0,0:0:0:0:
192,192,40415,1,0,0:0:0:0:
320,192,40490,1,0,0:0:0:0:
192,192,40565,1,0,0:0:0:0:
448,192,40640,1,0,0:0:0:0:
192,192,40715,1,0,0:0:0:0:
320,192,40790,1,0,0:0:0:0:
448,192,40865,1,0,0:0:0:0:
64,192,40940,1,0,0:0:0:0:
192,192,41015,1,0,0:0:0:0:
320,192,41090,1,0,0:0:0:0:
64,192,41165,1,0,0:0:0:0:
448,192,41240,1,0,0:0:0:0:
320,192,41315,1,0,0:0:0:0:
192,192,41390,1,0,0:0:0:0:
320,192,41465,1,0,0:0:0:0:
64,192,41540,1,0,0:0:0:0:
192,192,41615,1,0,0:0:0:0:
448,192,41690,1,0,0:0:0:0:
320,192,41765,1,0,0:0:0:0:
192,192,41840,1,0,0:0:0:0:
64,192,41915,1,0,0:0:0:0:
448,192,41990,1,0,0:0:0:0:
192,192,42065,1,0,0:0:0:0:
320,192,42140,1,0,0:0:0:0:
448,192,42215,1,0,0:0:0:0:
64,192,42290,1,0,0:0:0:0:
192,192,42365,1,0,0:0:0:0:
320,192,42440,1,0,0:0:0:0:
192,192,42515,1,0,0:0:0:0:
448,192,42590,1,0,0:0:0:0:
320,192,42665,1,0,0:0:0:0:
64,192,42740,1,0,0:0:0:0:
192,192,42815,1,0,0:0:0:0:
320,192,42890,1,0,0:0:0:0:
448,192,42965,1,0,0:0:0:0:
64,192,43040,1,0,0:0:0:0:
192,192,43115,1,0,0:0:0:0:
320,192,43190,1,0,0:0:0:0:
192,192,43265,1,0,0:0:0:0:
448,192,43340,1,0,0:0:0:0:
320,192,43415,1,0,0:0:0:0:
64,192,43490,1,0,0:0:0:0:
192,192,43565,1,0,0:0:0:0:
320,192,43640,1,0,0:0:0:0:
192,192,43715,1,0,0:0:0:0:
448,192,43790,1,0,0:0:0:0:
320,192,43865,1,0,0:0:0:0:
192,192,43940,1,0,0:0:0:0:
64,192,44015,1,0,0:0:0:0:
448,192,44090,1,0,0:0:0:0:
320,192,44165,1,0,0:0:0:0:
192,192,44240,1,0,0:0:0:0:
64,192,44315,1,0,0:0:0:0:
192,192,44390,1,0,0:0:0:0:
320,192,44390,1,0,0:0:0:0:
448,192,44390,128,0,44540:0:0:0:0:
64,192,44540,128,0,44690:0:0:0:0:
320,192,44690,128,0,44840:0:0:0:0:
192,192,44690,1,0,0:0:0:0:
448,192,44840,128,0,44990:0:0:0:0:
64,192,44990,1,0,0:0:0:0:
192,192,44990,1,0,0:0:0:0:
448,192,45140,128,0,45290:0:0:0:0:
64,192,45440,1,0,0:0:0:0:
448,192,45440,1,0,0:0:0:0:
320,192,45590,1,0,0:0:0:0:
192,192,45590,1,0,0:0:0:0:
64,192,45590,1,0,0:0:0:0:
448,192,45665,1,0,0:0:0:0:
320,192,45740,1,0,0:0:0:0:
192,192,45815,1,0,0:0:0:0:
320,192,45890,1,0,0:0:0:0:
448,192,45890,1,0,0:0:0:0:
64,192,45965,1,0,0:0:0:0:
192,192,46040,1,0,0:0:0:0:
320,192,46040,1,0,0:0:0:0:
448,192,46115,1,0,0:0:0:0:
64,192,46190,1,0,0:0:0:0:
192,192,46265,1,0,0:0:0:0:
320,192,46340,1,0,0:0:0:0:
448,192,46340,1,0,0:0:0:0:
192,192,46415,1,0,0:0:0:0:
320,192,46490,1,0,0:0:0:0:
448,192,46490,1,0,0:0:0:0:
64,192,46490,1,0,0:0:0:0:
192,192,46565,1,0,0:0:0:0:
320,192,46640,1,0,0:0:0:0:
448,192,46715,1,0,0:0:0:0:
320,192,46790,1,0,0:0:0:0:
192,192,46790,1,0,0:0:0:0:
64,192,46790,128,0,46940:0:0:0:0:
448,192,46940,128,0,47090:0:0:0:0:
192,192,47090,128,0,47240:0:0:0:0:
320,192,47090,1,0,0:0:0:0:
64,192,47240,128,0,47390:0:0:0:0:
320,192,47390,1,0,0:0:0:0:
448,192,47390,1,0,0:0:0:0:
64,192,47540,128,0,47690:0:0:0:0:
448,192,47690,1,0,0:0:0:0:
320,192,47690,1,0,0:0:0:0:
64,192,47840,1,0,0:0:0:0:
192,192,47990,1,0,0:0:0:0:
320,192,47990,1,0,0:0:0:0:
448,192,47990,1,0,0:0:0:0:
64,192,48065,1,0,0:0:0:0:
192,192,48140,1,0,0:0:0:0:
320,192,48215,1,0,0:0:0:0:
64,192,48290,1,0,0:0:0:0:
448,192,48290,1,0,0:0:0:0:
192,192,48365,1,0,0:0:0:0:
320,192,48440,1,0,0:0:0:0:
192,192,48515,1,0,0:0:0:0:
320,192,48590,1,0,0:0:0:0:
448,192,48590,1,0,0:0:0:0:
64,192,48665,1,0,0:0:0:0:
192,192,48740,1,0,0:0:0:0:
320,192,48815,1,0,0:0:0:0:
448,192,48890,1,0,0:0:0:0:
64,192,48890,1,0,0:0:0:0:
192,192,48890,1,0,0:0:0:0:
320,192,48965,1,0,0:0:0:0:
192,192,49040,1,0,0:0:0:0:
64,192,49115,1,0,0:0:0:0:
320,192,49190,1,0,0:0:0:0:
192,192,49190,1,0,0:0:0:0:
448,192,49190,128,0,49340:0:0:0:0:
64,192,49340,128,0,49490:0:0:0:0:
320,192,49490,128,0,49640:0:0:0:0:
192,192,49490,1,0,0:0:0:0:
448,192,49640,128,0,49790:0:0:0:0:
64,192,49790,1,0,0:0:0:0:
192,192,49790,1,0,0:0:0:0:
448,192,49940,128,0,50090:0:0:0:0:
192,192,50090,1,0,0:0:0:0:
64,192,50090,1,0,0:0:0:0:
448,192,50240,1,0,0:0:0:0:
64,192,50390,1,0,0:0:0:0:
192,192,50390,1,0,0:0:0:0:
320,192,50390,1,0,0:0:0:0:
448,192,50465,1,0,0:0:0:0:
320,192,50540,1,0,0:0:0:0:
192,192,50615,1,0,0:0:0:0:
320,192,50690,1,0,0:0:0:0:
448,192,50690,1,0,0:0:0:0:
64,192,50765,1,0,0:0:0:0:
192,192,50840,1,0,0:0:0:0:
320,192,50915,1,0,0:0:0:0:
192,192,50990,1,0,0:0:0:0:
64,192,50990,1,0,0:0:0:0:
448,192,50990,1,0,0:0:0:0:
320,192,51065,1,0,0:0:0:0:
192,192,51140,1,0,0:0:0:0:
64,192,51215,1,0,0:0:0:0:
192,192,51290,1,0,0:0:0:0:
320,192,51290,1,0,0:0:0:0:
448,192,51290,1,0,0:0:0:0:
64,192,51365,1,0,0:0:0:0:
192,192,51440,1,0,0:0:0:0:
320,192,51515,1,0,0:0:0:0:
64,192,51590,128,0,51740:0:0:0:0:
192,192,51590,1,0,0:0:0:0:
448,192,51590,1,0,0:0:0:0:
448,192,51740,128,0,51890:0:0:0:0:
192,192,51890,128,0,52040:0:0:0:0:
320,192,51890,1,0,0:0:0:0:
64,192,52040,128,0,52190:0:0:0:0:
192,192,52190,1,0,0:0:0:0:
320,192,52190,1,0,0:0:0:0:
448,192,52190,1,0,0:0:0:0:
64,192,52340,128,0,52490:0:0:0:0:
448,192,52490,1,0,0:0:0:0:
320,192,52490,1,0,0:0:0:0:
64,192,52640,1,0,0:0:0:0:
192,192,52790,1,0,0:0:0:0:
320,192,52790,1,0,0:0:0:0:
448,192,52790,1,0,0:0:0:0:
64,192,52865,1,0,0:0:0:0:
448,192,52940,1,0,0:0:0:0:
64,192,53015,1,0,0:0:0:0:
448,192,53090,1,0,0:0:0:0:
64,192,53165,1,0,0:0:0:0:
448,192,53240,1,0,0:0:0:0:
64,192,53315,1,0,0:0:0:0:
448,192,53390,1,0,0:0:0:0:
64,192,53465,1,0,0:0:0:0:
448,192,53540,1,0,0:0:0:0:
64,192,53615,1,0,0:0:0:0:
448,192,53690,1,0,0:0:0:0:
64,192,53765,1,0,0:0:0:0:
448,192,53840,1,0,0:0:0:0:
64,192,53915,1,0,0:0:0:0:
192,192,53990,1,0,0:0:0:0:
320,192,53990,1,0,0:0:0:0:
448,192,53990,128,0,54140:0:0:0:0:
320,192,54140,128,0,54290:0:0:0:0:
64,192,54290,128,0,54440:0:0:0:0:
448,192,54440,128,0,54590:0:0:0:0:
320,192,54740,128,0,54890:0:0:0:0:
192,192,54890,128,0,55040:0:0:0:0:
64,192,55040,128,0,55190:0:0:0:0:
192,192,55190,1,0,0:0:0:0:
320,192,55190,1,0,0:0:0:0:
448,192,55190,128,0,55340:0:0:0:0:
320,192,55340,128,0,55490:0:0:0:0:
64,192,55490,128,0,55640:0:0:0:0:
448,192,55640,128,0,55790:0:0:0:0:
320,192,55940,128,0,56090:0:0:0:0:
192,192,56090,128,0,56240:0:0:0:0:
64,192,56240,128,0,56390:0:0:0:0:
192,192,56390,1,0,0:0:0:0:
320,192,56390,1,0,0:0:0:0:
448,192,56390,128,0,56540:0:0:0:0:
320,192,56540,128,0,56690:0:0:0:0:
64,192,56690,128,0,56840:0:0:0:0:
448,192,56840,128,0,56990:0:0:0:0:
320,192,57140,128,0,57290:0:0:0:0:
192,192,57290,128,0,57440:0:0:0:0:
64,192,57440,128,0,57590:0:0:0:0:
192,192,57590,1,0,0:0:0:0:
320,192,57590,1,0,0:0:0:0:
448,192,57590,128,0,57740:0:0:0:0:
64,192,57740,128,0,57890:0:0:0:0:
192,192,57890,128,0,58040:0:0:0:0:
448,192,58040,128,0,58190:0:0:0:0:
320,192,58340,128,0,58490:0:0:0:0:
192,192,58490,128,0,58640:0:0:0:0:
64,192,58640,128,0,58790:0:0:0:0:
192,192,58790,1,0,0:0:0:0:
320,192,58790,1,0,0:0:0:0:
448,192,58790,128,0,58940:0:0:0:0:
64,192,58940,128,0,59090:0:0:0:0:
192,192,59090,128,0,59240:0:0:0:0:
320,192,59240,128,0,59390:0:0:0:0:
192,192,59390,1,0,0:0:0:0:
64,192,59390,1,0,0:0:0:0:
448,192,59390,128,0,59540:0:0:0:0:
64,192,59540,128,0,59690:0:0:0:0:
192,192,59690,128,0,59840:0:0:0:0:
320,192,59840,128,0,59990:0:0:0:0:
64,192,59990,1,0,0:0:0:0:
192,192,59990,1,0,0:0:0:0:
448,192,59990,128,0,60140:0:0:0:0:
64,192,60140,128,0,60290:0:0:0:0:
192,192,60290,128,0,60440:0:0:0:0:
320,192,60440,128,0,60590:0:0:0:0:
64,192,60590,1,0,0:0:0:0:
192,192,60590,1,0,0:0:0:0:
448,192,60590,128,0,60740:0:0:0:0:
64,192,60740,128,0,60890:0:0:0:0:
192,192,60890,128,0,61040:0:0:0:0:
320,192,61040,1,0,0:0:0:0:
64,192,61190,1,0,0:0:0:0:
192,192,61190,1,0,0:0:0:0:
448,192,61190,1,0,0:0:0:0:
320,192,61265,1,0,0:0:0:0:
192,192,61340,1,0,0:0:0:0:
64,192,61415,1,0,0:0:0:0:
192,192,61490,1,0,0:0:0:0:
320,192,61490,1,0,0:0:0:0:
448,192,61490,1,0,0:0:0:0:
64,192,61565,1,0,0:0:0:0:
192,192,61640,1,0,0:0:0:0:
320,192,61715,1,0,0:0:0:0:
192,192,61790,1,0,0:0:0:0:
64,192,61790,1,0,0:0:0:0:
448,192,61790,1,0,0:0:0:0:
320,192,61865,1,0,0:0:0:0:
192,192,61940,1,0,0:0:0:0:
64,192,62015,1,0,0:0:0:0:
192,192,62090,1,0,0:0:0:0:
320,192,62090,1,0,0:0:0:0:
448,192,62090,1,0,0:0:0:0:
64,192,62165,1,0,0:0:0:0:
192,192,62240,1,0,0:0:0:0:
320,192,62315,1,0,0:0:0:0:
192,192,62390,1,0,0:0:0:0:
64,192,62390,1,0,0:0:0:0:
448,192,62390,1,0,0:0:0:0:
320,192,62465,1,0,0:0:0:0:
192,192,62540,1,0,0:0:0:0:
320,192,62615,1,0,0:0:0:0:
64,192,62690,1,0,0:0:0:0:
192,192,62765,1,0,0:0:0:0:
448,192,62840,1,0,0:0:0:0:
320,192,62915,1,0,0:0:0:0:
64,192,62990,1,0,0:0:0:0:
192,192,63040,1,0,0:0:0:0:
448,192,63090,1,0,0:0:0:0:
320,192,63140,1,0,0:0:0:0:
64,192,63190,1,0,0:0:0:0:
192,192,63240,1,0,0:0:0:0:
448,192,63290,1,0,0:0:0:0:
320,192,63340,1,0,0:0:0:0:
64,192,63390,1,0,0:0:0:0:
192,192,63440,1,0,0:0:0:0:
448,192,63490,1,0,0:0:0:0:
320,192,63540,1,0,0:0:0:0:
192,192,63590,1,0,0:0:0:0:
64,192,63590,1,0,0:0:0:0:
448,192,63590,1,0,0:0:0:0:
320,192,63665,1,0,0:0:0:0:
192,192,63740,1,0,0:0:0:0:
320,192,63815,1,0,0:0:0:0:
192,192,63890,1,0,0:0:0:0:
320,192,63965,1,0,0:0:0:0:
192,192,64040,1,0,0:0:0:0:
320,192,64115,1,0,0:0:0:0:
192,192,64190,1,0,0:0:0:0:
320,192,64265,1,0,0:0:0:0:
192,192,64340,1,0,0:0:0:0:
320,192,64415,1,0,0:0:0:0:
192,192,64490,1,0,0:0:0:0:
320,192,64565,1,0,0:0:0:0:
192,192,64640,1,0,0:0:0:0:
320,192,64715,1,0,0:0:0:0:
192,192,64790,1,0,0:0:0:0:
64,192,64790,1,0,0:0:0:0:
448,192,64790,1,0,0:0:0:0:
320,192,64940,128,0,65090:0:0:0:0:
192,192,65090,1,0,0:0:0:0:
64,192,65090,1,0,0:0:0:0:
448,192,65090,1,0,0:0:0:0:
192,192,65240,128,0,65390:0:0:0:0:
64,192,65390,1,0,0:0:0:0:
320,192,65390,1,0,0:0:0:0:
448,192,65390,1,0,0:0:0:0:
192,192,65540,1,0,0:0:0:0:
64,192,65540,1,0,0:0:0:0:
192,192,65690,1,0,0:0:0:0:
320,192,65690,1,0,0:0:0:0:
320,192,65840,1,0,0:0:0:0:
448,192,65840,1,0,0:0:0:0:
192,192,65990,1,0,0:0:0:0:
448,192,65990,1,0,0:0:0:0:
64,192,65990,128,0,66365:0:0:0:0:
320,192,66140,1,0,0:0:0:0:
192,192,66290,1,0,0:0:0:0:
64,192,66440,128,0,66590:0:0:0:0:
448,192,66440,1,0,0:0:0:0:
320,192,66590,128,0,66740:0:0:0:0:
192,192,66590,1,0,0:0:0:0:
64,192,66740,128,0,66890:0:0:0:0:
192,192,66890,128,0,67040:0:0:0:0:
448,192,66890,1,0,0:0:0:0:
320,192,67040,128,0,67190:0:0:0:0:
448,192,67190,128,0,67865:0:0:0:0:
192,192,67190,1,0,0:0:0:0:
64,192,67190,1,0,0:0:0:0:
320,192,67340,1,0,0:0:0:0:
320,192,67490,1,0,0:0:0:0:
192,192,67490,1,0,0:0:0:0:
64,192,67490,1,0,0:0:0:0:
64,192,67640,1,0,0:0:0:0:
64,192,67790,1,0,0:0:0:0:
192,192,67790,1,0,0:0:0:0:
320,192,67790,1,0,0:0:0:0:
448,192,67940,128,0,68090:0:0:0:0:
192,192,67940,1,0,0:0:0:0:
320,192,68090,128,0,68240:0:0:0:0:
192,192,68090,1,0,0:0:0:0:
64,192,68090,1,0,0:0:0:0:
192,192,68240,128,0,68390:0:0:0:0:
448,192,68240,1,0,0:0:0:0:
64,192,68390,128,0,68765:0:0:0:0:
320,192,68390,1,0,0:0:0:0:
448,192,68390,1,0,0:0:0:0:
320,192,68540,1,0,0:0:0:0:
192,192,68690,1,0,0:0:0:0:
64,192,68840,128,0,68990:0:0:0:0:
448,192,68840,1,0,0:0:0:0:
320,192,68990,128,0,69140:0:0:0:0:
448,192,68990,1,0,0:0:0:0:
192,192,68990,1,0,0:0:0:0:
64,192,69140,128,0,69290:0:0:0:0:
448,192,69290,128,0,69440:0:0:0:0:
192,192,69290,1,0,0:0:0:0:
320,192,69440,128,0,69590:0:0:0:0:
192,192,69590,128,0,70490:0:0:0:0:
64,192,69590,1,0,0:0:0:0:
448,192,69590,1,0,0:0:0:0:
320,192,69740,1,0,0:0:0:0:
64,192,69890,1,0,0:0:0:0:
320,192,69890,1,0,0:0:0:0:
448,192,69890,1,0,0:0:0:0:
448,192,70040,1,0,0:0:0:0:
64,192,70190,1,0,0:0:0:0:
320,192,70190,1,0,0:0:0:0:
448,192,70265,1,0,0:0:0:0:
320,192,70340,1,0,0:0:0:0:
64,192,70340,1,0,0:0:0:0:
320,192,70490,1,0,0:0:0:0:
448,192,70490,1,0,0:0:0:0:
64,192,70490,128,0,70715:0:0:0:0:
448,192,70640,1,0,0:0:0:0:
320,192,70640,1,0,0:0:0:0:
448,192,70790,1,0,0:0:0:0:
192,192,70790,1,0,0:0:0:0:
64,192,70790,128,0,71315:0:0:0:0:
320,192,70940,1,0,0:0:0:0:
192,192,71090,1,0,0:0:0:0:
320,192,71240,1,0,0:0:0:0:
448,192,71240,1,0,0:0:0:0:
64,192,71390,128,0,71540:0:0:0:0:
192,192,71390,1,0,0:0:0:0:
320,192,71540,128,0,71690:0:0:0:0:
64,192,71690,128,0,71840:0:0:0:0:
192,192,71690,1,0,0:0:0:0:
448,192,71840,128,0,71990:0:0:0:0:
64,192,71990,1,0,0:0:0:0:
192,192,71990,1,0,0:0:0:0:
320,192,71990,128,0,72140:0:0:0:0:
192,192,72140,128,0,72290:0:0:0:0:
64,192,72290,128,0,72440:0:0:0:0:
320,192,72290,1,0,0:0:0:0:
448,192,72290,1,0,0:0:0:0:
448,192,72440,128,0,72590:0:0:0:0:
64,192,72590,1,0,0:0:0:0:
192,192,72590,1,0,0:0:0:0:
320,192,72590,128,0,72740:0:0:0:0:
64,192,72740,128,0,72890:0:0:0:0:
448,192,72890,128,0,73190:0:0:0:0:
192,192,72890,1,0,0:0:0:0:
320,192,72890,1,0,0:0:0:0:
64,192,73040,1,0,0:0:0:0:
320,192,73190,1,0,0:0:0:0:
192,192,73190,1,0,0:0:0:0:
64,192,73190,128,0,73340:0:0:0:0:
192,192,73340,128,0,73490:0:0:0:0:
320,192,73490,128,0,73640:0:0:0:0:
192,192,73640,128,0,73790:0:0:0:0:
448,192,73640,1,0,0:0:0:0:
64,192,73790,128,0,73940:0:0:0:0:
320,192,73790,1,0,0:0:0:0:
448,192,73790,1,0,0:0:0:0:
192,192,73940,128,0,74090:0:0:0:0:
320,192,74090,128,0,74240:0:0:0:0:
448,192,74090,1,0,0:0:0:0:
64,192,74240,128,0,74315:0:0:0:0:
64,192,74390,128,0,74840:0:0:0:0:
192,192,74390,1,0,0:0:0:0:
448,192,74390,1,0,0:0:0:0:
320,192,74540,1,0,0:0:0:0:
192,192,74690,1,0,0:0:0:0:
320,192,74690,1,0,0:0:0:0:
448,192,74690,1,0,0:0:0:0:
448,192,74840,128,0,74915:0:0:0:0:
448,192,74990,128,0,75590:0:0:0:0:
64,192,74990,1,0,0:0:0:0:
192,192,74990,1,0,0:0:0:0:
192,192,75190,1,0,0:0:0:0:
64,192,75190,1,0,0:0:0:0:
64,192,75440,1,0,0:0:0:0:
192,192,75440,1,0,0:0:0:0:
64,192,75590,1,0,0:0:0:0:
192,192,75590,1,0,0:0:0:0:
320,192,75590,1,0,0:0:0:0:
320,192,75790,1,0,0:0:0:0:
448,192,75790,1,0,0:0:0:0:
64,192,75890,1,0,0:0:0:0:
192,192,75890,1,0,0:0:0:0:
320,192,75990,1,0,0:0:0:0:
448,192,75990,1,0,0:0:0:0:
192,192,76090,1,0,0:0:0:0:
64,192,76090,1,0,0:0:0:0:
320,192,76190,1,0,0:0:0:0:
448,192,76190,1,0,0:0:0:0:
64,192,76390,1,0,0:0:0:0:
448,192,76390,1,0,0:0:0:0:
192,192,76490,1,0,0:0:0:0:
320,192,76490,1,0,0:0:0:0:
64,192,76590,1,0,0:0:0:0:
448,192,76590,1,0,0:0:0:0:
320,192,76690,1,0,0:0:0:0:
64,192,76790,1,0,0:0:0:0:
192,192,76790,1,0,0:0:0:0:
448,192,76790,1,0,0:0:0:0:
320,192,76890,1,0,0:0:0:0:
192,192,76990,1,0,0:0:0:0:
448,192,76990,1,0,0:0:0:0:
320,192,77090,1,0,0:0:0:0:
64,192,77090,1,0,0:0:0:0:
192,192,77190,1,0,0:0:0:0:
448,192,77190,1,0,0:0:0:0:
64,192,77290,1,0,0:0:0:0:
192,192,77390,1,0,0:0:0:0:
320,192,77390,1,0,0:0:0:0:
448,192,77390,1,0,0:0:0:0:
64,192,77490,1,0,0:0:0:0:
192,192,77590,1,0,0:0:0:0:
320,192,77590,1,0,0:0:0:0:
448,192,77690,128,0,77990:0:0:0:0:
64,192,77690,1,0,0:0:0:0:
192,192,77990,1,0,0:0:0:0:
64,192,77990,1,0,0:0:0:0:
320,192,77990,1,0,0:0:0:0:
448,192,78090,1,0,0:0:0:0:
64,192,78190,1,0,0:0:0:0:
320,192,78190,1,0,0:0:0:0:
192,192,78290,1,0,0:0:0:0:
448,192,78290,1,0,0:0:0:0:
320,192,78390,1,0,0:0:0:0:
64,192,78390,1,0,0:0:0:0:
448,192,78490,1,0,0:0:0:0:
64,192,78590,1,0,0:0:0:0:
192,192,78590,1,0,0:0:0:0:
448,192,78790,1,0,0:0:0:0:
320,192,78790,1,0,0:0:0:0:
192,192,78890,1,0,0:0:0:0:
64,192,78890,1,0,0:0:0:0:
320,192,79090,1,0,0:0:0:0:
448,192,79090,1,0,0:0:0:0:
192,192,79190,1,0,0:0:0:0:
64,192,79190,1,0,0:0:0:0:
320,192,79290,1,0,0:0:0:0:
64,192,79390,1,0,0:0:0:0:
448,192,79390,1,0,0:0:0:0:
320,192,79490,1,0,0:0:0:0:
192,192,79490,1,0,0:0:0:0:
448,192,79590,1,0,0:0:0:0:
192,192,79690,1,0,0:0:0:0:
64,192,79690,1,0,0:0:0:0:
320,192,79790,1,0,0:0:0:0:
448,192,79790,1,0,0:0:0:0:
192,192,79890,1,0,0:0:0:0:
64,192,79890,1,0,0:0:0:0:
64,192,79990,1,0,0:0:0:0:
192,192,79990,1,0,0:0:0:0:
320,192,80090,1,0,0:0:0:0:
448,192,80090,128,0,80390:0:0:0:0:
320,192,80390,1,0,0:0:0:0:
64,192,80390,1,0,0:0:0:0:
192,192,80490,1,0,0:0:0:0:
320,192,80590,1,0,0:0:0:0:
448,192,80590,1,0,0:0:0:0:
192,192,80690,1,0,0:0:0:0:
64,192,80690,1,0,0:0:0:0:
320,192,80790,1,0,0:0:0:0:
64,192,80890,1,0,0:0:0:0:
448,192,80890,1,0,0:0:0:0:
320,192,80990,1,0,0:0:0:0:
192,192,80990,1,0,0:0:0:0:
448,192,81090,1,0,0:0:0:0:
64,192,81190,1,0,0:0:0:0:
320,192,81190,1,0,0:0:0:0:
192,192,81290,1,0,0:0:0:0:
448,192,81290,1,0,0:0:0:0:
64,192,81390,1,0,0:0:0:0:
320,192,81390,1,0,0:0:0:0:
192,192,81490,1,0,0:0:0:0:
320,192,81590,1,0,0:0:0:0:
448,192,81590,1,0,0:0:0:0:
192,192,81690,1,0,0:0:0:0:
64,192,81690,1,0,0:0:0:0:
320,192,81790,1,0,0:0:0:0:
64,192,81890,1,0,0:0:0:0:
448,192,81890,1,0,0:0:0:0:
320,192,81990,1,0,0:0:0:0:
192,192,81990,1,0,0:0:0:0:
448,192,82090,1,0,0:0:0:0:
64,192,82190,1,0,0:0:0:0:
192,192,82190,1,0,0:0:0:0:
320,192,82290,1,0,0:0:0:0:
448,192,82290,1,0,0:0:0:0:
192,192,82390,1,0,0:0:0:0:
64,192,82390,1,0,0:0:0:0:
320,192,82490,1,0,0:0:0:0:
448,192,82490,128,0,82790:0:0:0:0:
64,192,82590,1,0,0:0:0:0:
64,192,82690,1,0,0:0:0:0:
320,192,82790,1,0,0:0:0:0:
192,192,82790,1,0,0:0:0:0:
64,192,82890,1,0,0:0:0:0:
448,192,82990,1,0,0:0:0:0:
192,192,82990,1,0,0:0:0:0:
320,192,83090,1,0,0:0:0:0:
64,192,83090,1,0,0:0:0:0:
192,192,83190,1,0,0:0:0:0:
64,192,83290,1,0,0:0:0:0:
448,192,83290,1,0,0:0:0:0:
320,192,83390,1,0,0:0:0:0:
192,192,83390,1,0,0:0:0:0:
448,192,83490,1,0,0:0:0:0:
192,192,83590,1,0,0:0:0:0:
64,192,83590,1,0,0:0:0:0:
320,192,83690,1,0,0:0:0:0:
448,192,83690,1,0,0:0:0:0:
64,192,83790,1,0,0:0:0:0:
320,192,83890,1,0,0:0:0:0:
448,192,83890,1,0,0:0:0:0:
192,192,83990,1,0,0:0:0:0:
64,192,83990,1,0,0:0:0:0:
448,192,84090,1,0,0:0:0:0:
448,192,84190,1,0,0:0:0:0:
320,192,84290,1,0,0:0:0:0:
192,192,84290,1,0,0:0:0:0:
64,192,84390,1,0,0:0:0:0:
64,192,84490,1,0,0:0:0:0:
320,192,84590,1,0,0:0:0:0:
448,192,84590,1,0,0:0:0:0:
192,192,84690,1,0,0:0:0:0:
64,192,84690,1,0,0:0:0:0:
320,192,84790,1,0,0:0:0:0:
448,192,84790,1,0,0:0:0:0:
192,192,84890,1,0,0:0:0:0:
64,192,84890,1,0,0:0:0:0:
320,192,84990,1,0,0:0:0:0:
448,192,84990,1,0,0:0:0:0:
192,192,85090,1,0,0:0:0:0:
64,192,85190,1,0,0:0:0:0:
320,192,85190,1,0,0:0:0:0:
448,192,85190,1,0,0:0:0:0:
192,192,85390,1,0,0:0:0:0:
448,192,85490,1,0,0:0:0:0:
64,192,85490,1,0,0:0:0:0:
320,192,85590,1,0,0:0:0:0:
192,192,85690,1,0,0:0:0:0:
64,192,85690,1,0,0:0:0:0:
320,192,85790,1,0,0:0:0:0:
448,192,85790,1,0,0:0:0:0:
64,192,85990,1,0,0:0:0:0:
320,192,86090,1,0,0:0:0:0:
192,192,86090,1,0,0:0:0:0:
448,192,86190,1,0,0:0:0:0:
320,192,86290,1,0,0:0:0:0:
192,192,86390,1,0,0:0:0:0:
64,192,86390,1,0,0:0:0:0:
448,192,86390,1,0,0:0:0:0:
320,192,86590,1,0,0:0:0:0:
64,192,86590,1,0,0:0:0:0:
192,192,86690,1,0,0:0:0:0:
448,192,86690,1,0,0:0:0:0:
192,192,86890,1,0,0:0:0:0:
448,192,86990,1,0,0:0:0:0:
64,192,86990,1,0,0:0:0:0:
320,192,87090,1,0,0:0:0:0:
192,192,87090,1,0,0:0:0:0:
64,192,87190,1,0,0:0:0:0:
448,192,87190,1,0,0:0:0:0:
320,192,87290,1,0,0:0:0:0:
192,192,87290,1,0,0:0:0:0:
448,192,87390,1,0,0:0:0:0:
64,192,87490,1,0,0:0:0:0:
192,192,87590,1,0,0:0:0:0:
320,192,87590,1,0,0:0:0:0:
448,192,87590,1,0,0:0:0:0:
64,192,87790,1,0,0:0:0:0:
320,192,87890,1,0,0:0:0:0:
448,192,87890,1,0,0:0:0:0:
192,192,87990,1,0,0:0:0:0:
64,192,87990,1,0,0:0:0:0:
320,192,88090,1,0,0:0:0:0:
448,192,88190,1,0,0:0:0:0:
192,192,88190,1,0,0:0:0:0:
64,192,88190,1,0,0:0:0:0:
320,192,88390,1,0,0:0:0:0:
64,192,88390,1,0,0:0:0:0:
192,192,88490,1,0,0:0:0:0:
448,192,88490,1,0,0:0:0:0:
320,192,88590,1,0,0:0:0:0:
64,192,88690,1,0,0:0:0:0:
192,192,88790,1,0,0:0:0:0:
448,192,88790,1,0,0:0:0:0:
64,192,88890,1,0,0:0:0:0:
320,192,88890,1,0,0:0:0:0:
192,192,88990,1,0,0:0:0:0:
448,192,88990,1,0,0:0:0:0:
320,192,89090,1,0,0:0:0:0:
64,192,89090,1,0,0:0:0:0:
192,192,89190,1,0,0:0:0:0:
448,192,89190,1,0,0:0:0:0:
320,192,89290,1,0,0:0:0:0:
64,192,89290,1,0,0:0:0:0:
192,192,89390,1,0,0:0:0:0:
448,192,89390,1,0,0:0:0:0:
320,192,89490,1,0,0:0:0:0:
64,192,89490,1,0,0:0:0:0:
192,192,89590,1,0,0:0:0:0:
448,192,89590,1,0,0:0:0:0:
320,192,89690,1,0,0:0:0:0:
64,192,89690,128,0,89990:0:0:0:0:
192,192,89790,1,0,0:0:0:0:
448,192,89790,1,0,0:0:0:0:
192,192,89990,1,0,0:0:0:0:
320,192,89990,1,0,0:0:0:0:
448,192,89990,1,0,0:0:0:0:
64,192,90090,1,0,0:0:0:0:
192,192,90190,1,0,0:0:0:0:
64,192,90290,1,0,0:0:0:0:
320,192,90290,1,0,0:0:0:0:
448,192,90290,1,0,0:0:0:0:
192,192,90390,1,0,0:0:0:0:
448,192,90490,1,0,0:0:0:0:
320,192,90590,1,0,0:0:0:0:
192,192,90590,1,0,0:0:0:0:
64,192,90590,1,0,0:0:0:0:
448,192,90690,1,0,0:0:0:0:
320,192,90790,1,0,0:0:0:0:
64,192,90890,1,0,0:0:0:0:
192,192,90890,1,0,0:0:0:0:
448,192,90890,1,0,0:0:0:0:
320,192,90990,1,0,0:0:0:0:
64,192,91090,1,0,0:0:0:0:
192,192,91190,1,0,0:0:0:0:
320,192,91190,1,0,0:0:0:0:
448,192,91190,1,0,0:0:0:0:
64,192,91290,1,0,0:0:0:0:
448,192,91390,1,0,0:0:0:0:
192,192,91390,1,0,0:0:0:0:
320,192,91490,1,0,0:0:0:0:
64,192,91490,1,0,0:0:0:0:
192,192,91590,1,0,0:0:0:0:
320,192,91690,1,0,0:0:0:0:
448,192,91790,1,0,0:0:0:0:
192,192,91790,1,0,0:0:0:0:
64,192,91790,1,0,0:0:0:0:
320,192,91890,1,0,0:0:0:0:
64,192,91990,1,0,0:0:0:0:
448,192,91990,1,0,0:0:0:0:
320,192,92090,1,0,0:0:0:0:
192,192,92090,1,0,0:0:0:0:
64,192,92190,1,0,0:0:0:0:
64,192,92290,1,0,0:0:0:0:
448,192,92390,1,0,0:0:0:0:
320,192,92390,1,0,0:0:0:0:
192,192,92390,1,0,0:0:0:0:
64,192,92490,1,0,0:0:0:0:
448,192,92590,1,0,0:0:0:0:
320,192,92590,1,0,0:0:0:0:
64,192,92690,1,0,0:0:0:0:
192,192,92690,1,0,0:0:0:0:
320,192,92790,1,0,0:0:0:0:
448,192,92790,1,0,0:0:0:0:
192,192,92890,1,0,0:0:0:0:
448,192,92990,1,0,0:0:0:0:
64,192,92990,1,0,0:0:0:0:
320,192,92990,1,0,0:0:0:0:
192,192,93090,1,0,0:0:0:0:
448,192,93190,1,0,0:0:0:0:
64,192,93190,1,0,0:0:0:0:
320,192,93290,1,0,0:0:0:0:
448,192,93390,1,0,0:0:0:0:
192,192,93390,1,0,0:0:0:0:
64,192,93490,1,0,0:0:0:0:
320,192,93590,1,0,0:0:0:0:
192,192,93590,1,0,0:0:0:0:
448,192,93690,1,0,0:0:0:0:
320,192,93790,1,0,0:0:0:0:
192,192,93890,1,0,0:0:0:0:
64,192,93890,1,0,0:0:0:0:
320,192,93990,1,0,0:0:0:0:
448,192,93990,1,0,0:0:0:0:
192,192,94090,1,0,0:0:0:0:
448,192,94190,1,0,0:0:0:0:
64,192,94190,1,0,0:0:0:0:
320,192,94190,1,0,0:0:0:0:
192,192,94290,1,0,0:0:0:0:
64,192,94390,1,0,0:0:0:0:
320,192,94490,1,0,0:0:0:0:
448,192,94490,1,0,0:0:0:0:
192,192,94590,1,0,0:0:0:0:
64,192,94590,1,0,0:0:0:0:
320,192,94690,1,0,0:0:0:0:
448,192,94790,1,0,0:0:0:0:
192,192,94790,1,0,0:0:0:0:
64,192,94790,1,0,0:0:0:0:
320,192,94990,1,0,0:0:0:0:
448,192,94990,1,0,0:0:0:0:
192,192,95090,1,0,0:0:0:0:
64,192,95090,1,0,0:0:0:0:
320,192,95190,1,0,0:0:0:0:
448,192,95290,1,0,0:0:0:0:
320,192,95390,1,0,0:0:0:0:
64,192,95390,1,0,0:0:0:0:
192,192,95390,1,0,0:0:0:0:
448,192,95490,1,0,0:0:0:0:
192,192,95590,1,0,0:0:0:0:
64,192,95590,1,0,0:0:0:0:
448,192,95690,1,0,0:0:0:0:
320,192,95690,1,0,0:0:0:0:
64,192,95790,1,0,0:0:0:0:
192,192,95790,1,0,0:0:0:0:
320,192,95890,1,0,0:0:0:0:
448,192,95990,1,0,0:0:0:0:
192,192,95990,1,0,0:0:0:0:
64,192,95990,1,0,0:0:0:0:
192,192,96190,1,0,0:0:0:0:
448,192,96290,1,0,0:0:0:0:
64,192,96290,1,0,0:0:0:0:
320,192,96290,1,0,0:0:0:0:
64,192,96490,1,0,0:0:0:0:
448,192,96590,1,0,0:0:0:0:
192,192,96590,1,0,0:0:0:0:
320,192,96590,1,0,0:0:0:0:
64,192,96690,1,0,0:0:0:0:
192,192,96790,1,0,0:0:0:0:
448,192,96890,1,0,0:0:0:0:
320,192,96890,1,0,0:0:0:0:
64,192,96890,1,0,0:0:0:0:
320,192,97090,1,0,0:0:0:0:
448,192,97190,1,0,0:0:0:0:
64,192,97190,1,0,0:0:0:0:
192,192,97190,1,0,0:0:0:0:
320,192,97290,1,0,0:0:0:0:
192,192,97390,1,0,0:0:0:0:
448,192,97390,1,0,0:0:0:0:
320,192,97490,1,0,0:0:0:0:
64,192,97490,1,0,0:0:0:0:
192,192,97590,1,0,0:0:0:0:
448,192,97590,1,0,0:0:0:0:
320,192,97690,1,0,0:0:0:0:
64,192,97690,1,0,0:0:0:0:
192,192,97790,1,0,0:0:0:0:
448,192,97790,1,0,0:0:0:0:
320,192,97990,1,0,0:0:0:0:
448,192,98090,1,0,0:0:0:0:
192,192,98090,1,0,0:0:0:0:
64,192,98090,1,0,0:0:0:0:
320,192,98190,1,0,0:0:0:0:
448,192,98290,1,0,0:0:0:0:
320,192,98390,1,0,0:0:0:0:
192,192,98390,1,0,0:0:0:0:
448,192,98490,1,0,0:0:0:0:
64,192,98490,1,0,0:0:0:0:
192,192,98590,1,0,0:0:0:0:
320,192,98590,1,0,0:0:0:0:
448,192,98690,1,0,0:0:0:0:
64,192,98690,1,0,0:0:0:0:
320,192,98790,1,0,0:0:0:0:
192,192,98790,1,0,0:0:0:0:
64,192,98890,1,0,0:0:0:0:
448,192,98890,1,0,0:0:0:0:
320,192,98990,1,0,0:0:0:0:
192,192,98990,1,0,0:0:0:0:
64,192,99090,1,0,0:0:0:0:
448,192,99090,1,0,0:0:0:0:
320,192,99190,1,0,0:0:0:0:
192,192,99190,1,0,0:0:0:0:
448,192,99290,1,0,0:0:0:0:
192,192,99290,1,0,0:0:0:0:
64,192,99290,128,0,99590:0:0:0:0:
320,192,99390,1,0,0:0:0:0:
448,192,99590,1,0,0:0:0:0:
192,192,99590,1,0,0:0:0:0:
320,192,99590,1,0,0:0:0:0:
64,192,99690,1,0,0:0:0:0:
192,192,99790,1,0,0:0:0:0:
320,192,99790,1,0,0:0:0:0:
448,192,99890,1,0,0:0:0:0:
64,192,99890,1,0,0:0:0:0:
320,192,99990,1,0,0:0:0:0:
192,192,100090,1,0,0:0:0:0:
64,192,100090,1,0,0:0:0:0:
320,192,100190,1,0,0:0:0:0:
448,192,100190,1,0,0:0:0:0:
64,192,100290,1,0,0:0:0:0:
448,192,100390,1,0,0:0:0:0:
192,192,100390,1,0,0:0:0:0:
320,192,100490,1,0,0:0:0:0:
64,192,100490,1,0,0:0:0:0:
192,192,100590,1,0,0:0:0:0:
448,192,100590,1,0,0:0:0:0:
320,192,100690,1,0,0:0:0:0:
64,192,100690,1,0,0:0:0:0:
448,192,100790,1,0,0:0:0:0:
320,192,100790,1,0,0:0:0:0:
192,192,100790,1,0,0:0:0:0:
64,192,100890,1,0,0:0:0:0:
448,192,100990,1,0,0:0:0:0:
320,192,100990,1,0,0:0:0:0:
192,192,101090,1,0,0:0:0:0:
64,192,101090,1,0,0:0:0:0:
320,192,101190,1,0,0:0:0:0:
448,192,101290,1,0,0:0:0:0:
320,192,101390,1,0,0:0:0:0:
192,192,101390,1,0,0:0:0:0:
64,192,101390,1,0,0:0:0:0:
448,192,101490,1,0,0:0:0:0:
192,192,101590,1,0,0:0:0:0:
64,192,101590,1,0,0:0:0:0:
320,192,101690,1,0,0:0:0:0:
448,192,101690,1,0,0:0:0:0:
192,192,101790,1,0,0:0:0:0:
64,192,101790,1,0,0:0:0:0:
320,192,101890,1,0,0:0:0:0:
448,192,101990,1,0,0:0:0:0:
64,192,101990,1,0,0:0:0:0:
192,192,101990,1,0,0:0:0:0:
320,192,102090,1,0,0:0:0:0:
192,192,102190,1,0,0:0:0:0:
448,192,102190,1,0,0:0:0:0:
320,192,102290,1,0,0:0:0:0:
64,192,102290,1,0,0:0:0:0:
192,192,102390,1,0,0:0:0:0:
448,192,102490,1,0,0:0:0:0:
192,192,102590,1,0,0:0:0:0:
64,192,102590,1,0,0:0:0:0:
320,192,102590,1,0,0:0:0:0:
448,192,102690,1,0,0:0:0:0:
320,192,102790,1,0,0:0:0:0:
64,192,102790,1,0,0:0:0:0:
192,192,102890,1,0,0:0:0:0:
448,192,102890,1,0,0:0:0:0:
320,192,102990,1,0,0:0:0:0:
64,192,102990,1,0,0:0:0:0:
192,192,103090,1,0,0:0:0:0:
448,192,103190,1,0,0:0:0:0:
320,192,103190,1,0,0:0:0:0:
64,192,103190,1,0,0:0:0:0:
192,192,103290,1,0,0:0:0:0:
192,192,103390,1,0,0:0:0:0:
448,192,103490,1,0,0:0:0:0:
320,192,103490,1,0,0:0:0:0:
64,192,103490,1,0,0:0:0:0:
192,192,103590,1,0,0:0:0:0:
192,192,103690,1,0,0:0:0:0:
448,192,103790,128,0,104390:0:0:0:0:
64,192,103790,128,0,104090:0:0:0:0:
320,192,103790,128,0,104290:0:0:0:0:
