osu file format v14

[General]
AudioFilename: Rochill Tarmination(9 voice edit).mp3
AudioLeadIn: 0
PreviewTime: 12893
Countdown: 0
SampleSet: Normal
StackLeniency: 0.7
Mode: 1
LetterboxInBreaks: 0
WidescreenStoryboard: 1

[Editor]
Bookmarks: -16,12884,32084,51300,60900,70493,82484,95100,96900,106500
DistanceSpacing: 1
BeatDivisor: 16
GridSize: 32
TimelineZoom: 2.750003

[Metadata]
Title:Rochill Tarmination (9 voice edit)
TitleUnicode:Rochill Tarmination (9 voice edit)
Artist:AU
ArtistUnicode:AU
Creator:Lno
Version:Oni
Source:Touhou
Tags:rotter tarmination sampling masters MEGA Taiko no Tatsujin cirno
BeatmapID:1765743
BeatmapSetID:844039

[Difficulty]
HPDrainRate:5
CircleSize:5
OverallDifficulty:6
ApproachRate:5
SliderMultiplier:1.4
SliderTickRate:1

[Events]
//Background and Video events
0,0,"LBG25.jpg",0,0
//Break Periods
//Storyboard Layer 0 (Background)
//Storyboard Layer 1 (Fail)
//Storyboard Layer 2 (Pass)
//Storyboard Layer 3 (Foreground)
//Storyboard Sound Samples

[TimingPoints]
887,300,4,1,0,100,1,0
82487,300,3,1,0,100,1,1
95087,-100,3,1,0,100,0,0
96887,300,4,1,0,100,1,1
106487,-100,4,1,0,100,0,0

[HitObjects]
224,224,887,5,0,0:0:0:0:
224,224,1112,1,0,0:0:0:0:
224,224,1187,1,0,0:0:0:0:
224,224,1337,1,0,0:0:0:0:
288,224,1487,1,8,0:0:0:0:
288,224,1712,1,8,0:0:0:0:
288,224,1787,1,8,0:0:0:0:
224,224,1937,1,0,0:0:0:0:
288,224,2087,1,8,0:0:0:0:
224,224,2312,1,0,0:0:0:0:
224,224,2387,1,0,0:0:0:0:
224,224,2537,1,0,0:0:0:0:
288,224,2687,1,8,0:0:0:0:
288,224,2762,1,8,0:0:0:0:
288,224,2837,1,8,0:0:0:0:
288,224,2912,1,8,0:0:0:0:
224,224,2987,1,0,0:0:0:0:
288,224,3062,1,8,0:0:0:0:
224,224,3137,1,0,0:0:0:0:
288,224,3212,1,8,0:0:0:0:
224,224,3287,1,0,0:0:0:0:
224,224,3512,1,0,0:0:0:0:
224,224,3587,1,0,0:0:0:0:
224,224,3737,1,0,0:0:0:0:
288,224,3887,1,8,0:0:0:0:
288,224,4112,1,8,0:0:0:0:
288,224,4187,1,8,0:0:0:0:
224,224,4337,1,0,0:0:0:0:
288,224,4487,1,8,0:0:0:0:
224,224,4712,1,0,0:0:0:0:
288,224,4787,1,8,0:0:0:0:
224,224,4937,1,0,0:0:0:0:
288,224,5087,1,8,0:0:0:0:
288,224,5162,1,8,0:0:0:0:
224,224,5237,1,0,0:0:0:0:
224,224,5312,1,0,0:0:0:0:
288,224,5387,1,8,0:0:0:0:
288,224,5462,1,8,0:0:0:0:
288,224,5537,1,8,0:0:0:0:
224,224,5612,1,0,0:0:0:0:
224,224,5687,1,0,0:0:0:0:
224,224,5912,1,0,0:0:0:0:
224,224,5987,1,0,0:0:0:0:
224,224,6137,1,0,0:0:0:0:
288,224,6287,1,8,0:0:0:0:
288,224,6512,1,8,0:0:0:0:
288,224,6587,1,8,0:0:0:0:
224,224,6737,1,0,0:0:0:0:
288,224,6887,1,8,0:0:0:0:
224,224,7112,1,0,0:0:0:0:
224,224,7187,1,0,0:0:0:0:
224,224,7337,1,0,0:0:0:0:
288,224,7487,1,8,0:0:0:0:
288,224,7562,1,8,0:0:0:0:
288,224,7637,1,8,0:0:0:0:
224,224,7712,1,0,0:0:0:0:
288,224,7787,1,8,0:0:0:0:
224,224,7862,1,0,0:0:0:0:
224,224,7937,1,0,0:0:0:0:
224,224,8012,1,0,0:0:0:0:
288,224,8087,1,8,0:0:0:0:
224,224,8312,1,0,0:0:0:0:
224,224,8387,1,0,0:0:0:0:
224,224,8537,1,0,0:0:0:0:
288,224,8687,1,8,0:0:0:0:
288,224,8912,1,8,0:0:0:0:
288,224,8987,1,8,0:0:0:0:
224,224,9137,1,0,0:0:0:0:
288,160,9287,1,12,0:0:0:0:
224,224,9437,1,0,0:0:0:0:
224,224,9587,1,0,0:0:0:0:
288,160,9737,1,12,0:0:0:0:
224,224,9887,1,0,0:0:0:0:
224,224,10037,1,0,0:0:0:0:
224,224,10112,1,0,0:0:0:0:
288,160,10187,1,12,0:0:0:0:
224,224,10337,1,0,0:0:0:0:
256,192,10487,12,12,12587,0:0:0:0:
224,224,12887,5,0,0:0:0:0:
224,224,13187,1,0,0:0:0:0:
288,224,13337,1,8,0:0:0:0:
288,224,13637,1,8,0:0:0:0:
288,224,13787,1,8,0:0:0:0:
224,224,13937,1,0,0:0:0:0:
288,224,14087,1,8,0:0:0:0:
224,224,14237,1,0,0:0:0:0:
224,224,14387,1,0,0:0:0:0:
288,224,14537,1,8,0:0:0:0:
288,224,14837,1,8,0:0:0:0:
224,224,14987,1,0,0:0:0:0:
288,224,15137,1,8,0:0:0:0:
224,224,15287,1,0,0:0:0:0:
288,224,15437,1,8,0:0:0:0:
288,224,15512,1,8,0:0:0:0:
224,224,15587,1,0,0:0:0:0:
288,224,15737,1,8,0:0:0:0:
224,224,15887,1,0,0:0:0:0:
288,224,16037,1,8,0:0:0:0:
288,224,16112,1,8,0:0:0:0:
224,224,16187,1,0,0:0:0:0:
288,224,16337,1,8,0:0:0:0:
288,160,16487,1,12,0:0:0:0:
288,160,16787,1,12,0:0:0:0:
288,160,16937,1,12,0:0:0:0:
288,160,17237,1,12,0:0:0:0:
288,160,17387,1,12,0:0:0:0:
288,160,17687,1,12,0:0:0:0:
224,224,17987,1,0,0:0:0:0:
224,224,18137,1,0,0:0:0:0:
288,224,18437,1,8,0:0:0:0:
288,224,18587,1,8,0:0:0:0:
224,224,18737,1,0,0:0:0:0:
288,224,18887,1,8,0:0:0:0:
224,224,19037,1,0,0:0:0:0:
224,224,19187,1,0,0:0:0:0:
224,224,19262,1,0,0:0:0:0:
288,224,19337,1,8,0:0:0:0:
288,224,19637,1,8,0:0:0:0:
224,224,19787,1,0,0:0:0:0:
288,224,19937,1,8,0:0:0:0:
224,224,20087,1,0,0:0:0:0:
288,224,20237,1,8,0:0:0:0:
288,224,20312,1,8,0:0:0:0:
224,224,20387,1,0,0:0:0:0:
288,224,20537,1,8,0:0:0:0:
224,224,20687,1,0,0:0:0:0:
288,224,20837,1,8,0:0:0:0:
288,224,20912,1,8,0:0:0:0:
224,224,20987,1,0,0:0:0:0:
288,224,21137,1,8,0:0:0:0:
288,160,21287,1,12,0:0:0:0:
288,160,21587,1,12,0:0:0:0:
288,160,21737,1,12,0:0:0:0:
288,160,22037,1,12,0:0:0:0:
288,160,22187,1,12,0:0:0:0:
224,160,22487,1,4,0:0:0:0:
288,224,22637,1,8,0:0:0:0:
288,224,22712,1,8,0:0:0:0:
224,224,22787,1,0,0:0:0:0:
288,224,22937,1,8,0:0:0:0:
224,224,23087,1,0,0:0:0:0:
288,224,23237,1,8,0:0:0:0:
288,224,23312,1,8,0:0:0:0:
224,224,23387,1,0,0:0:0:0:
288,224,23537,1,8,0:0:0:0:
288,224,23687,1,8,0:0:0:0:
288,224,23762,1,8,0:0:0:0:
224,224,23837,1,0,0:0:0:0:
224,224,23912,1,0,0:0:0:0:
288,224,23987,1,8,0:0:0:0:
288,224,24137,1,8,0:0:0:0:
288,224,24437,1,8,0:0:0:0:
224,224,24587,1,0,0:0:0:0:
224,224,24662,1,0,0:0:0:0:
288,224,24737,1,8,0:0:0:0:
224,224,24887,1,0,0:0:0:0:
224,224,25037,1,0,0:0:0:0:
288,224,25187,1,8,0:0:0:0:
288,224,25337,1,8,0:0:0:0:
288,224,25637,1,8,0:0:0:0:
224,224,25787,1,0,0:0:0:0:
288,224,25937,1,8,0:0:0:0:
224,224,26087,1,0,0:0:0:0:
224,224,26237,1,0,0:0:0:0:
224,224,26312,1,0,0:0:0:0:
224,224,26387,1,0,0:0:0:0:
288,224,26537,1,8,0:0:0:0:
288,224,26837,1,8,0:0:0:0:
224,224,26987,1,0,0:0:0:0:
288,224,27137,1,8,0:0:0:0:
224,224,27287,1,0,0:0:0:0:
288,224,27437,1,8,0:0:0:0:
288,224,27512,1,8,0:0:0:0:
224,224,27587,1,0,0:0:0:0:
288,224,27737,1,8,0:0:0:0:
224,224,27887,1,0,0:0:0:0:
288,224,28037,1,8,0:0:0:0:
288,224,28112,1,8,0:0:0:0:
224,224,28187,1,0,0:0:0:0:
224,224,28337,1,0,0:0:0:0:
288,224,28487,1,8,0:0:0:0:
288,224,28562,1,8,0:0:0:0:
224,224,28637,1,0,0:0:0:0:
224,224,28712,1,0,0:0:0:0:
288,224,28787,1,8,0:0:0:0:
288,224,28937,1,8,0:0:0:0:
288,224,29237,1,8,0:0:0:0:
224,224,29387,1,0,0:0:0:0:
288,224,29537,1,8,0:0:0:0:
224,224,29687,1,0,0:0:0:0:
224,224,29837,1,0,0:0:0:0:
224,224,29987,1,0,0:0:0:0:
288,224,30137,1,8,0:0:0:0:
224,224,30437,1,0,0:0:0:0:
288,224,30587,1,8,0:0:0:0:
288,224,30737,1,8,0:0:0:0:
288,224,30887,1,8,0:0:0:0:
288,224,30962,1,8,0:0:0:0:
288,224,31037,1,8,0:0:0:0:
288,224,31112,1,8,0:0:0:0:
224,224,31187,1,0,0:0:0:0:
224,224,31262,1,0,0:0:0:0:
224,224,31337,1,0,0:0:0:0:
224,224,31412,1,0,0:0:0:0:
288,224,31487,1,8,0:0:0:0:
288,224,31562,1,8,0:0:0:0:
288,224,31637,1,8,0:0:0:0:
224,224,31712,1,0,0:0:0:0:
224,224,31787,1,0,0:0:0:0:
224,224,31862,1,0,0:0:0:0:
288,224,31937,1,8,0:0:0:0:
288,224,32012,1,8,0:0:0:0:
224,224,32087,1,0,0:0:0:0:
224,224,32387,1,0,0:0:0:0:
288,224,32537,1,8,0:0:0:0:
288,224,32837,1,8,0:0:0:0:
288,224,32987,1,8,0:0:0:0:
224,224,33137,1,0,0:0:0:0:
288,224,33287,1,8,0:0:0:0:
288,224,33437,1,8,0:0:0:0:
224,224,33587,1,0,0:0:0:0:
288,224,33737,1,8,0:0:0:0:
288,224,34037,1,8,0:0:0:0:
224,224,34187,1,0,0:0:0:0:
288,224,34337,1,8,0:0:0:0:
224,224,34487,1,0,0:0:0:0:
288,224,34637,1,8,0:0:0:0:
288,224,34712,1,8,0:0:0:0:
224,224,34787,1,0,0:0:0:0:
288,224,34937,1,8,0:0:0:0:
224,224,35087,1,0,0:0:0:0:
288,224,35237,1,8,0:0:0:0:
288,224,35312,1,8,0:0:0:0:
224,224,35387,1,0,0:0:0:0:
288,224,35537,1,8,0:0:0:0:
288,160,35687,1,12,0:0:0:0:
288,160,35987,1,12,0:0:0:0:
288,160,36137,1,12,0:0:0:0:
288,160,36437,1,12,0:0:0:0:
288,160,36587,1,12,0:0:0:0:
288,160,36887,1,12,0:0:0:0:
224,224,37187,1,0,0:0:0:0:
288,224,37337,1,8,0:0:0:0:
288,224,37637,1,8,0:0:0:0:
288,224,37787,1,8,0:0:0:0:
224,224,37937,1,0,0:0:0:0:
288,224,38087,1,8,0:0:0:0:
288,224,38237,1,8,0:0:0:0:
224,224,38387,1,0,0:0:0:0:
288,224,38537,1,8,0:0:0:0:
288,224,38837,1,8,0:0:0:0:
224,224,38987,1,0,0:0:0:0:
288,224,39137,1,8,0:0:0:0:
224,224,39287,1,0,0:0:0:0:
288,224,39437,1,8,0:0:0:0:
288,224,39512,1,8,0:0:0:0:
224,224,39587,1,0,0:0:0:0:
288,224,39737,1,8,0:0:0:0:
224,224,39887,1,0,0:0:0:0:
288,224,40037,1,8,0:0:0:0:
288,224,40112,1,8,0:0:0:0:
224,224,40187,1,0,0:0:0:0:
288,224,40337,1,8,0:0:0:0:
288,160,40487,1,12,0:0:0:0:
288,160,40787,1,12,0:0:0:0:
288,160,40937,1,12,0:0:0:0:
288,160,41237,1,12,0:0:0:0:
288,160,41387,1,12,0:0:0:0:
224,160,41687,1,4,0:0:0:0:
288,224,41837,1,8,0:0:0:0:
288,224,41912,1,8,0:0:0:0:
224,224,41987,1,0,0:0:0:0:
288,224,42137,1,8,0:0:0:0:
224,224,42287,1,0,0:0:0:0:
288,224,42437,1,8,0:0:0:0:
288,224,42512,1,8,0:0:0:0:
224,224,42587,1,0,0:0:0:0:
288,224,42737,1,8,0:0:0:0:
288,224,42887,1,8,0:0:0:0:
288,224,42962,1,8,0:0:0:0:
224,224,43037,1,0,0:0:0:0:
224,224,43112,1,0,0:0:0:0:
288,224,43187,1,8,0:0:0:0:
288,224,43337,1,8,0:0:0:0:
288,224,43637,1,8,0:0:0:0:
224,224,43787,1,0,0:0:0:0:
224,224,43862,1,0,0:0:0:0:
288,224,43937,1,8,0:0:0:0:
224,224,44087,1,0,0:0:0:0:
224,224,44237,1,0,0:0:0:0:
288,224,44387,1,8,0:0:0:0:
288,224,44537,1,8,0:0:0:0:
288,224,44837,1,8,0:0:0:0:
224,224,44987,1,0,0:0:0:0:
288,224,45137,1,8,0:0:0:0:
224,224,45287,1,0,0:0:0:0:
224,224,45437,1,0,0:0:0:0:
224,224,45512,1,0,0:0:0:0:
224,224,45587,1,0,0:0:0:0:
288,224,45737,1,8,0:0:0:0:
288,224,46037,1,8,0:0:0:0:
224,224,46187,1,0,0:0:0:0:
288,224,46337,1,8,0:0:0:0:
224,224,46487,1,0,0:0:0:0:
288,224,46637,1,8,0:0:0:0:
288,224,46712,1,8,0:0:0:0:
224,224,46787,1,0,0:0:0:0:
288,224,46937,1,8,0:0:0:0:
224,224,47087,1,0,0:0:0:0:
288,224,47237,1,8,0:0:0:0:
288,224,47312,1,8,0:0:0:0:
224,224,47387,1,0,0:0:0:0:
224,224,47537,1,0,0:0:0:0:
288,224,47687,1,8,0:0:0:0:
288,224,47762,1,8,0:0:0:0:
224,224,47837,1,0,0:0:0:0:
224,224,47912,1,0,0:0:0:0:
288,224,47987,1,8,0:0:0:0:
288,224,48137,1,8,0:0:0:0:
288,224,48437,1,8,0:0:0:0:
224,224,48587,1,0,0:0:0:0:
288,224,48737,1,8,0:0:0:0:
224,224,48887,1,0,0:0:0:0:
224,224,49037,1,0,0:0:0:0:
224,224,49187,1,0,0:0:0:0:
288,224,49337,1,8,0:0:0:0:
224,224,49637,1,0,0:0:0:0:
288,224,49787,1,8,0:0:0:0:
288,224,49937,1,8,0:0:0:0:
224,224,50087,1,0,0:0:0:0:
288,224,50162,1,8,0:0:0:0:
288,224,50237,1,8,0:0:0:0:
288,224,50312,1,8,0:0:0:0:
224,224,50387,1,0,0:0:0:0:
288,224,50462,1,8,0:0:0:0:
288,224,50537,1,8,0:0:0:0:
288,224,50612,1,8,0:0:0:0:
224,224,50687,1,0,0:0:0:0:
224,224,50762,1,0,0:0:0:0:
224,224,50837,1,0,0:0:0:0:
224,224,50912,1,0,0:0:0:0:
288,224,50987,1,8,0:0:0:0:
288,224,51062,1,8,0:0:0:0:
288,224,51137,1,8,0:0:0:0:
288,224,51212,1,8,0:0:0:0:
224,224,51287,1,0,0:0:0:0:
224,224,51437,1,0,0:0:0:0:
224,224,51512,1,0,0:0:0:0:
224,224,51587,1,0,0:0:0:0:
288,224,51737,1,8,0:0:0:0:
224,224,51887,1,0,0:0:0:0:
224,224,51962,1,0,0:0:0:0:
224,224,52037,1,0,0:0:0:0:
224,224,52187,1,0,0:0:0:0:
288,224,52337,1,8,0:0:0:0:
224,224,52487,1,0,0:0:0:0:
224,224,52562,1,0,0:0:0:0:
224,224,52637,1,0,0:0:0:0:
224,224,52787,1,0,0:0:0:0:
288,224,52937,1,8,0:0:0:0:
224,224,53087,1,0,0:0:0:0:
224,224,53162,1,0,0:0:0:0:
224,224,53237,1,0,0:0:0:0:
224,224,53387,1,0,0:0:0:0:
288,224,53537,1,8,0:0:0:0:
224,224,53687,1,0,0:0:0:0:
224,224,53837,1,0,0:0:0:0:
224,224,53987,1,0,0:0:0:0:
288,224,54137,1,8,0:0:0:0:
224,224,54287,1,0,0:0:0:0:
224,224,54437,1,0,0:0:0:0:
224,224,54587,1,0,0:0:0:0:
288,224,54737,1,8,0:0:0:0:
288,160,54887,1,12,0:0:0:0:
224,224,55037,1,0,0:0:0:0:
288,160,55187,1,12,0:0:0:0:
224,224,55337,1,0,0:0:0:0:
288,160,55487,1,12,0:0:0:0:
224,224,55637,1,0,0:0:0:0:
288,160,55787,1,12,0:0:0:0:
224,224,55937,1,0,0:0:0:0:
288,160,56087,1,12,0:0:0:0:
224,224,56237,1,0,0:0:0:0:
224,224,56312,1,0,0:0:0:0:
224,224,56387,1,0,0:0:0:0:
288,224,56537,1,8,0:0:0:0:
224,224,56687,1,0,0:0:0:0:
224,224,56837,1,0,0:0:0:0:
224,224,56912,1,0,0:0:0:0:
224,224,56987,1,0,0:0:0:0:
288,224,57137,1,8,0:0:0:0:
224,224,57287,1,0,0:0:0:0:
224,224,57437,1,0,0:0:0:0:
224,224,57512,1,0,0:0:0:0:
224,224,57587,1,0,0:0:0:0:
288,224,57737,1,8,0:0:0:0:
224,224,57887,1,0,0:0:0:0:
224,224,58037,1,0,0:0:0:0:
224,224,58112,1,0,0:0:0:0:
224,224,58187,1,0,0:0:0:0:
288,224,58337,1,8,0:0:0:0:
224,224,58487,1,0,0:0:0:0:
224,224,58637,1,0,0:0:0:0:
224,224,58787,1,0,0:0:0:0:
288,224,58937,1,8,0:0:0:0:
224,224,59087,1,0,0:0:0:0:
224,224,59237,1,0,0:0:0:0:
224,224,59387,1,0,0:0:0:0:
288,224,59537,1,8,0:0:0:0:
224,160,59687,1,4,0:0:0:0:
224,160,59987,1,4,0:0:0:0:
288,224,60287,1,8,0:0:0:0:
288,224,60362,1,8,0:0:0:0:
288,224,60437,1,8,0:0:0:0:
288,224,60512,1,8,0:0:0:0:
288,224,60587,1,8,0:0:0:0:
288,224,60662,1,8,0:0:0:0:
288,224,60737,1,8,0:0:0:0:
288,224,60812,1,8,0:0:0:0:
224,224,60887,1,0,0:0:0:0:
224,224,61037,1,0,0:0:0:0:
224,224,61187,1,0,0:0:0:0:
288,224,61337,1,8,0:0:0:0:
288,224,61637,1,8,0:0:0:0:
288,224,61787,1,8,0:0:0:0:
224,224,61937,1,0,0:0:0:0:
288,224,62087,1,8,0:0:0:0:
288,224,62237,1,8,0:0:0:0:
224,224,62387,1,0,0:0:0:0:
224,224,62537,1,0,0:0:0:0:
224,224,62837,1,0,0:0:0:0:
224,224,62987,1,0,0:0:0:0:
288,160,63287,1,12,0:0:0:0:
224,224,63437,1,0,0:0:0:0:
224,224,63587,1,0,0:0:0:0:
288,224,63737,1,8,0:0:0:0:
288,224,64037,1,8,0:0:0:0:
224,224,64187,1,0,0:0:0:0:
224,224,64337,1,0,0:0:0:0:
288,224,64487,1,8,0:0:0:0:
288,224,64637,1,8,0:0:0:0:
224,224,64787,1,0,0:0:0:0:
224,224,64937,1,0,0:0:0:0:
224,224,65237,1,0,0:0:0:0:
224,224,65387,1,0,0:0:0:0:
288,160,65687,1,12,0:0:0:0:
224,224,65837,1,0,0:0:0:0:
224,224,65987,1,0,0:0:0:0:
288,224,66137,1,8,0:0:0:0:
288,224,66437,1,8,0:0:0:0:
288,224,66587,1,8,0:0:0:0:
224,224,66737,1,0,0:0:0:0:
288,224,66887,1,8,0:0:0:0:
288,224,67037,1,8,0:0:0:0:
224,224,67187,1,0,0:0:0:0:
224,224,67337,1,0,0:0:0:0:
224,224,67637,1,0,0:0:0:0:
224,224,67787,1,0,0:0:0:0:
288,160,68087,1,12,0:0:0:0:
224,224,68237,1,0,0:0:0:0:
224,224,68387,1,0,0:0:0:0:
288,224,68537,1,8,0:0:0:0:
288,224,68837,1,8,0:0:0:0:
288,224,68987,1,8,0:0:0:0:
288,224,69137,1,8,0:0:0:0:
288,160,69287,1,12,0:0:0:0:
288,224,69587,1,8,0:0:0:0:
288,224,69887,1,8,0:0:0:0:
288,224,70187,1,8,0:0:0:0:
288,224,70262,1,8,0:0:0:0:
288,224,70337,1,8,0:0:0:0:
288,224,70412,1,8,0:0:0:0:
224,224,70487,1,0,0:0:0:0:
224,224,70637,1,0,0:0:0:0:
224,224,70787,1,0,0:0:0:0:
288,224,70937,1,8,0:0:0:0:
288,224,71237,1,8,0:0:0:0:
224,224,71537,1,0,0:0:0:0:
288,224,71687,1,8,0:0:0:0:
224,224,71837,1,0,0:0:0:0:
288,224,71987,1,8,0:0:0:0:
224,224,72137,1,0,0:0:0:0:
224,224,72437,1,0,0:0:0:0:
224,224,72587,1,0,0:0:0:0:
288,160,72887,1,12,0:0:0:0:
224,224,73037,1,0,0:0:0:0:
224,224,73187,1,0,0:0:0:0:
288,224,73337,1,8,0:0:0:0:
288,224,73637,1,8,0:0:0:0:
288,224,73937,1,8,0:0:0:0:
288,224,74087,1,8,0:0:0:0:
224,224,74237,1,0,0:0:0:0:
288,224,74387,1,8,0:0:0:0:
224,224,74537,1,0,0:0:0:0:
224,224,74837,1,0,0:0:0:0:
224,224,74987,1,0,0:0:0:0:
288,160,75287,1,12,0:0:0:0:
224,224,75437,1,0,0:0:0:0:
224,224,75587,1,0,0:0:0:0:
288,224,75737,1,8,0:0:0:0:
288,224,76037,1,8,0:0:0:0:
288,224,76187,1,8,0:0:0:0:
224,224,76337,1,0,0:0:0:0:
288,224,76487,1,8,0:0:0:0:
224,224,76637,1,0,0:0:0:0:
288,224,76787,1,8,0:0:0:0:
224,224,76937,1,0,0:0:0:0:
224,224,77237,1,0,0:0:0:0:
224,224,77387,1,0,0:0:0:0:
288,160,77687,1,12,0:0:0:0:
224,224,77837,1,0,0:0:0:0:
224,224,77987,1,0,0:0:0:0:
288,224,78137,1,8,0:0:0:0:
224,224,78287,1,0,0:0:0:0:
224,224,78437,1,0,0:0:0:0:
224,224,78587,1,0,0:0:0:0:
288,224,78737,1,8,0:0:0:0:
288,160,78887,1,12,0:0:0:0:
224,224,79037,1,0,0:0:0:0:
288,160,79187,1,12,0:0:0:0:
224,224,79337,1,0,0:0:0:0:
288,160,79487,1,12,0:0:0:0:
288,224,79637,1,8,0:0:0:0:
288,224,79712,1,8,0:0:0:0:
224,224,79787,1,0,0:0:0:0:
224,224,79862,1,0,0:0:0:0:
288,224,79937,1,8,0:0:0:0:
224,224,80012,1,0,0:0:0:0:
224,224,80087,1,0,0:0:0:0:
224,224,80237,1,0,0:0:0:0:
224,224,80387,1,0,0:0:0:0:
224,224,80462,1,0,0:0:0:0:
224,224,80537,1,0,0:0:0:0:
224,224,80612,1,0,0:0:0:0:
224,224,80687,1,0,0:0:0:0:
224,224,80837,1,0,0:0:0:0:
224,224,80987,1,0,0:0:0:0:
224,224,81062,1,0,0:0:0:0:
224,224,81137,1,0,0:0:0:0:
224,224,81212,1,0,0:0:0:0:
288,160,81287,1,12,0:0:0:0:
288,160,81487,1,12,0:0:0:0:
288,160,81687,1,12,0:0:0:0:
288,160,81887,1,12,0:0:0:0:
224,224,82187,1,0,0:0:0:0:
224,224,82262,1,0,0:0:0:0:
224,224,82337,1,0,0:0:0:0:
224,224,82412,1,0,0:0:0:0:
288,160,82487,1,12,0:0:0:0:
224,224,82787,1,0,0:0:0:0:
288,224,82937,1,8,0:0:0:0:
288,224,83237,1,8,0:0:0:0:
288,160,83387,1,12,0:0:0:0:
224,224,83687,1,0,0:0:0:0:
288,224,83837,1,8,0:0:0:0:
288,224,84137,1,8,0:0:0:0:
288,160,84287,1,12,0:0:0:0:
224,224,84587,1,0,0:0:0:0:
288,160,84737,1,12,0:0:0:0:
224,224,85037,1,0,0:0:0:0:
288,160,85187,1,12,0:0:0:0:
224,224,85487,1,0,0:0:0:0:
288,224,85637,1,8,0:0:0:0:
288,160,86087,1,12,0:0:0:0:
224,224,86387,1,0,0:0:0:0:
224,224,86537,1,0,0:0:0:0:
224,224,86837,1,0,0:0:0:0:
288,160,86987,1,12,0:0:0:0:
224,224,87287,1,0,0:0:0:0:
224,224,87437,1,0,0:0:0:0:
288,224,87737,1,8,0:0:0:0:
288,160,87887,1,12,0:0:0:0:
224,224,88187,1,0,0:0:0:0:
288,160,88337,1,12,0:0:0:0:
224,224,88637,1,0,0:0:0:0:
288,160,88787,1,12,0:0:0:0:
224,224,89087,1,0,0:0:0:0:
224,224,89237,1,0,0:0:0:0:
224,224,89387,1,0,0:0:0:0:
224,224,89537,1,0,0:0:0:0:
288,160,89687,1,12,0:0:0:0:
224,224,89987,1,0,0:0:0:0:
288,224,90137,1,8,0:0:0:0:
288,224,90437,1,8,0:0:0:0:
288,160,90587,1,12,0:0:0:0:
224,224,90887,1,0,0:0:0:0:
288,224,91037,1,8,0:0:0:0:
288,224,91337,1,8,0:0:0:0:
288,160,91487,1,12,0:0:0:0:
224,224,91787,1,0,0:0:0:0:
288,160,91937,1,12,0:0:0:0:
224,224,92237,1,0,0:0:0:0:
288,160,92387,1,12,0:0:0:0:
224,224,92687,1,0,0:0:0:0:
288,224,92837,1,8,0:0:0:0:
288,160,93287,1,12,0:0:0:0:
224,224,93587,1,0,0:0:0:0:
224,224,93737,1,0,0:0:0:0:
224,224,94037,1,0,0:0:0:0:
288,160,94187,1,12,0:0:0:0:
224,224,94487,1,0,0:0:0:0:
224,224,94637,1,0,0:0:0:0:
224,224,94787,1,0,0:0:0:0:
224,224,94937,1,0,0:0:0:0:
288,160,95087,1,12,0:0:0:0:
288,160,96437,1,12,0:0:0:0:
288,160,96587,1,12,0:0:0:0:
288,160,96737,1,12,0:0:0:0:
224,224,96887,1,0,0:0:0:0:
224,224,97037,1,0,0:0:0:0:
224,224,97187,1,0,0:0:0:0:
288,224,97337,1,8,0:0:0:0:
288,224,97637,1,8,0:0:0:0:
288,224,97787,1,8,0:0:0:0:
224,224,97937,1,0,0:0:0:0:
288,224,98087,1,8,0:0:0:0:
288,224,98237,1,8,0:0:0:0:
224,224,98387,1,0,0:0:0:0:
224,224,98537,1,0,0:0:0:0:
224,224,98837,1,0,0:0:0:0:
224,224,98987,1,0,0:0:0:0:
288,160,99287,1,12,0:0:0:0:
224,224,99437,1,0,0:0:0:0:
224,224,99587,1,0,0:0:0:0:
288,224,99737,1,8,0:0:0:0:
288,160,99887,1,12,0:0:0:0:
224,224,100037,1,0,0:0:0:0:
224,224,100187,1,0,0:0:0:0:
288,224,100337,1,8,0:0:0:0:
288,160,100487,1,12,0:0:0:0:
224,224,100637,1,0,0:0:0:0:
224,224,100787,1,0,0:0:0:0:
288,224,100937,1,8,0:0:0:0:
288,160,101087,1,12,0:0:0:0:
224,224,101237,1,0,0:0:0:0:
224,224,101387,1,0,0:0:0:0:
288,224,101537,1,8,0:0:0:0:
288,160,101687,1,12,0:0:0:0:
224,224,101837,1,0,0:0:0:0:
288,224,101912,1,8,0:0:0:0:
224,224,101987,1,0,0:0:0:0:
224,224,102062,1,0,0:0:0:0:
224,224,102137,1,0,0:0:0:0:
288,224,102212,1,8,0:0:0:0:
224,224,102287,1,0,0:0:0:0:
224,224,102362,1,0,0:0:0:0:
224,224,102437,1,0,0:0:0:0:
288,224,102512,1,8,0:0:0:0:
224,224,102587,1,0,0:0:0:0:
224,224,102662,1,0,0:0:0:0:
224,224,102737,1,0,0:0:0:0:
288,224,102812,1,8,0:0:0:0:
288,224,102887,1,8,0:0:0:0:
224,224,102962,1,0,0:0:0:0:
224,224,103037,1,0,0:0:0:0:
288,224,103112,1,8,0:0:0:0:
288,224,103187,1,8,0:0:0:0:
224,224,103262,1,0,0:0:0:0:
224,224,103337,1,0,0:0:0:0:
288,224,103412,1,8,0:0:0:0:
288,224,103487,1,8,0:0:0:0:
224,224,103562,1,0,0:0:0:0:
224,224,103637,1,0,0:0:0:0:
288,224,103712,1,8,0:0:0:0:
288,224,103787,1,8,0:0:0:0:
224,224,103862,1,0,0:0:0:0:
224,224,103937,1,0,0:0:0:0:
288,224,104012,1,8,0:0:0:0:
224,224,104087,1,0,0:0:0:0:
224,224,104162,1,0,0:0:0:0:
224,224,104237,1,0,0:0:0:0:
288,224,104312,1,8,0:0:0:0:
224,224,104387,1,0,0:0:0:0:
224,224,104462,1,0,0:0:0:0:
224,224,104537,1,0,0:0:0:0:
288,224,104612,1,8,0:0:0:0:
224,224,104687,1,0,0:0:0:0:
224,224,104762,1,0,0:0:0:0:
224,224,104837,1,0,0:0:0:0:
288,224,104912,1,8,0:0:0:0:
288,224,104987,1,8,0:0:0:0:
224,224,105062,1,0,0:0:0:0:
224,224,105137,1,0,0:0:0:0:
224,224,105212,1,0,0:0:0:0:
288,224,105287,1,8,0:0:0:0:
288,224,105362,1,8,0:0:0:0:
288,224,105437,1,8,0:0:0:0:
288,224,105512,1,8,0:0:0:0:
288,224,105587,1,8,0:0:0:0:
288,224,105662,1,8,0:0:0:0:
288,224,105737,1,8,0:0:0:0:
288,224,105812,1,8,0:0:0:0:
288,224,105887,1,8,0:0:0:0:
288,224,105937,1,8,0:0:0:0:
288,224,105987,1,8,0:0:0:0:
288,224,106037,1,8,0:0:0:0:
288,224,106087,1,8,0:0:0:0:
288,224,106137,1,8,0:0:0:0:
288,224,106187,1,8,0:0:0:0:
288,224,106237,1,8,0:0:0:0:
288,224,106287,1,8,0:0:0:0:
288,224,106337,1,8,0:0:0:0:
288,224,106387,1,8,0:0:0:0:
288,224,106437,1,8,0:0:0:0:
224,160,106487,1,4,0:0:0:0:
