osu file format v14

[General]
AudioFilename: audio.ogg
AudioLeadIn: 0
PreviewTime: 73930
Countdown: 0
SampleSet: Soft
StackLeniency: 0.7
Mode: 0
LetterboxInBreaks: 0
SkinPreference:Default
WidescreenStoryboard: 1

[Editor]
Bookmarks: 9066,10363,20741,22039,32417,33714,35012,36309,36957,38903,40201,41498,42147,53174,62255,63552,72633,73930,83012,84309,93390,94687,103768,105066,107174,107498,107660,108957,109282,109606,110093,110255,111066,111390,111552,112687,112849,113336,113498,113984,114147,115444
DistanceSpacing: 1
BeatDivisor: 4
GridSize: 16
TimelineZoom: 1.7

[Metadata]
Title:Kerokero (Original Extended Mix)
TitleUnicode:Kerokero (Original Extended Mix)
Artist:AU
ArtistUnicode:あう
Creator:Bloxi
Version:bnmc's Normal
Source:beatmania IIDX 12 HAPPY SKY
Tags:東方音遊戯 1st style 東方風神録 ~ Mountain of Faith. 東方project ZUN Touhou native faith ネイティブフェイス 洩矢諏訪子 もりやすわこ moriya suwako kors k sigsig electronic makina video game instrumental konami bemani kolikiscool kolik leominexd bnmc jonarwhal jonawaga leominexd leomine
BeatmapID:3683456
BeatmapSetID:1787722

[Difficulty]
HPDrainRate:3.5
CircleSize:3.2
OverallDifficulty:4
ApproachRate:5.5
SliderMultiplier:1.1
SliderTickRate:1

[Events]
//Background and Video events
0,0,"bg.jpg",0,0
//Break Periods
2,53374,60957
//Storyboard Layer 0 (Background)
//Storyboard Layer 1 (Fail)
//Storyboard Layer 2 (Pass)
//Storyboard Layer 3 (Foreground)
//Storyboard Layer 4 (Overlay)
//Storyboard Sound Samples

[TimingPoints]
-15,324.324324324324,4,2,1,75,1,0
10363,-100,4,2,1,65,0,0
22039,-100,4,2,1,75,0,0
32417,-95.2380952380952,4,2,1,80,0,0
33714,-100,4,2,1,80,0,0
35012,-95.2380952380952,4,2,1,80,0,0
36309,-100,4,2,1,80,0,0
36957,-95.2380952380952,4,2,1,80,0,0
38903,-100,4,2,1,80,0,0
40201,-95.2380952380952,4,2,1,80,0,0
41498,-100,4,2,1,80,0,0
42147,-95.2380952380952,4,2,1,75,0,0
53174,-95.2380952380952,4,2,1,55,0,0
62255,-100,4,2,1,55,0,0
63552,-100,4,2,1,65,0,0
73930,-95.2380952380952,4,2,1,80,0,1
84228,-95.2380952380952,4,2,1,80,0,0
84309,-90.9090909090909,4,2,1,80,0,1
94687,-100,4,2,1,60,0,0
105066,-105.263157894737,4,2,1,60,0,0
115444,-105.263157894737,4,2,1,75,0,0

[Colours]
Combo1 : 154,126,182
Combo2 : 238,207,145
Combo3 : 249,183,200
Combo4 : 239,114,142
SliderBorder : 255,255,255

[HitObjects]
33,183,10363,6,2,P|91:182|150:156,1,110,6|10,0:0|0:0,0:0:0:0:
211,81,11012,1,2,0:0:0:0:
307,132,11336,1,10,0:0:0:0:
273,236,11660,2,2,B|311:230|311:230|318:234|318:234|354:228,2,82.5,10|2|2,0:0|0:0|0:0,0:0:0:0:
224,245,12309,1,10,0:0:0:0:
142,318,12633,1,10,0:0:0:0:
43,268,12957,6,2,L|52:145,1,110,10|2,0:0|0:0,0:0:0:0:
27,120,13444,1,2,0:0:0:0:
27,120,13606,2,0,P|69:136|129:134,1,82.5,2|2,0:0|0:0,0:0:0:0:
171,86,14093,1,10,0:0:0:0:
171,86,14255,2,0,B|197:123|197:123|181:206,1,110,10|10,0:0|0:0,0:0:0:0:
151,291,14903,1,10,0:0:0:0:
260,276,15228,1,10,0:0:0:0:
364,311,15552,6,2,P|339:246|346:197,1,110,6|10,0:0|0:0,0:0:0:0:
436,148,16201,1,2,0:0:0:0:
389,48,16525,1,10,0:0:0:0:
285,85,16849,2,2,B|247:79|247:79|240:83|240:83|204:77,1,82.5,10|2,0:0|0:0,0:0:0:0:
135,120,17336,1,2,0:0:0:0:
135,120,17498,2,0,B|159:150|159:150|144:242,1,110,10|10,0:0|0:0,0:0:0:0:
77,305,18147,6,2,P|125:330|179:330,1,110,6|10,0:0|0:0,0:0:0:0:
219,299,18633,1,2,0:0:0:0:
219,299,18795,2,2,L|237:203,1,82.5,6|2,0:0|0:0,0:0:0:0:
224,140,19282,1,2,0:0:0:0:
224,140,19444,2,2,B|263:135|263:135|292:159|292:159|342:153,1,110,14|14,0:0|0:0,0:0:0:0:
434,147,20093,1,14,0:0:0:0:
409,254,20417,1,14,0:0:0:0:
380,360,20741,5,2,1:0:0:0:
380,360,22039,6,2,P|335:335|271:333,1,110,6|10,0:0|0:0,0:0:0:0:
177,379,22687,1,2,0:0:0:0:
92,307,23012,2,2,B|97:254|97:254|105:246|105:246|109:191,1,110,10|2,0:0|0:0,0:0:0:0:
126,92,23660,1,10,0:0:0:0:
218,151,23984,1,2,0:0:0:0:
314,97,24309,2,0,L|379:91,1,55,10|2,0:0|0:0,0:0:0:0:
412,69,24633,6,0,P|383:121|382:175,1,110,2|10,0:0|0:0,0:0:0:0:
450,256,25282,1,2,0:0:0:0:
375,336,25606,2,2,B|321:330|321:330|313:322|313:322|260:317,1,110,10|2,0:0|0:0,0:0:0:0:
165,279,26255,2,0,L|156:333,2,55,10|2|2,0:0|0:0|0:0,0:0:0:0:
186,171,26903,2,0,L|194:116,1,55,10|10,0:0|0:0,0:0:0:0:
221,75,27228,6,2,P|157:96|110:90,1,110,6|10,0:0|0:0,0:0:0:0:
26,27,27876,1,2,0:0:0:0:
6,135,28201,1,10,0:0:0:0:
80,215,28525,1,6,0:0:0:0:
31,313,28849,2,0,L|144:298,1,110,10|2,0:0|0:0,0:0:0:0:
243,260,29498,2,0,P|237:292|248:331,1,55,10|2,0:0|0:0,0:0:0:0:
283,339,29822,6,2,P|313:319|390:304,1,110,6|10,0:0|0:0,0:0:0:0:
490,332,30471,1,6,0:0:0:0:
454,227,30795,1,10,0:0:0:0:
511,132,31120,1,6,1:0:0:0:
283,339,32093,5,0,1:0:0:0:
350,245,32417,2,0,L|231:234,1,115.49999647522,2|8,1:0|0:0,0:0:0:0:
192,214,32903,1,0,0:0:0:0:
192,214,33066,2,0,B|196:257|196:257|205:263|205:263|210:307,2,86.6249973564149,2|2|2,1:0|0:0|0:0,0:0:0:0:
179,166,33714,1,2,0:0:0:0:
100,88,34039,2,0,P|145:62|207:59,1,110,8|2,0:0|0:0,0:0:0:0:
304,99,34687,1,8,0:0:0:0:
396,30,35012,6,0,B|426:64|426:64|417:143,1,115.49999647522,2|8,1:0|0:0,0:0:0:0:
397,183,35498,1,2,0:0:0:0:
397,183,35660,2,0,B|441:179|441:179|448:187|448:187|492:184,2,86.6249973564149,2|2|2,1:0|0:0|0:0,0:0:0:0:
347,185,36309,1,2,0:0:0:0:
281,273,36633,2,0,P|243:270|207:267,1,55,10|2,0:0|0:0,0:0:0:0:
178,290,36957,2,2,B|119:277|131:327|59:306,1,115.49999647522,2|10,0:0|0:0,0:0:0:0:
0,216,37606,5,2,1:0:0:0:
81,134,37930,2,0,L|90:60,1,57.7499982376099,8|2,0:0|0:0,0:0:0:0:
125,39,38255,2,0,L|182:35,1,57.7499982376099,2|2,1:0|0:0,0:0:0:0:
234,32,38579,1,8,0:0:0:0:
343,25,38903,1,2,0:0:0:0:
410,111,39228,2,0,B|406:160|406:160|399:167|399:167|394:234,1,110,8|2,0:0|0:0,0:0:0:0:
409,326,39876,2,0,L|352:317,1,55,8|2,0:0|0:0,0:0:0:0:
308,342,40201,6,0,B|303:287|303:287|296:280|296:280|292:226,1,115.49999647522,2|8,1:0|0:0,0:0:0:0:
269,189,40687,1,2,0:0:0:0:
269,189,40849,2,0,P|311:198|362:192,2,86.6249973564149,2|2|2,1:0|0:0|0:0,0:0:0:0:
231,155,41498,1,2,0:0:0:0:
144,222,41822,1,8,0:0:0:0:
50,153,42147,2,0,L|38:269,1,115.49999647522,2|10,0:0|0:0,0:0:0:0:
77,376,42795,6,0,B|138:387|131:345|189:358,1,115.49999647522,6|8,0:0|0:0,0:0:0:0:
237,384,43282,1,2,0:0:0:0:
237,384,43444,2,0,L|222:264,1,115.49999647522,2|8,0:0|0:0,0:0:0:0:
238,154,44093,2,0,B|198:160|198:160|187:169|187:169|138:178,2,86.6249973564149,2|2|2,0:0|0:0|0:0,0:0:0:0:
288,140,44741,1,2,0:0:0:0:
370,59,45066,2,0,L|426:69,1,57.7499982376099,8|2,0:0|0:0,0:0:0:0:
469,98,45390,6,0,L|478:216,1,115.49999647522,2|8,0:0|0:0,0:0:0:0:
428,317,46039,2,0,P|478:316|527:335,2,86.6249973564149,2|2|2,0:0|0:0|0:0,0:0:0:0:
384,345,46687,2,0,P|329:362|271:360,1,115.49999647522,2|8,0:0|0:0,0:0:0:0:
188,280,47336,2,0,P|196:244|191:212,1,57.7499982376099,2|2,0:0|0:0,0:0:0:0:
169,177,47660,1,10,0:0:0:0:
109,78,47984,6,0,B|164:72|164:72|174:77|174:77|237:71,1,115.49999647522,2|8,0:0|0:0,0:0:0:0:
269,46,48471,1,2,0:0:0:0:
269,46,48633,2,0,L|257:170,1,115.49999647522,2|8,0:0|0:0,0:0:0:0:
292,271,49282,2,0,B|253:273|253:273|246:268|246:268|206:272,2,86.6249973564149,2|2|2,0:0|0:0|0:0,0:0:0:0:
343,268,49930,1,2,0:0:0:0:
443,209,50255,2,0,L|448:151,1,57.7499982376099,8|2,0:0|0:0,0:0:0:0:
481,112,50579,6,0,B|422:107|427:147|367:134,1,115.49999647522,2|8,0:0|0:0,0:0:0:0:
269,80,51228,2,0,L|254:165,2,86.6249973564149,2|2|2,0:0|0:0|0:0,0:0:0:0:
300,38,51876,2,0,P|270:46|226:41,1,57.7499982376099,0|2,1:0|0:0,0:0:0:0:
200,16,52201,2,0,P|170:7|126:12,1,57.7499982376099,10|2,0:0|0:0,0:0:0:0:
95,27,52525,1,2,0:0:0:0:
143,131,52849,1,10,0:0:0:0:
85,231,53174,5,4,0:0:0:0:
85,231,62255,6,0,B|143:213|139:262|199:240,2,110,8|8|8,0:0|0:0|0:0,0:0:0:0:
4,305,63228,1,8,0:0:0:0:
81,382,63552,5,2,0:0:0:0:
181,338,63876,2,0,P|149:282|146:219,1,110,8|2,0:0|0:0,0:0:0:0:
211,150,64525,1,8,0:0:0:0:
127,79,64849,2,0,B|90:81|90:81|82:88|82:88|37:92,2,82.5,2|2|2,0:0|0:0|0:0,0:0:0:0:
165,47,65498,2,0,L|223:42,1,55,10|12,0:0|0:0,0:0:0:0:
269,37,65822,1,8,0:0:0:0:
331,127,66147,6,0,P|306:175|303:230,1,110,14|8,0:0|0:0,0:0:0:0:
338,265,66633,2,0,L|399:254,1,55,2|2,0:0|0:0,0:0:0:0:
500,233,67120,1,8,0:0:0:0:
441,139,67444,1,6,0:0:0:0:
448,29,67768,1,12,0:0:0:0:
340,5,68093,2,0,P|347:34|346:82,1,55,10|8,0:0|0:0,0:0:0:0:
320,98,68417,2,0,P|306:125|299:173,1,55,8|12,0:0|0:0,0:0:0:0:
315,196,68741,5,6,0:0:0:0:
242,278,69066,2,0,B|201:271|201:271|173:292|173:292|122:283,1,110,8|2,0:0|0:0,0:0:0:0:
50,222,69714,2,0,L|42:142,1,55,8|4,0:0|0:0,0:0:0:0:
39,117,70039,1,6,0:0:0:0:
147,133,70363,1,8,0:0:0:0:
195,34,70687,6,0,B|251:13|245:61|318:35,1,110,2|8,0:0|0:0,0:0:0:0:
351,23,71174,1,4,0:0:0:0:
351,23,71336,1,6,0:0:0:0:
260,162,71822,1,4,0:0:0:0:
260,162,71984,1,6,0:0:0:0:
342,311,72471,5,4,0:0:0:0:
342,311,72633,1,14,0:0:0:0:
432,248,72957,1,12,0:0:0:0:
421,138,73282,2,0,L|475:144,2,55,14|8|12,0:0|0:0|0:0,0:0:0:0:
357,38,73930,6,0,B|330:72|330:72|251:81,1,115.49999647522,6|8,1:0|0:0,0:0:0:0:
210,87,74417,1,2,0:0:0:0:
210,87,74579,1,2,1:0:0:0:
100,49,74903,1,8,0:0:0:0:
11,121,75228,2,2,B|0:77|0:77|4:68|4:68|-6:26,2,86.6249973564149,2|2|2,1:0|0:0|0:0,0:0:0:0:
21,171,75876,1,2,1:0:0:0:
22,286,76201,2,0,P|50:269|88:267,1,57.7499982376099,8|2,0:0|0:0,0:0:0:0:
119,293,76525,6,0,P|176:313|243:306,1,115.49999647522,2|8,1:0|0:0,2:0:0:0:
277,284,77012,1,2,0:0:0:0:
277,284,77174,1,2,1:0:0:0:
207,191,77498,1,10,0:0:0:0:
265,91,77822,2,0,L|389:82,1,115.49999647522,2|8,1:0|0:0,0:0:0:0:
492,53,78471,2,0,L|487:126,1,57.7499982376099,2|2,1:0|0:0,0:0:0:0:
460,154,78795,2,0,L|455:227,1,57.7499982376099,10|8,0:0|0:0,0:0:0:0:
453,263,79120,5,2,1:0:0:0:
356,326,79444,2,0,L|359:383,2,57.7499982376099,8|2|2,0:0|0:0|1:0,0:0:0:0:
269,248,80093,1,10,0:0:0:0:
321,145,80417,2,2,P|275:130|216:137,2,86.6249973564149,2|2|2,1:0|0:0|0:0,0:0:0:0:
363,174,81066,2,2,L|354:63,1,86.6249973564149,2|2,1:0|0:0,0:0:0:0:
346,6,81552,5,2,0:0:0:0:
346,6,81714,1,2,1:0:0:0:
248,67,82039,1,8,0:0:0:0:
144,10,82363,2,0,B|141:48|141:48|134:59|134:59|132:98,1,86.6249973564149,2|2,1:0|0:0,0:0:0:0:
104,178,82849,1,2,0:0:0:0:
104,178,83012,2,0,L|178:171,1,57.7499982376099,2|2,1:0|0:0,0:0:0:0:
210,189,83336,2,0,L|284:182,1,57.7499982376099,10|2,0:0|0:0,0:0:0:0:
312,157,83660,2,0,P|283:209|282:280,1,115.49999647522,2|8,1:0|0:0,0:0:0:0:
366,347,84309,5,6,1:0:0:0:
450,261,84633,2,0,L|516:271,2,60.5000018463135,8|2|2,0:0|0:0|1:0,0:0:0:0:
409,146,85282,1,8,0:0:0:0:
291,175,85606,2,0,P|287:120|306:71,2,90.7500027694703,2|2|2,1:0|0:0|0:0,0:0:0:0:
322,219,86255,1,2,1:0:0:0:
222,287,86579,2,0,L|146:281,1,60.5000018463135,10|2,0:0|0:0,0:0:0:0:
117,314,86903,6,0,B|111:255|111:255|116:247|116:247|111:188,1,121.000003692627,2|8,1:0|0:0,0:0:0:0:
109,144,87390,1,2,0:0:0:0:
109,144,87552,1,2,1:0:0:0:
226,172,87876,1,10,0:0:0:0:
279,63,88201,2,0,B|319:88|319:88|415:72,1,121.000003692627,2|8,1:0|0:0,0:0:0:0:
511,91,88849,2,0,P|512:63|499:16,2,60.5000018463135,2|2|8,1:0|0:0|0:0,0:0:0:0:
486,141,89336,5,8,0:0:0:0:
486,141,89498,2,0,P|461:199|463:262,1,121.000003692627,6|8,1:0|0:0,0:0:0:0:
486,304,89984,2,0,L|413:293,1,60.5000018463135,2|2,0:0|1:0,0:0:0:0:
376,289,90309,1,2,0:0:0:0:
376,289,90471,1,10,0:0:0:0:
262,330,90795,2,2,L|251:225,2,90.7500027694703,2|2|2,1:0|0:0|0:0,0:0:0:0:
268,384,91444,1,2,1:0:0:0:
159,332,91768,2,0,P|126:322|88:326,1,60.5000018463135,4|2,0:0|0:0,0:0:0:0:
51,347,92093,6,0,P|72:275|58:212,1,121.000003692627,6|8,1:0|0:0,0:0:0:0:
6,125,92741,2,0,B|50:117|50:117|57:121|57:121|105:112,1,90.7500027694703,6|2,1:0|0:0,0:0:0:0:
184,87,93228,1,2,0:0:0:0:
184,87,93390,2,0,L|177:157,1,60.5000018463135,6|2,1:0|0:0,0:0:0:0:
145,190,93714,2,0,L|138:260,1,60.5000018463135,14|2,0:0|0:0,0:0:0:0:
169,295,94039,2,0,B|239:311|224:258|302:276,1,121.000003692627,6|8,1:0|0:0,0:0:0:0:
379,327,94687,5,2,0:0:0:0:
479,281,95012,2,0,B|453:245|453:245|462:176,1,110,2|2,0:0|0:0,0:0:0:0:
478,71,95660,1,2,0:0:0:0:
381,122,95984,2,0,P|339:136|290:135,1,82.5,2|2,0:0|0:0,0:0:0:0:
237,84,96471,2,0,L|228:28,2,55,2|2|2,0:0|0:0|0:0,0:0:0:0:
217,129,96957,1,2,0:0:0:0:
109,85,97282,6,0,B|103:136|103:136|93:146|93:146|87:207,1,110,2|0,0:0|0:0,0:0:0:0:
71,239,97768,1,2,0:0:0:0:
71,239,97930,2,0,B|121:253|119:209|184:226,1,110,2|2,0:0|0:0,0:0:0:0:
273,277,98579,1,2,0:0:0:0:
366,218,98903,1,2,0:0:0:0:
461,272,99228,2,0,L|452:344,2,55,2|2|8,0:0|0:0|0:0,0:0:0:0:
472,162,99876,5,8,0:0:0:0:
492,53,100201,2,0,B|453:47|453:47|427:70|427:70|386:65,1,110,2|2,0:0|0:0,0:0:0:0:
281,55,100849,1,2,0:0:0:0:
179,98,101174,2,0,P|168:49|180:3,2,82.5,2|2|2,0:0|0:0|0:0,0:0:0:0:
205,139,101822,2,0,L|108:133,1,82.5,2|2,0:0|0:0,0:0:0:0:
44,133,102309,5,2,0:0:0:0:
44,133,102471,1,2,0:0:0:0:
105,224,102795,1,2,0:0:0:0:
82,331,103120,2,0,L|0:336,2,82.5,2|2|2,0:0|0:0|0:0,0:0:0:0:
124,356,103768,1,8,0:0:0:0:
204,280,104093,1,8,0:0:0:0:
310,315,104417,2,2,P|299:280|304:240,1,55,0|2,1:0|0:0,0:0:0:0:
331,224,104741,2,0,P|342:189|337:149,1,55,10|2,0:0|0:0,0:0:0:0:
320,128,105066,5,4,1:0:0:0:
320,128,107174,5,4,0:0:0:0:
222,90,107498,2,0,L|216:167,1,52.2499986047745,4|4,0:0|0:0,0:0:0:0:
205,384,108957,5,4,0:0:0:0:
309,372,109282,1,4,0:0:0:0:
412,355,109606,1,4,0:0:0:0:
508,231,110093,2,0,P|514:205|512:176,1,52.2499986047745,4|4,0:0|0:0,0:0:0:0:
372,0,111066,5,4,0:0:0:0:
287,61,111390,2,0,P|279:85|278:111,1,52.2499986047745,4|4,0:0|0:0,0:0:0:0:
424,332,112687,5,4,0:0:0:0:
424,332,112849,1,4,0:0:0:0:
271,343,113336,1,4,0:0:0:0:
271,343,113498,1,4,0:0:0:0:
256,192,113984,1,4,0:0:0:0:
256,192,114147,12,4,115444,0:0:0:0:
