osu file format v14

[General]
AudioFilename: audio.ogg
AudioLeadIn: 0
PreviewTime: 73930
Countdown: 0
SampleSet: Soft
StackLeniency: 0.7
Mode: 0
LetterboxInBreaks: 0
SkinPreference:Default
WidescreenStoryboard: 0

[Editor]
DistanceSpacing: 1
BeatDivisor: 4
GridSize: 4
TimelineZoom: 1.7

[Metadata]
Title:Kerokero (Original Extended Mix)
TitleUnicode:Kerokero (Original Extended Mix)
Artist:AU
ArtistUnicode:あう
Creator:Bloxi
Version:Nice Boat!
Source:beatmania IIDX 12 HAPPY SKY
Tags:東方音遊戯 1st style 東方風神録 ~ Mountain of Faith. 東方project ZUN Touhou native faith ネイティブフェイス 洩矢諏訪子 もりやすわこ moriya suwako kors k sigsig electronic makina video game instrumental konami bemani kolikiscool kolik leominexd bnmc jonarwhal jonawaga leominexd leomine
BeatmapID:3699461
BeatmapSetID:1787722

[Difficulty]
HPDrainRate:6
CircleSize:2
OverallDifficulty:9
ApproachRate:8
SliderMultiplier:2
SliderTickRate:1

[Events]
//Background and Video events
0,0,"bg.jpg",0,0
//Break Periods
2,105265,106424
//Storyboard Layer 0 (Background)
//Storyboard Layer 1 (Fail)
//Storyboard Layer 2 (Pass)
//Storyboard Layer 3 (Foreground)
//Storyboard Layer 4 (Overlay)
//Storyboard Sound Samples

[TimingPoints]
-15,324.324324324324,4,2,1,75,1,0
10363,-100,4,2,1,65,0,0
22039,-100,4,2,1,75,0,0
32417,-100,4,2,1,80,0,0
42147,-90.9090909090909,4,2,1,75,0,0
53174,-133.333333333333,4,2,1,55,0,0
62255,-111.111111111111,4,2,1,55,0,0
63552,-111.111111111111,4,2,1,65,0,0
73930,-80,4,2,1,80,0,1
84228,-80,4,2,1,80,0,0
84309,-74.0740740740741,4,2,1,80,0,1
94687,-100,4,2,1,60,0,0
114147,-100,4,2,1,35,0,0
114309,-100,4,2,1,40,0,0
114471,-100,4,2,1,45,0,0
114633,-100,4,2,1,50,0,0
114795,-100,4,2,1,55,0,0
114957,-100,4,2,1,60,0,0
115120,-100,4,2,1,65,0,0
115282,-100,4,2,1,70,0,0
115444,-100,4,2,1,75,0,0

[Colours]
Combo1 : 154,126,182
Combo2 : 238,207,145
Combo3 : 249,183,200
Combo4 : 239,114,142
SliderBorder : 255,255,255

[HitObjects]
77,366,10363,6,2,P|55:330|49:265,1,100,6|2,0:0|0:0,0:0:0:0:
75,238,10606,1,2,0:0:0:0:
115,219,10687,1,10,0:0:0:0:
236,283,10849,1,2,0:0:0:0:
476,192,11012,2,2,P|446:284|356:317,1,200,2|10,0:0|0:0,0:0:0:0:
355,317,11498,1,10,0:0:0:0:
142,73,11660,2,2,L|249:90,1,100,10|2,0:0|0:0,0:0:0:0:
218,318,12147,1,2,0:0:0:0:
365,205,12309,5,10,0:0:0:0:
372,155,12390,1,10,0:0:0:0:
380,106,12471,1,10,0:0:0:0:
497,33,12633,2,2,L|514:140,1,100,10|10,0:0|0:0,0:0:0:0:
228,254,12957,2,2,P|182:240|141:210,1,100,10|2,0:0|0:0,0:0:0:0:
419,267,13444,1,2,0:0:0:0:
292,40,13606,1,2,0:0:0:0:
0,103,13930,6,10,L|11:174,1,50,10|10,0:0|0:0,0:0:0:0:
141,210,14093,2,10,L|129:281,1,50
38,357,14255,1,10,0:0:0:0:
293,177,14579,1,10,0:0:0:0:
457,68,14903,5,10,0:0:0:0:
508,195,15066,1,2,0:0:0:0:
444,345,15228,1,10,0:0:0:0:
274,381,15390,1,2,0:0:0:0:
108,304,15552,6,2,L|90:193,1,100,6|2,0:0|0:0,0:0:0:0:
60,167,15795,1,2,0:0:0:0:
10,157,15876,1,10,0:0:0:0:
220,259,16039,1,2,0:0:0:0:
337,42,16201,2,2,P|377:129|333:215,1,200,2|10,0:0|0:0,0:0:0:0:
332,215,16687,1,10,0:0:0:0:
489,373,16849,2,2,L|506:265,1,100,10|2,0:0|0:0,0:0:0:0:
254,126,17336,1,2,0:0:0:0:
147,179,17498,5,10,0:0:0:0:
140,229,17579,1,10,0:0:0:0:
132,278,17660,1,10,0:0:0:0:
15,351,17822,2,10,L|-2:243,1,100
24,78,18147,6,2,P|111:32|210:32,1,200,6|10,0:0|0:0,0:0:0:0:
140,229,18633,1,2,0:0:0:0:
322,332,18795,2,2,P|421:332|508:285,1,200,6|10,0:0|0:0,0:0:0:0:
508,29,19282,1,2,0:0:0:0:
508,29,19444,6,2,L|496:100,1,50,14|2,0:0|0:0,0:0:0:0:
367,136,19606,2,2,L|378:207,1,50,10|2,0:0|0:0,0:0:0:0:
187,175,19768,2,2,L|179:224,1,50,14|2,0:0|0:0,0:0:0:0:
313,282,19930,2,2,L|321:331,1,50,10|2,0:0|0:0,0:0:0:0:
92,338,20093,5,14,0:0:0:0:
0,204,20255,1,2,0:0:0:0:
54,30,20417,1,14,0:0:0:0:
274,0,20579,1,10,0:0:0:0:
274,0,20660,1,10,0:0:0:0:
274,0,20741,6,2,P|425:84|413:195,1,300,2|0,1:0|1:0,1:0:0:0:
399,227,21309,1,0,1:0:0:0:
377,240,21390,1,0,1:0:0:0:
352,244,21471,1,0,1:0:0:0:
319,232,21552,1,0,1:0:0:0:
292,209,21633,1,0,1:0:0:0:
262,190,21714,1,0,1:0:0:0:
227,188,21795,1,0,1:0:0:0:
192,195,21876,1,0,1:0:0:0:
160,226,21957,1,0,1:0:0:0:
157,275,22039,6,2,P|172:329|193:369,1,100,6|2,0:0|0:0,0:0:0:0:
480,376,22363,1,10,0:0:0:0:
480,376,22525,1,2,0:0:0:0:
480,376,22687,2,2,P|465:322|444:282,1,100
192,195,23012,2,2,P|246:209|291:210,1,100,10|2,0:0|0:0,0:0:0:0:
496,64,23336,2,2,P|456:103|432:142,1,100
286,81,23660,5,10,0:0:0:0:
404,182,23822,1,2,0:0:0:0:
374,335,23984,1,2,0:0:0:0:
228,376,24147,1,2,0:0:0:0:
90,309,24309,1,10,0:0:0:0:
90,309,24471,1,2,0:0:0:0:
90,309,24633,1,2,0:0:0:0:
420,41,24957,5,10,0:0:0:0:
420,41,25120,1,2,0:0:0:0:
420,41,25282,2,2,P|433:102|430:155,1,100
337,204,25606,2,2,P|287:204|238:216,1,100,10|2,0:0|0:0,0:0:0:0:
35,149,25930,2,2,P|84:149|133:161,1,100
51,272,26255,5,10,0:0:0:0:
223,121,26417,1,2,0:0:0:0:
308,315,26579,1,2,0:0:0:0:
480,164,26741,1,2,0:0:0:0:
308,315,26903,1,10,0:0:0:0:
342,320,26984,1,10,0:0:0:0:
377,326,27066,1,10,0:0:0:0:
411,331,27147,1,10,0:0:0:0:
446,337,27228,6,2,P|473:302|484:249,1,100,6|2,0:0|0:0,0:0:0:0:
355,103,27552,1,10,0:0:0:0:
355,103,27714,1,2,0:0:0:0:
355,103,27876,2,2,P|328:138|317:191,1,100
156,281,28201,2,2,B|186:240|186:240|194:192,1,100,10|2,0:0|0:0,0:0:0:0:
66,47,28525,2,2,B|36:88|36:88|28:136,1,100,6|2,0:0|0:0,0:0:0:0:
180,131,28849,5,10,0:0:0:0:
33,194,29012,1,2,0:0:0:0:
86,345,29174,1,2,0:0:0:0:
233,281,29336,1,2,0:0:0:0:
316,55,29498,5,10,0:0:0:0:
316,55,29660,1,2,0:0:0:0:
316,55,29822,2,2,L|299:153,1,100,6|2,0:0|0:0,0:0:0:0:
429,323,30147,1,10,0:0:0:0:
429,323,30309,1,2,0:0:0:0:
429,323,30471,2,2,L|413:224,1,100,6|2,0:0|0:0,0:0:0:0:
202,136,30795,2,2,P|251:136|299:153,1,100,10|2,0:0|0:0,0:0:0:0:
164,372,31120,1,6,1:0:0:0:
8,280,31606,6,0,P|0:255|0:228,2,50,0|0|0,1:0|1:0|1:0,1:0:0:0:
10,180,31930,1,0,1:0:0:0:
136,40,32093,2,0,P|219:39|294:65,1,150,0|0,1:0|1:0,1:0:0:0:
308,102,32417,6,0,L|299:153,1,50,2|0,1:0|0:0,0:0:0:0:
167,236,32579,1,0,0:0:0:0:
167,236,32660,1,0,0:0:0:0:
167,236,32741,2,0,P|169:272|175:291,1,50,8|0,0:0|0:0,0:0:0:0:
238,373,32903,2,0,P|259:360|277:343,1,50
381,274,33066,2,0,P|359:261|335:254,1,50,2|0,1:0|0:0,0:0:0:0:
299,151,33228,2,0,P|277:163|259:180,1,50
78,319,33390,6,0,P|65:267|61:216,1,100,8|0,0:0|0:0,0:0:0:0:
434,65,33714,2,0,P|447:117|450:167,1,100,2|0,0:0|0:0,0:0:0:0:
422,255,34039,5,8,0:0:0:0:
330,355,34201,1,0,0:0:0:0:
152,373,34363,1,2,0:0:0:0:
5,290,34525,1,0,0:0:0:0:
12,108,34687,1,8,0:0:0:0:
5,290,34849,1,0,0:0:0:0:
12,108,35012,6,0,L|79:97,1,50,2|0,1:0|0:0,0:0:0:0:
176,8,35174,1,0,0:0:0:0:
176,8,35255,1,0,0:0:0:0:
176,8,35336,2,0,L|108:-2,1,50,8|0,0:0|0:0,0:0:0:0:
196,120,35498,2,0,L|185:187,1,50
308,229,35660,2,0,L|297:161,1,50,2|0,1:0|0:0,0:0:0:0:
369,64,35822,2,0,L|437:54,1,50
424,192,35984,6,0,P|440:238|436:288,1,100,8|0,0:0|0:0,0:0:0:0:
88,192,36309,2,0,P|72:150|76:93,1,100,2|0,0:0|0:0,0:0:0:0:
427,338,36633,5,10,0:0:0:0:
211,267,36795,1,2,0:0:0:0:
375,41,36957,2,2,P|307:21|229:44,1,150
203,60,37282,1,10,0:0:0:0:
184,89,37363,1,2,0:0:0:0:
179,124,37444,1,2,0:0:0:0:
189,157,37525,1,2,0:0:0:0:
218,191,37606,6,0,L|277:200,1,50,2|0,1:0|0:0,0:0:0:0:
344,301,37768,1,0,0:0:0:0:
344,301,37849,1,0,0:0:0:0:
344,301,37930,2,0,L|284:310,1,50,8|0,0:0|0:0,0:0:0:0:
184,328,38093,2,0,L|191:377,1,50
76,259,38255,2,0,L|83:308,1,50,2|0,1:0|0:0,0:0:0:0:
2,147,38417,2,0,L|9:196,1,50
179,26,38579,6,0,P|190:75|179:124,1,100,8|0,0:0|0:0,0:0:0:0:
333,358,38903,2,0,P|323:309|333:260,1,100,2|0,0:0|0:0,0:0:0:0:
422,129,39228,5,8,0:0:0:0:
333,19,39390,1,0,0:0:0:0:
157,0,39552,1,2,0:0:0:0:
5,94,39714,1,0,0:0:0:0:
12,276,39876,1,8,0:0:0:0:
5,94,40039,1,2,0:0:0:0:
12,276,40201,6,0,P|46:275|79:287,1,50,2|0,1:0|0:0,0:0:0:0:
202,360,40363,1,0,0:0:0:0:
202,360,40444,1,0,0:0:0:0:
202,360,40525,2,0,P|168:359|135:371,1,50,8|0,0:0|0:0,0:0:0:0:
174,255,40687,2,0,P|178:230|187:207,1,50
195,81,40849,2,0,P|214:97|229:116,1,50,2|0,1:0|0:0,0:0:0:0:
299,223,41012,2,0,P|323:219|347:210,1,50
317,72,41174,6,0,P|289:32|251:0,1,100,8|0,0:0|0:0,0:0:0:0:
434,181,41498,2,0,P|442:136|438:79,1,100,2|0,0:0|0:0,0:0:0:0:
410,350,41822,2,0,P|447:323|484:280,1,100,8|0,0:0|0:0,0:0:0:0:
176,332,42147,2,0,P|221:352|282:365,1,110.000003356934,2|0,0:0|0:0,0:0:0:0:
17,264,42471,2,0,P|32:308|67:359,1,110.000003356934,10|0,0:0|0:0,0:0:0:0:
178,74,42795,5,4,0:0:0:0:
178,74,42876,1,0,0:0:0:0:
178,74,42957,2,0,L|189:141,1,55.0000016784668,2|0,0:0|0:0,0:0:0:0:
278,238,43120,1,8,0:0:0:0:
278,238,43201,1,0,0:0:0:0:
278,238,43282,2,0,L|288:170,1,55.0000016784668,2|0,0:0|0:0,0:0:0:0:
337,76,43444,5,0,0:0:0:0:
337,76,43525,1,0,0:0:0:0:
337,76,43606,2,0,L|404:65,1,55.0000016784668,2|0,0:0|0:0,0:0:0:0:
501,176,43768,1,8,0:0:0:0:
501,176,43849,1,0,0:0:0:0:
501,176,43930,2,0,L|433:165,1,55.0000016784668,2|0,0:0|0:0,0:0:0:0:
386,347,44093,5,0,0:0:0:0:
386,347,44174,1,0,0:0:0:0:
386,347,44255,2,0,L|375:280,1,55.0000016784668,2|0,0:0|0:0,0:0:0:0:
286,183,44417,1,8,0:0:0:0:
286,183,44498,1,0,0:0:0:0:
286,183,44579,2,0,L|276:251,1,55.0000016784668,2|0,0:0|0:0,0:0:0:0:
227,345,44741,5,0,0:0:0:0:
227,345,44822,1,0,0:0:0:0:
227,345,44903,2,0,L|160:356,1,55.0000016784668,2|0,0:0|0:0,0:0:0:0:
84,303,45066,2,0,P|70:279|66:249,1,55.0000016784668,8|0,0:0|0:0,0:0:0:0:
0,178,45228,2,0,P|7:151|25:127,1,55.0000016784668,2|0,0:0|0:0,0:0:0:0:
126,43,45390,5,0,0:0:0:0:
126,43,45471,1,0,0:0:0:0:
126,43,45552,2,0,L|193:54,1,55.0000016784668,2|0,0:0|0:0,0:0:0:0:
386,43,45714,1,8,0:0:0:0:
386,43,45795,1,0,0:0:0:0:
386,43,45876,2,0,L|319:54,1,55.0000016784668,2|0,0:0|0:0,0:0:0:0:
256,192,46039,5,0,0:0:0:0:
256,192,46120,1,0,0:0:0:0:
256,192,46201,2,0,L|256:252,1,55.0000016784668,2|0,0:0|0:0,0:0:0:0:
428,303,46363,2,0,P|442:279|446:249,1,55.0000016784668,8|0,0:0|0:0,0:0:0:0:
512,178,46525,2,0,P|505:151|487:127,1,55.0000016784668,2|0,0:0|0:0,0:0:0:0:
386,43,46687,5,0,0:0:0:0:
386,43,46768,1,0,0:0:0:0:
386,43,46849,2,0,P|356:52|319:54,1,55.0000016784668,2|0,0:0|0:0,0:0:0:0:
180,51,47012,1,8,0:0:0:0:
180,51,47093,1,0,0:0:0:0:
180,51,47174,2,0,P|187:20|203:-12,1,55.0000016784668,2|0,0:0|0:0,0:0:0:0:
256,192,47336,5,0,0:0:0:0:
256,192,47417,1,0,0:0:0:0:
256,192,47498,2,0,P|278:213|299:244,1,55.0000016784668,2|0,0:0|0:0,0:0:0:0:
201,348,47660,2,0,P|171:357|134:359,1,55.0000016784668,10|0,0:0|0:0,0:0:0:0:
70,235,47822,2,0,P|77:204|93:171,1,55.0000016784668
180,51,47984,5,0,0:0:0:0:
221,36,48066,1,0,0:0:0:0:
264,44,48147,1,2,0:0:0:0:
296,73,48228,1,0,0:0:0:0:
323,107,48309,1,8,0:0:0:0:
367,113,48390,1,0,0:0:0:0:
405,90,48471,1,2,0:0:0:0:
447,80,48552,1,0,0:0:0:0:
488,95,48633,5,0,0:0:0:0:
507,134,48714,1,0,0:0:0:0:
485,172,48795,1,2,0:0:0:0:
441,175,48876,1,0,0:0:0:0:
416,211,48957,1,8,0:0:0:0:
420,254,49039,1,0,0:0:0:0:
448,287,49120,1,2,0:0:0:0:
485,309,49201,1,0,0:0:0:0:
505,348,49282,5,0,0:0:0:0:
461,347,49363,1,0,0:0:0:0:
417,355,49444,1,2,0:0:0:0:
379,378,49525,1,0,0:0:0:0:
340,356,49606,1,8,0:0:0:0:
299,339,49687,1,0,0:0:0:0:
255,344,49768,1,2,0:0:0:0:
211,338,49849,1,0,0:0:0:0:
174,313,49930,5,0,0:0:0:0:
157,272,50012,1,0,0:0:0:0:
175,231,50093,1,2,0:0:0:0:
217,220,50174,1,0,0:0:0:0:
259,230,50255,1,8,0:0:0:0:
302,221,50336,1,0,0:0:0:0:
325,183,50417,1,2,0:0:0:0:
304,144,50498,1,0,0:0:0:0:
313,101,50579,5,0,0:0:0:0:
271,116,50660,1,0,0:0:0:0:
227,116,50741,1,2,0:0:0:0:
186,99,50822,1,0,0:0:0:0:
164,60,50903,1,8,0:0:0:0:
134,27,50984,1,0,0:0:0:0:
93,9,51066,1,2,0:0:0:0:
49,14,51147,1,0,0:0:0:0:
18,45,51228,5,0,0:0:0:0:
37,84,51309,1,0,0:0:0:0:
50,126,51390,1,2,0:0:0:0:
37,168,51471,1,0,0:0:0:0:
9,202,51552,1,8,0:0:0:0:
10,245,51633,1,0,0:0:0:0:
44,271,51714,1,2,0:0:0:0:
87,267,51795,1,0,0:0:0:0:
107,228,51876,5,0,1:0:0:0:
153,198,51957,1,2,0:0:0:0:
207,202,52039,1,2,0:0:0:0:
252,232,52120,1,2,0:0:0:0:
273,282,52201,1,10,0:0:0:0:
318,312,52282,1,2,0:0:0:0:
372,313,52363,1,2,0:0:0:0:
418,282,52444,1,2,0:0:0:0:
442,232,52525,6,0,P|441:181|422:109,1,110.000003356934,2|0,0:0|0:0,0:0:0:0:
512,66,52849,2,0,P|475:30|410:-6,1,110.000003356934,10|0,0:0|0:0,0:0:0:0:
247,89,53174,6,0,P|280:72|317:66,1,75.0000028610231,4|0,0:0|0:0,0:0:0:0:
162,116,53498,2,0,P|128:99|91:93,1,75.0000028610231,8|0,0:0|0:0,0:0:0:0:
342,151,53822,2,0,P|305:157|271:173,1,75.0000028610231
64,179,54147,2,0,P|100:185|134:201,1,75.0000028610231,8|0,0:0|0:0,0:0:0:0:
0,242,54471,5,0,0:0:0:0:
14,293,54633,1,0,0:0:0:0:
58,320,54795,1,8,0:0:0:0:
110,324,54957,1,8,0:0:0:0:
209,271,55120,1,8,0:0:0:0:
230,254,55201,1,8,0:0:0:0:
256,247,55282,1,8,0:0:0:0:
308,242,55444,1,8,0:0:0:0:
358,255,55606,1,8,0:0:0:0:
480,380,55768,5,4,0:0:0:0:
460,331,55930,1,0,0:0:0:0:
469,279,56093,1,8,0:0:0:0:
497,235,56255,1,0,0:0:0:0:
507,126,56417,1,0,0:0:0:0:
472,86,56579,1,0,0:0:0:0:
421,70,56741,1,8,0:0:0:0:
372,89,56903,1,0,0:0:0:0:
342,198,57066,5,0,0:0:0:0:
358,255,57228,1,0,0:0:0:0:
347,322,57390,1,8,0:0:0:0:
284,362,57552,1,0,0:0:0:0:
197,350,57714,1,8,0:0:0:0:
172,261,57876,1,8,0:0:0:0:
218,175,58039,2,8,L|261:168,3,37.5000014305115
358,255,58363,6,0,B|374:288|374:288|380:325,1,75.0000028610231,4|0,0:0|0:0,0:0:0:0:
352,161,58687,2,0,B|368:127|368:127|374:90,1,75.0000028610231,8|0,0:0|0:0,0:0:0:0:
296,350,59012,2,0,B|289:313|289:313|273:279,1,75.0000028610231
277,98,59336,2,0,B|270:134|270:134|254:168,1,75.0000028610231,8|0,0:0|0:0,0:0:0:0:
199,342,59660,5,4,0:0:0:0:
148,357,59822,1,0,0:0:0:0:
97,344,59984,1,8,0:0:0:0:
65,302,60147,1,8,0:0:0:0:
162,231,60309,1,8,0:0:0:0:
179,210,60390,1,8,0:0:0:0:
186,184,60471,1,8,0:0:0:0:
191,132,60633,1,8,0:0:0:0:
178,82,60795,1,8,0:0:0:0:
0,16,60957,5,4,0:0:0:0:
50,1,61120,1,0,0:0:0:0:
102,6,61282,1,8,0:0:0:0:
149,29,61444,1,0,0:0:0:0:
229,109,61606,1,0,0:0:0:0:
280,118,61768,1,0,0:0:0:0:
332,106,61930,1,8,0:0:0:0:
377,82,62093,1,0,0:0:0:0:
512,148,62255,6,0,P|517:194|508:239,1,89.9999972534181,8|8,0:0|0:0,0:0:0:0:
481,273,62498,1,8,0:0:0:0:
444,299,62579,2,0,L|337:287,1,89.9999972534181,8|8,0:0|0:0,0:0:0:0:
248,275,62903,5,8,0:0:0:0:
151,209,63066,1,8,0:0:0:0:
29,242,63228,1,8,0:0:0:0:
8,282,63309,1,8,0:0:0:0:
5,327,63390,1,8,0:0:0:0:
30,364,63471,1,8,0:0:0:0:
72,380,63552,6,0,P|172:358|252:366,1,179.999994506836,2|8,0:0|0:0,0:0:0:0:
361,382,64039,1,2,0:0:0:0:
471,339,64201,1,2,0:0:0:0:
145,163,64525,1,8,0:0:0:0:
483,138,64849,1,2,0:0:0:0:
362,12,65093,1,2,0:0:0:0:
191,51,65336,1,2,0:0:0:0:
145,163,65498,5,10,0:0:0:0:
145,163,65579,1,8,0:0:0:0:
145,163,65660,1,12,0:0:0:0:
320,170,65822,1,8,0:0:0:0:
191,51,65984,1,12,0:0:0:0:
362,12,66147,1,14,0:0:0:0:
228,219,66633,5,2,0:0:0:0:
362,12,66795,1,2,0:0:0:0:
471,339,67120,1,8,0:0:0:0:
4,248,67444,1,6,0:0:0:0:
483,138,67768,1,12,0:0:0:0:
4,28,68093,5,10,0:0:0:0:
48,23,68174,1,8,0:0:0:0:
89,41,68255,1,8,0:0:0:0:
99,84,68336,1,8,0:0:0:0:
83,126,68417,1,8,0:0:0:0:
104,165,68498,1,8,0:0:0:0:
146,179,68579,1,12,0:0:0:0:
187,160,68660,1,8,0:0:0:0:
196,116,68741,5,6,0:0:0:0:
419,51,69066,1,8,0:0:0:0:
512,148,69228,1,2,0:0:0:0:
443,265,69390,1,2,0:0:0:0:
443,265,69552,1,4,0:0:0:0:
93,333,69876,1,4,0:0:0:0:
93,333,70039,5,6,0:0:0:0:
280,363,70282,1,2,0:0:0:0:
205,201,70525,1,2,0:0:0:0:
86,142,70687,1,2,0:0:0:0:
284,92,70930,1,2,0:0:0:0:
482,42,71174,5,4,0:0:0:0:
482,42,71336,1,6,0:0:0:0:
30,42,71660,1,2,0:0:0:0:
256,0,71822,1,4,0:0:0:0:
256,0,71984,1,6,0:0:0:0:
512,259,72228,1,2,0:0:0:0:
163,298,72471,1,4,0:0:0:0:
381,380,72633,1,14,0:0:0:0:
308,167,72795,5,8,0:0:0:0:
308,167,72876,1,8,0:0:0:0:
308,167,72957,1,12,0:0:0:0:
91,139,73120,5,8,0:0:0:0:
91,139,73201,1,8,0:0:0:0:
91,139,73282,1,14,0:0:0:0:
91,139,73363,1,8,0:0:0:0:
91,139,73444,1,8,0:0:0:0:
298,285,73606,5,12,0:0:0:0:
298,285,73687,1,8,0:0:0:0:
298,285,73768,1,8,0:0:0:0:
298,285,73849,1,8,0:0:0:0:
298,285,73930,6,0,L|421:303,1,125,6|0,1:0|0:0,0:0:0:0:
512,170,74255,1,8,0:0:0:0:
418,36,74417,1,0,0:0:0:0:
229,29,74579,2,0,P|175:21|107:-1,1,125,2|0,1:0|0:0,0:0:0:0:
4,228,74903,2,0,P|37:185|90:137,1,125,8|0,0:0|0:0,0:0:0:0:
512,170,75228,6,2,P|500:259|421:304,1,187.5,2|2,1:0|0:0,0:0:0:0:
212,280,75714,1,2,0:0:0:0:
380,172,75876,2,0,B|380:120|380:120|400:104|400:104|400:56,1,125,2|0,1:0|0:0,0:0:0:0:
252,0,76201,2,0,P|212:12|188:88,1,125,8|2,0:0|0:0,0:0:0:0:
160,132,76444,1,2,0:0:0:0:
128,176,76525,2,0,L|5:195,1,125,2|0,1:0|2:0,2:0:0:0:
104,327,76849,2,0,P|168:319|212:278,1,125,8|2,0:0|0:0,0:0:0:0:
504,64,77174,5,2,1:0:0:0:
344,0,77336,1,2,0:0:0:0:
344,0,77417,1,2,0:0:0:0:
344,0,77498,1,10,0:0:0:0:
368,184,77660,1,0,0:0:0:0:
191,157,77822,2,0,L|211:283,1,125,2|0,1:0|0:0,0:0:0:0:
476,368,78147,2,0,P|500:306|495:244,1,125,8|0,0:0|0:0,0:0:0:0:
368,184,78471,5,2,1:0:0:0:
263,378,78633,1,2,0:0:0:0:
263,378,78714,1,2,0:0:0:0:
263,378,78795,1,10,0:0:0:0:
225,335,78876,1,8,0:0:0:0:
210,280,78957,1,8,0:0:0:0:
225,225,79039,1,8,0:0:0:0:
260,181,79120,6,0,P|225:225|163:251,1,125,2|0,1:0|0:0,0:0:0:0:
0,108,79444,2,0,P|56:132|118:127,1,125,8|2,0:0|0:0,0:0:0:0:
352,20,79768,2,0,P|295:-4|233:0,1,125,2|0,1:0|0:0,0:0:0:0:
196,45,80012,1,2,0:0:0:0:
160,89,80093,1,10,0:0:0:0:
116,256,80255,1,0,0:0:0:0:
512,148,80417,6,2,L|373:126,1,125,2|2,1:0|0:0,0:0:0:0:
314,90,80660,2,2,P|348:149|338:217,1,125
318,253,80903,1,2,0:0:0:0:
135,379,81066,6,2,L|113:240,1,125,2|2,1:0|0:0,0:0:0:0:
77,181,81309,2,2,P|136:215|204:205,1,125
240,185,81552,1,2,0:0:0:0:
240,185,81633,1,2,0:0:0:0:
240,185,81714,1,2,1:0:0:0:
482,364,82039,5,8,0:0:0:0:
173,81,82363,1,2,1:0:0:0:
327,323,82606,1,2,0:0:0:0:
461,80,82849,1,2,0:0:0:0:
115,255,83012,5,2,1:0:0:0:
54,241,83093,1,2,0:0:0:0:
15,192,83174,1,2,0:0:0:0:
12,129,83255,1,2,0:0:0:0:
51,80,83336,1,10,0:0:0:0:
112,69,83417,1,2,0:0:0:0:
173,81,83498,1,2,0:0:0:0:
198,137,83579,1,2,0:0:0:0:
256,158,83660,1,2,1:0:0:0:
314,137,83741,1,2,0:0:0:0:
339,81,83822,1,2,0:0:0:0:
400,69,83903,1,2,0:0:0:0:
461,80,83984,5,8,0:0:0:0:
412,130,84066,1,8,0:0:0:0:
411,198,84147,1,8,0:0:0:0:
469,233,84228,1,8,0:0:0:0:
488,298,84309,6,0,P|421:290|359:315,1,135.000000514984,6|2,1:0|0:0,0:0:0:0:
187,348,84633,1,8,0:0:0:0:
339,81,84795,1,2,0:0:0:0:
24,298,84957,2,0,P|90:290|152:315,1,135.000000514984,2|2,1:0|0:0,0:0:0:0:
490,95,85282,2,0,P|463:155|410:197,1,135.000000514984,8|2,0:0|0:0,0:0:0:0:
88,148,85606,5,2,1:0:0:0:
312,16,85768,1,2,0:0:0:0:
312,16,85849,1,2,0:0:0:0:
312,16,85930,1,10,0:0:0:0:
320,316,86093,1,2,0:0:0:0:
226,131,86255,2,0,P|198:69|146:28,1,135.000000514984,2|2,1:0|0:0,0:0:0:0:
8,170,86579,5,10,0:0:0:0:
0,237,86660,1,2,0:0:0:0:
24,299,86741,1,2,0:0:0:0:
89,316,86822,1,2,0:0:0:0:
155,328,86903,2,0,P|219:312|291:308,1,135.000000514984,2|2,1:0|0:0,0:0:0:0:
512,131,87228,2,0,P|448:115|376:111,1,135.000000514984,8|2,0:0|0:0,0:0:0:0:
8,170,87552,5,2,1:0:0:0:
149,51,87714,1,2,0:0:0:0:
149,51,87795,1,2,0:0:0:0:
149,51,87876,1,10,0:0:0:0:
280,184,88039,1,2,0:0:0:0:
155,328,88201,2,0,P|101:357|25:364,1,135.000000514984,2|2,1:0|0:0,0:0:0:0:
8,170,88525,2,0,P|9:109|41:39,1,135.000000514984,8|2,0:0|0:0,0:0:0:0:
158,172,88849,5,2,1:0:0:0:
264,68,89012,1,2,0:0:0:0:
264,68,89093,1,2,0:0:0:0:
264,68,89174,1,8,0:0:0:0:
313,22,89255,1,8,0:0:0:0:
379,14,89336,1,8,0:0:0:0:
444,31,89417,1,8,0:0:0:0:
489,80,89498,6,0,P|497:152|484:229,1,135.000000514984,6|2,1:0|0:0,0:0:0:0:
279,317,89822,2,0,P|271:245|284:168,1,135.000000514984,8|2,0:0|0:0,0:0:0:0:
489,374,90147,1,2,1:0:0:0:
298,144,90309,1,2,0:0:0:0:
298,144,90390,1,2,0:0:0:0:
298,144,90471,1,10,0:0:0:0:
0,249,90633,1,2,0:0:0:0:
279,317,90795,6,2,L|140:339,1,135.000000514984,2|2,1:0|0:0,0:0:0:0:
76,380,91039,2,2,B|108:324|108:324|100:253,1,135.000000514984
92,196,91282,1,2,0:0:0:0:
319,10,91444,6,2,L|297:149,1,135.000000514984,2|2,1:0|0:0,0:0:0:0:
252,209,91687,2,2,B|308:177|308:177|379:185,1,135.000000514984
443,213,91930,1,2,0:0:0:0:
443,213,92012,1,2,0:0:0:0:
443,213,92093,1,6,1:0:0:0:
512,380,92417,5,8,0:0:0:0:
26,145,92741,1,6,1:0:0:0:
181,382,92984,1,2,0:0:0:0:
362,145,93228,1,2,0:0:0:0:
362,277,93390,5,6,1:0:0:0:
426,259,93471,1,2,0:0:0:0:
474,212,93552,1,2,0:0:0:0:
492,148,93633,1,2,0:0:0:0:
476,83,93714,1,14,0:0:0:0:
430,35,93795,1,2,0:0:0:0:
366,15,93876,1,2,0:0:0:0:
301,29,93957,1,2,0:0:0:0:
252,74,94039,5,6,1:0:0:0:
262,146,94120,1,2,0:0:0:0:
229,212,94201,1,2,0:0:0:0:
165,246,94282,1,2,0:0:0:0:
92,237,94363,1,8,0:0:0:0:
38,188,94444,1,8,0:0:0:0:
22,117,94525,1,10,0:0:0:0:
49,49,94606,1,8,0:0:0:0:
111,10,94687,5,2,0:0:0:0:
301,29,95012,1,2,0:0:0:0:
365,105,95174,1,2,0:0:0:0:
342,202,95336,1,2,0:0:0:0:
92,237,95660,1,2,0:0:0:0:
390,302,95984,5,2,0:0:0:0:
184,292,96228,1,2,0:0:0:0:
321,369,96471,1,2,0:0:0:0:
236,191,96633,1,2,0:0:0:0:
380,52,96957,1,2,0:0:0:0:
447,126,97120,1,2,0:0:0:0:
454,225,97282,1,2,0:0:0:0:
0,343,97768,5,2,0:0:0:0:
184,292,97930,1,2,0:0:0:0:
0,97,98255,1,2,0:0:0:0:
254,7,98579,1,2,0:0:0:0:
158,155,98903,1,2,0:0:0:0:
412,65,99228,1,2,0:0:0:0:
475,141,99390,1,2,0:0:0:0:
452,238,99552,2,8,L|458:281,8,25
297,366,100201,5,2,0:0:0:0:
298,266,100363,1,2,0:0:0:0:
231,191,100525,1,2,0:0:0:0:
0,68,100849,1,2,0:0:0:0:
295,16,101174,5,2,0:0:0:0:
156,65,101417,1,2,0:0:0:0:
231,191,101660,1,2,0:0:0:0:
370,142,101822,1,2,0:0:0:0:
472,236,102066,1,2,0:0:0:0:
508,368,102309,1,2,0:0:0:0:
512,68,102471,5,2,0:0:0:0:
231,191,102795,1,2,0:0:0:0:
0,68,103120,1,2,0:0:0:0:
66,221,103363,1,2,0:0:0:0:
231,191,103606,1,2,0:0:0:0:
296,344,103768,2,8,L|350:352,3,50
476,281,104093,2,8,L|421:289,3,50
388,257,104417,6,0,P|332:205|490:216,1,400,0|4,1:0|1:0,1:0:0:0:
500,186,107174,5,4,0:0:0:0:
31,252,107498,1,4,0:0:0:0:
263,220,107660,1,4,0:0:0:0:
263,220,108957,5,4,0:0:0:0:
455,0,109282,1,4,0:0:0:0:
411,328,109606,1,4,0:0:0:0:
147,240,110093,5,4,0:0:0:0:
434,157,110255,1,4,0:0:0:0:
434,157,111066,5,4,0:0:0:0:
175,52,111390,1,4,0:0:0:0:
271,176,111552,1,4,0:0:0:0:
271,176,112687,5,4,0:0:0:0:
72,329,112849,1,4,0:0:0:0:
399,252,113336,5,4,0:0:0:0:
43,144,113498,1,4,0:0:0:0:
427,44,113984,5,4,0:0:0:0:
231,304,114147,1,14,0:0:0:0:
221,305,114228,1,8,0:0:0:0:
211,307,114309,1,8,0:0:0:0:
201,308,114390,1,8,0:0:0:0:
191,310,114471,1,10,0:0:0:0:
181,311,114552,1,8,0:0:0:0:
171,313,114633,1,8,0:0:0:0:
161,314,114714,1,8,0:0:0:0:
151,316,114795,1,10,0:0:0:0:
142,318,114876,1,8,0:0:0:0:
132,319,114957,1,8,0:0:0:0:
122,321,115039,1,8,0:0:0:0:
112,322,115120,1,10,0:0:0:0:
102,324,115201,1,8,0:0:0:0:
92,325,115282,1,8,0:0:0:0:
82,327,115363,1,8,0:0:0:0:
72,329,115444,5,4,0:0:0:0:
