osu file format v14

[General]
AudioFilename: audio.mp3
AudioLeadIn: 0
PreviewTime: 80320
Countdown: 0
SampleSet: Normal
StackLeniency: 0.4
Mode: 0
LetterboxInBreaks: 0
WidescreenStoryboard: 1

[Editor]
DistanceSpacing: 1
BeatDivisor: 4
GridSize: 4
TimelineZoom: 1.200005

[Metadata]
Title:Infinite of nuclear fusion ~Mugen no Taiyou Shinkou~
TitleUnicode:Infinite of nuclear fusion ~無限の太陽信仰~
Artist:AU
ArtistUnicode:あう
Creator:Luscent
Version:jieusieu's Hard
Source:東方地霊殿 ~ Subterranean Animism.
Tags:東方Project Touhou Chireiden 11 th11 霊知の太陽信仰 Reichi no Taiyou Shinkou Solar Sect of Mystic Wisdom ~ Nuclear Fusion Cellina jieusieu 404 aimnotfound electronic instrumental video game speedcore Team Shanghai Alice ZUN
BeatmapID:2951453
BeatmapSetID:1380266

[Difficulty]
HPDrainRate:4
CircleSize:4
OverallDifficulty:6
ApproachRate:8
SliderMultiplier:1.4
SliderTickRate:1

[Events]
//Background and Video events
0,0,"bg.jpg",0,0
//Break Periods
2,70939,79477
2,102177,107077
2,139977,148477
//Storyboard Layer 0 (Background)
//Storyboard Layer 1 (Fail)
//Storyboard Layer 2 (Pass)
//Storyboard Layer 3 (Foreground)
//Storyboard Layer 4 (Overlay)
//Storyboard Sound Samples

[TimingPoints]
1177,300,4,2,1,40,1,0
1177,-100,4,2,1,40,0,0
9577,-100,4,1,1,40,0,0
10477,-333.333333333333,4,1,1,40,0,0
10777,-100,4,1,1,60,0,0
14977,-100,4,1,1,80,0,0
15577,-100,4,1,1,60,0,0
24577,-100,4,1,1,80,0,0
25177,-100,4,1,1,60,0,0
29977,-142.857142857143,4,1,2,50,0,0
38377,-142.857142857143,4,1,1,50,0,0
38527,-142.857142857143,4,1,1,40,0,0
38677,-142.857142857143,4,1,1,45,0,0
38827,-142.857142857143,4,1,1,40,0,0
38977,-142.857142857143,4,1,1,50,0,0
39577,-100,4,1,1,60,0,0
47977,-100,4,1,1,80,0,0
48577,-100,4,1,1,90,0,0
48652,-100,4,1,1,80,0,0
49177,-142.857142857143,4,1,1,40,0,0
49252,-142.857142857143,4,1,1,5,0,0
50377,-142.857142857143,4,1,1,30,0,0
50527,-142.857142857143,4,1,1,30,0,0
50602,-142.857142857143,4,1,1,33,0,0
50677,-142.857142857143,4,1,1,36,0,0
50752,-142.857142857143,4,1,1,39,0,0
50827,-142.857142857143,4,1,1,41,0,0
50902,-142.857142857143,4,1,1,44,0,0
50977,-142.857142857143,4,1,1,47,0,0
51052,-142.857142857143,4,1,1,50,0,0
51127,-142.857142857143,4,1,1,52,0,0
51202,-142.857142857143,4,1,1,54,0,0
51277,-142.857142857143,4,1,1,56,0,0
51352,-142.857142857143,4,1,1,58,0,0
51427,-142.857142857143,4,1,1,60,0,0
51577,-100,4,1,1,60,0,0
56077,-100,4,1,1,80,0,0
56377,-100,4,1,1,60,0,0
60877,-100,4,1,1,80,0,0
61177,-100,4,1,1,60,0,0
65677,-100,4,1,1,80,0,0
65977,-100,4,1,1,60,0,0
70177,-100,4,1,1,40,0,0
70777,-100,4,2,1,40,0,0
80377,-100,4,1,1,75,0,1
98377,-100,4,1,1,75,0,1
98452,-100,4,1,1,60,0,1
98977,-100,4,1,1,65,0,1
99052,-100,4,1,1,60,0,1
99577,-100,4,1,1,55,0,0
107977,-100,4,1,1,55,0,0
108127,-100,4,1,1,45,0,0
108277,-100,4,1,1,50,0,0
108427,-100,4,1,1,45,0,0
108577,-100,4,1,1,65,0,0
118777,300,6,1,1,40,1,0
120577,300,4,2,0,40,1,0
120577,-125,4,2,0,40,0,0
129277,-125,4,2,0,60,0,0
130177,-125,4,2,0,40,0,0
137377,-125,4,2,0,60,0,0
138577,-125,4,2,1,60,0,0
138877,-125,4,2,0,60,0,0
138914,-125,4,2,1,60,0,0
139177,-125,4,2,0,60,0,0
139777,-125,4,2,1,30,0,0
149377,-142.857142857143,4,2,0,50,0,0
151477,-100,4,2,1,65,0,0
151777,-142.857142857143,4,2,0,50,0,0
153877,-100,4,2,1,65,0,0
154177,-142.857142857143,4,2,0,50,0,0
156277,-100,4,2,1,65,0,0
156577,-142.857142857143,4,2,0,50,0,0
158677,-142.857142857143,4,2,0,60,0,0
158977,-100,4,1,1,80,0,1
176977,-100,4,1,1,80,0,1
178177,-100,4,1,1,80,0,0

[Colours]
Combo1 : 17,254,176
Combo2 : 173,255,95
Combo3 : 255,88,100
Combo4 : 255,94,55

[HitObjects]
100,238,1177,6,0,P|152:275|229:261,1,140,4|0,1:0|1:0,0:0:0:0:
417,253,1777,2,0,P|365:216|288:230,1,140,0|0,1:0|1:0,0:0:0:0:
100,238,2377,6,0,P|147:281|150:365,1,140,0|0,1:0|1:0,0:0:0:0:
417,253,2977,2,0,P|370:210|367:126,1,140,0|0,1:0|1:0,0:0:0:0:
436,111,3427,1,0,1:0:0:0:
376,62,3577,6,0,L|226:54,1,140,0|0,1:0|1:0,0:0:0:0:
118,160,4177,2,0,L|268:152,1,140,0|0,1:0|1:0,0:0:0:0:
417,253,4777,2,0,L|267:245,1,140,0|0,1:0|1:0,0:0:0:0:
144,359,5377,2,0,P|137:324|106:295,1,70,0|0,1:0|1:0,0:0:0:0:
51,254,5677,1,0,1:0:0:0:
122,224,5827,1,0,1:0:0:0:
60,176,5977,6,0,L|72:35,1,140,4|0,1:0|1:0,0:0:0:0:
236,167,6577,2,0,L|248:26,1,140,0|0,1:0|1:0,0:0:0:0:
413,160,7177,2,0,L|425:19,1,140,0|0,1:0|1:0,0:0:0:0:
467,232,7777,2,0,P|400:237|356:302,1,140,0|0,1:0|1:0,0:0:0:0:
380,363,8227,1,0,1:0:0:0:
304,376,8377,6,0,P|247:336|168:351,1,140,0|0,1:0|1:0,0:0:0:0:
15,223,8977,2,0,P|82:249|105:335,1,140,0|0,1:0|1:0,0:0:0:0:
82,162,9577,5,4,3:0:0:0:
65,39,9877,1,4,3:0:0:0:
196,20,10177,1,4,3:0:0:0:
213,143,10477,2,0,P|212:155|212:170,1,20.9999993591309
142,96,10777,6,0,L|131:248,1,140,6|2,0:0|0:0,0:0:0:0:
173,298,11227,1,0,0:0:0:0:
119,352,11377,2,0,P|97:324|59:310,2,70,2|0|2,0:0|0:0|0:0,0:0:0:0:
173,298,11827,2,0,L|252:290,2,70,2|0|2,0:0|0:0|0:0,0:0:0:0:
193,372,12277,2,0,L|264:366,1,70,2|0,0:0|0:0,0:0:0:0:
338,358,12577,6,0,P|374:296|441:280,1,140,2|2,0:0|0:0,0:0:0:0:
444,273,12952,1,0,0:0:0:0:
450,266,13027,1,2,0:0:0:0:
457,260,13102,1,0,0:0:0:0:
464,254,13177,6,0,L|473:107,1,140,6|2,0:0|0:0,0:0:0:0:
444,42,13627,1,0,0:0:0:0:
371,80,13777,2,0,L|365:3,2,70,2|0|2,0:0|0:0|0:0,0:0:0:0:
305,121,14227,2,0,L|298:197,2,70,2|0|2,0:0|0:0|0:0,0:0:0:0:
228,105,14677,2,0,L|222:28,1,70,2|0,0:0|0:0,0:0:0:0:
151,80,14977,6,0,P|133:112|139:158,1,70,2|2,0:0|0:0,0:0:0:0:
60,163,15277,2,0,P|84:205|115:216,1,70,2|2,0:0|0:0,0:0:0:0:
161,263,15577,6,0,L|305:252,1,140,6|2,0:0|0:0,0:0:0:0:
363,297,16027,1,0,0:0:0:0:
356,371,16177,2,0,L|278:367,2,70,2|0|2,0:0|0:0|0:0,0:0:0:0:
427,341,16627,2,0,P|458:350|484:384,2,70,2|0|2,0:0|0:0|0:0,0:0:0:0:
363,297,17077,2,0,P|392:272|433:266,1,70,2|0,0:0|0:0,0:0:0:0:
480,210,17377,6,0,P|480:150|403:103,1,140,2|2,0:0|0:0,0:0:0:0:
415,96,17752,1,0,0:0:0:0:
409,89,17827,1,0,0:0:0:0:
403,82,17902,1,0,0:0:0:0:
397,75,17977,6,0,L|250:66,1,140,6|2,0:0|0:0,0:0:0:0:
202,123,18427,1,0,0:0:0:0:
133,86,18577,2,0,P|129:51|141:20,2,70,2|0|2,0:0|0:0|0:0,0:0:0:0:
86,148,19027,2,0,P|64:125|53:84,2,70,2|0|2,0:0|0:0|0:0,0:0:0:0:
152,186,19477,2,0,L|144:268,1,70,2|0,0:0|0:0,0:0:0:0:
81,300,19777,6,0,L|83:318,4,17.5,2|0|0|0|0,0:0|0:0|0:0|0:0|0:0,0:0:0:0:
147,359,20077,2,0,P|181:364|209:384,1,70,2|2,0:0|0:0,0:0:0:0:
255,320,20377,6,0,L|422:305,1,140,6|2,0:0|0:0,0:0:0:0:
462,343,20827,1,0,0:0:0:0:
508,251,20977,2,0,L|433:242,1,70,2|0,0:0|0:0,0:0:0:0:
393,172,21277,1,2,0:0:0:0:
393,172,21427,2,0,L|468:163,1,70,2|0,0:0|0:0,0:0:0:0:
509,94,21727,1,2,0:0:0:0:
509,94,21877,2,0,L|434:85,1,70,2|0,0:0|0:0,0:0:0:0:
378,35,22177,6,0,P|301:44|270:105,1,140,2|2,0:0|0:0,0:0:0:0:
275,101,22552,1,0,0:0:0:0:
279,108,22627,1,2,0:0:0:0:
283,117,22702,1,0,0:0:0:0:
287,125,22777,6,0,L|147:114,1,140,6|2,0:0|0:0,0:0:0:0:
92,61,23227,1,0,0:0:0:0:
17,42,23377,2,0,P|15:78|31:109,1,70,2|0,0:0|0:0,0:0:0:0:
86,162,23677,1,2,0:0:0:0:
86,162,23827,2,0,P|88:198|72:229,1,70,2|0,0:0|0:0,0:0:0:0:
3,263,24127,1,2,0:0:0:0:
3,263,24277,2,0,P|1:299|17:330,1,70,2|0,0:0|0:0,0:0:0:0:
79,374,24577,6,0,L|156:379,1,70,2|2,0:0|0:0,0:0:0:0:
183,309,24877,2,0,L|260:304,1,70,0|2,0:0|0:0,0:0:0:0:
321,348,25177,6,0,P|390:339|433:278,1,140,6|2,0:0|0:0,0:0:0:0:
378,231,25627,1,0,0:0:0:0:
445,192,25777,2,0,L|450:122,1,70,2|0,0:0|0:0,0:0:0:0:
367,85,26077,1,2,0:0:0:0:
367,85,26227,2,0,L|372:155,1,70,2|0,0:0|0:0,0:0:0:0:
289,203,26527,1,2,0:0:0:0:
289,203,26677,2,0,L|294:133,1,70,2|0,0:0|0:0,0:0:0:0:
215,164,26977,6,0,L|204:24,1,140,2|2,0:0|0:0,0:0:0:0:
196,19,27352,1,0,0:0:0:0:
187,15,27427,1,0,0:0:0:0:
178,11,27502,1,0,0:0:0:0:
170,7,27577,6,0,P|96:7|55:54,1,140,6|2,0:0|0:0,0:0:0:0:
10,116,28027,1,0,0:0:0:0:
50,187,28177,2,0,P|84:194|110:217,1,70,2|0,0:0|0:0,0:0:0:0:
172,173,28477,1,2,0:0:0:0:
172,173,28627,2,0,P|186:217|175:256,1,70,2|0,0:0|0:0,0:0:0:0:
250,271,28927,1,2,0:0:0:0:
250,271,29077,2,0,P|225:301|193:315,1,70,2|0,0:0|0:0,0:0:0:0:
142,367,29377,6,0,L|140:385,4,17.5
71,333,29677,2,0,L|66:258,1,70
1,219,29977,6,0,P|-5:168|37:149,1,97.9999970092774,4|0,0:0|0:0,0:0:0:0:
65,20,30577,2,0,P|59:71|101:90,1,97.9999970092774,4|0,0:0|0:0,0:0:0:0:
151,195,31177,6,0,P|201:188|250:186,1,97.9999970092774,4|0,0:0|0:0,0:0:0:0:
317,225,31627,2,0,P|354:203|328:148,1,97.9999970092774,4|0,0:0|0:0,0:0:0:0:
278,115,32077,2,0,P|262:97|278:70,1,48.9999985046387,4|0,0:0|0:0,0:0:0:0:
330,28,32377,6,0,P|374:35|432:38,1,97.9999970092774,4|0,0:0|0:0,0:0:0:0:
483,90,32827,1,0,0:0:0:0:
425,146,32977,2,0,P|428:152|428:162,4,12.2499996261597,4|0|0|0|0,0:0|0:0|0:0|0:0|0:0,0:0:0:0:
498,199,33277,2,0,P|486:221|483:252,1,48.9999985046387
431,302,33577,6,0,P|405:340|360:331,1,97.9999970092774,4|0,0:0|0:0,0:0:0:0:
301,279,34027,2,0,P|275:240|230:249,1,97.9999970092774,4|0,0:0|0:0,0:0:0:0:
174,302,34477,2,0,P|190:320|174:347,1,48.9999985046387,4|0,0:0|0:0,0:0:0:0:
101,284,34777,6,0,P|104:237|112:183,1,97.9999970092774,4|0,0:0|0:0,0:0:0:0:
10,40,35377,2,0,P|2:62|18:79,1,48.9999985046387,4|0,0:0|0:0,0:0:0:0:
89,115,35677,2,0,P|104:97|97:75,1,48.9999985046387,4|0,0:0|0:0,0:0:0:0:
152,19,35977,6,0,P|196:39|187:88,1,97.9999970092774,4|4,0:0|0:2,0:0:0:0:
244,141,36427,2,0,P|228:187|179:184,1,97.9999970092774,4|4,0:2|0:0,0:0:0:0:
123,238,36877,2,0,P|125:256|115:270,2,24.4999992523194,0|0|0,0:2|0:0|0:0,0:0:0:0:
112,336,37177,6,0,P|162:341|218:348,1,97.9999970092774,4|0,0:0|0:0,0:0:0:0:
355,364,37777,2,0,P|300:357|284:317,1,97.9999970092774,4|0,0:0|0:0,0:0:0:0:
422,328,38377,6,0,P|428:317|437:308,6,24.4999992523194,8|8|8|8|8|8|8,0:2|0:2|0:2|0:2|0:2|0:2|0:2,0:0:0:0:
375,259,38977,2,0,L|321:256,1,48.9999985046387,8|0,0:2|0:0,0:0:0:0:
406,187,39277,6,2,L|460:184,1,48.9999985046387,2|0,0:2|0:0,0:2:0:0:
476,108,39577,6,0,L|333:98,1,140,4|2,0:0|0:0,0:0:0:0:
299,167,40027,1,0,0:0:0:0:
232,125,40177,2,0,L|228:52,1,70,2|0,0:0|0:0,0:0:0:0:
154,98,40477,1,2,0:0:0:0:
154,98,40627,2,0,L|158:171,1,70,2|0,0:0|0:0,0:0:0:0:
79,134,40927,1,2,0:0:0:0:
79,134,41077,2,0,L|75:61,1,70,2|2,0:0|0:0,0:0:0:0:
1,125,41377,6,0,L|3:159,4,35,8|8|8|8|14,0:2|0:2|0:2|0:2|0:1,0:0:0:0:
16,289,41977,6,0,L|157:300,1,140,4|2,0:0|0:0,0:0:0:0:
207,359,42427,1,0,0:0:0:0:
280,335,42577,2,0,P|260:303|224:284,1,70,2|0,0:0|0:0,0:0:0:0:
263,217,42877,1,2,0:0:0:0:
263,217,43027,2,0,P|300:216|333:194,1,70,2|0,0:0|0:0,0:0:0:0:
378,259,43327,1,2,0:0:0:0:
378,259,43477,2,0,P|360:291|362:331,1,70,2|2,0:0|0:0,0:0:0:0:
418,376,43777,6,0,L|458:371,4,35,8|8|8|8|14,0:2|0:2|0:2|0:2|0:0,0:0:0:0:
492,246,44377,6,0,P|443:185|368:191,1,140,4|2,0:0|0:0,0:0:0:0:
378,259,44827,1,0,0:0:0:0:
316,308,44977,2,0,L|238:301,1,70,2|0,0:0|0:0,0:0:0:0:
219,231,45277,1,2,0:0:0:0:
219,231,45427,2,0,L|149:237,1,70,2|0,0:0|0:0,0:0:0:0:
141,313,45727,1,2,0:0:0:0:
141,313,45877,2,0,L|71:306,1,70,2|2,0:0|0:0,0:0:0:0:
6,265,46177,6,0,L|2:228,4,35,8|8|8|8|6,0:2|0:2|0:2|0:2|0:0,0:0:0:0:
23,0,46777,6,0,P|57:73|26:127,1,140,4|2,0:0|0:0,0:0:0:0:
102,150,47227,1,0,0:0:0:0:
86,225,47377,2,0,P|119:238|142:273,1,70,2|0,0:0|0:0,0:0:0:0:
165,340,47677,1,2,0:0:0:0:
165,340,47827,2,0,L|242:336,1,70,2|2,0:0|0:2,0:0:0:0:
244,339,48052,1,2,0:2:0:0:
252,341,48127,1,2,0:2:0:0:
261,344,48202,1,2,0:2:0:0:
271,347,48277,2,0,L|310:344,3,35,2|2|2|2,0:2|0:2|0:2|0:2,0:0:0:0:
329,324,48577,6,0,L|368:321,6,35,2|2|2|2|2|2|2,0:2|0:2|0:2|0:2|0:2|0:2|0:2,0:0:0:0:
436,320,49177,6,0,B|224:245|283:446|70:368,1,391.99998803711,6|0,0:0|0:2,0:0:0:0:
19,310,50527,6,0,P|16:296|9:279,12,24.4999992523194,0|0|0|0|0|0|0|0|0|0|0|0|0,0:2|0:2|0:2|0:2|0:2|0:2|0:2|0:2|0:2|0:2|0:2|0:2|0:2,0:0:0:0:
77,244,51577,6,0,L|84:167,1,70,2|0,0:0|0:0,0:0:0:0:
37,108,51877,2,0,P|82:47|153:45,1,140,2|2,0:0|0:0,0:0:0:0:
184,109,52327,1,2,0:0:0:0:
251,68,52477,2,0,L|323:65,1,70,0|2,0:0|0:0,0:0:0:0:
327,60,52702,1,0,0:0:0:0:
333,55,52777,6,0,P|378:116|449:118,1,140,2|2,0:0|0:0,0:0:0:0:
512,93,53227,2,0,L|500:236,1,140,2|2,0:0|0:0,0:0:0:0:
493,310,53677,1,2,0:0:0:0:
329,370,53977,6,0,L|324:297,1,70,2|0,0:0|0:0,0:0:0:0:
349,226,54277,2,0,P|280:237|246:296,1,140,2|2,0:0|0:0,0:0:0:0:
184,340,54727,2,0,P|116:347|69:299,1,140,2|2,0:0|0:0,0:0:0:0:
64,291,55102,1,0,0:0:0:0:
60,284,55177,6,0,L|74:206,1,70,2|0,0:0|0:0,0:0:0:0:
124,157,55477,1,2,0:0:0:0:
91,88,55627,2,0,B|155:83|155:83|167:88|167:88|230:83,1,140,2|0,0:0|0:0,0:0:0:0:
223,7,56077,6,0,P|256:10|289:33,1,70,2|2,0:0|0:0,0:0:0:0:
361,42,56377,6,0,L|349:132,1,70,2|0,0:0|0:0,0:0:0:0:
282,140,56677,2,0,L|294:282,1,140,2|2,0:0|0:0,0:0:0:0:
367,261,57127,2,0,P|367:298|351:329,1,70,2|0,0:0|0:0,0:0:0:0:
301,384,57427,1,2,0:0:0:0:
301,384,57502,1,0,0:0:0:0:
301,384,57577,6,0,L|220:376,2,70,2|2|2,0:0|0:0|0:0,0:0:0:0:
353,327,58027,2,0,L|434:319,2,70,2|0|2,0:0|0:0|0:0,0:0:0:0:
293,279,58477,1,2,0:0:0:0:
477,266,58777,6,0,P|482:230|470:194,1,70,2|0,0:0|0:0,0:0:0:0:
414,148,59077,2,0,P|346:151|302:213,1,140,2|2,0:0|0:0,0:0:0:0:
292,281,59527,2,0,B|228:276|228:276|216:281|216:281|153:276,1,140,2|2,0:0|0:0,0:0:0:0:
148,282,59902,1,0,0:0:0:0:
143,288,59977,6,0,L|149:369,1,70,2|0,0:0|0:0,0:0:0:0:
79,384,60277,1,2,0:0:0:0:
25,331,60427,2,0,L|15:188,1,140,2|2,0:0|0:0,0:0:0:0:
52,123,60877,6,0,P|79:146|89:179,1,70,2|0,0:0|0:0,0:0:0:0:
160,264,61177,6,0,L|166:192,1,70,2|0,0:0|0:0,0:0:0:0:
218,136,61477,2,0,P|285:131|321:74,1,140,2|2,0:0|0:0,0:0:0:0:
376,136,61927,1,2,0:0:0:0:
451,118,62077,2,0,P|451:155|436:184,1,70,0|2,0:0|0:0,0:0:0:0:
429,189,62302,1,0,0:0:0:0:
422,194,62377,6,0,B|427:258|427:258|422:270|422:270|427:333,1,140,2|2,0:0|0:0,0:0:0:0:
367,384,62827,2,0,L|218:374,1,140,2|2,0:0|0:0,0:0:0:0:
173,321,63277,1,2,0:0:0:0:
14,278,63577,6,0,P|29:246|57:225,1,70,2|0,0:0|0:0,0:0:0:0:
120,267,63877,2,0,P|129:203|78:153,1,140,2|2,0:0|0:0,0:0:0:0:
71,75,64327,2,0,L|217:65,1,140,2|2,0:0|0:0,0:0:0:0:
216,72,64702,1,0,0:0:0:0:
221,78,64777,6,0,L|291:73,1,70,2|0,0:0|0:0,0:0:0:0:
361,107,65077,1,2,0:0:0:0:
401,41,65227,2,0,P|464:66|485:133,1,140,2|0,0:0|0:0,0:0:0:0:
415,164,65677,6,0,L|410:241,1,70,2|2,0:0|0:0,0:0:0:0:
459,299,65977,6,0,P|421:308|393:339,1,70,2|0,0:0|0:0,0:0:0:0:
346,384,66277,2,0,L|193:376,1,140,2|2,0:0|0:0,0:0:0:0:
154,320,66727,2,0,L|159:241,1,70,2|0,0:0|0:0,0:0:0:0:
62,243,67027,1,2,0:0:0:0:
71,244,67102,1,0,0:0:0:0:
80,245,67177,6,0,L|75:314,2,70,2|0|2,0:0|0:0|0:0,0:0:0:0:
158,250,67627,2,0,L|164:174,2,70,2|0|2,0:0|0:0|0:0,0:0:0:0:
234,256,68077,1,2,0:0:0:0:
352,74,68377,6,0,P|336:104|336:139,1,70,2|0,0:0|0:0,0:0:0:0:
258,134,68677,2,0,P|263:168|284:196,1,70,2|0,0:0|0:0,0:0:0:0:
352,234,68977,2,0,L|404:231,6,35,2|0|2|0|0|0|2,0:0|0:0|0:0|0:0|0:0|0:0|0:0,0:0:0:0:
313,303,69577,6,0,L|283:301,12,17.5,2|0|0|0|0|0|0|0|0|0|0|0|0,0:1|0:0|0:0|0:0|0:0|0:0|0:0|0:0|0:0|0:0|0:0|0:0|0:0,0:0:0:0:
377,345,70177,6,0,L|379:378,15,17.5
11,101,80377,6,0,P|81:104|126:157,1,140,14|8,0:0|0:0,0:0:0:0:
76,215,80827,1,0,0:0:0:0:
139,262,80977,2,0,L|145:341,1,70,8|0,0:0|0:0,0:0:0:0:
220,324,81277,2,0,L|214:245,1,70,8|0,0:0|0:0,0:0:0:0:
259,191,81577,6,0,B|323:186|323:186|335:191|335:191|398:186,1,140,14|8,0:0|0:0,0:0:0:0:
470,213,82027,1,0,0:0:0:0:
498,142,82177,1,8,0:0:0:0:
498,142,82327,1,8,0:0:0:0:
426,112,82477,2,0,L|430:43,1,70,8|0,0:0|0:0,0:0:0:0:
360,13,82777,5,6,0:3:0:0:
220,24,83077,1,6,0:3:0:0:
80,36,83377,2,0,L|88:115,2,70,6|6|6,0:3|0:3|0:3,0:0:0:0:
43,172,83977,5,6,0:3:0:0:
182,182,84277,1,6,0:3:0:0:
321,192,84577,1,6,0:3:0:0:
460,202,84877,1,6,0:3:0:0:
448,341,85177,6,0,L|302:354,1,140,14|8,0:0|0:0,0:0:0:0:
266,289,85627,1,0,0:0:0:0:
188,303,85777,2,0,P|190:268|206:237,1,70,8|0,0:0|0:0,0:0:0:0:
262,184,86077,2,0,P|292:170|342:174,1,70,8|0,0:0|0:0,0:0:0:0:
402,188,86377,6,0,B|407:124|407:124|402:112|402:112|407:49,1,140,14|8,0:0|0:0,0:0:0:0:
341,13,86827,1,0,0:0:0:0:
304,80,86977,1,8,0:0:0:0:
304,80,87127,1,8,0:0:0:0:
237,45,87277,2,0,L|166:39,1,70,10|0,0:0|0:0,0:0:0:0:
98,76,87577,6,0,P|87:143|136:196,1,140,14|0,0:0|0:0,0:0:0:0:
205,213,88027,2,0,L|356:201,1,140,2|0,0:0|0:0,0:0:0:0:
405,250,88477,2,0,P|407:285|395:317,1,70,2|0,0:0|0:0,0:0:0:0:
330,361,88777,6,0,L|251:356,1,70,14|0,0:0|0:0,0:0:0:0:
202,303,89077,2,0,L|123:308,1,70,14|0,0:0|0:0,0:0:0:0:
82,367,89377,1,14,0:0:0:0:
21,319,89527,1,10,0:0:0:0:
71,260,89677,2,0,L|64:181,1,70,14|10,0:0|0:0,0:0:0:0:
8,132,89977,6,0,P|44:75|121:70,1,140,14|8,0:0|0:0,0:0:0:0:
145,134,90427,1,0,0:0:0:0:
211,94,90577,2,0,L|282:91,1,70,8|0,0:0|0:0,0:0:0:0:
283,168,90877,2,0,L|213:170,1,70,8|0,0:0|0:0,0:0:0:0:
183,247,91177,6,0,B|247:243|247:243|258:248|258:248|325:244,1,140,14|8,0:0|0:0,0:0:0:0:
391,276,91627,1,0,0:0:0:0:
326,321,91777,1,8,0:0:0:0:
326,321,91927,1,8,0:0:0:0:
397,353,92077,2,0,L|468:357,1,70,8|0,0:0|0:0,0:0:0:0:
512,293,92377,5,6,0:3:0:0:
495,154,92677,1,6,0:3:0:0:
355,165,92977,2,0,L|361:243,2,70,6|6|6,0:3|0:3|0:3,0:0:0:0:
240,84,93577,5,6,0:3:0:0:
101,66,93877,1,6,0:3:0:0:
85,205,94177,1,6,0:3:0:0:
224,223,94477,1,6,0:3:0:0:
206,361,94777,6,0,P|198:303|111:271,1,140,14|8,0:0|0:0,0:0:0:0:
56,275,95227,1,0,0:0:0:0:
85,205,95377,2,0,P|116:192|156:194,1,70,8|8,0:0|0:0,0:0:0:0:
174,120,95677,2,0,P|205:137|224:167,1,70,8|0,0:0|0:0,0:0:0:0:
253,236,95977,6,0,L|398:227,1,140,14|8,0:0|0:0,0:0:0:0:
443,287,96427,1,0,0:0:0:0:
502,239,96577,1,12,0:0:0:0:
502,239,96727,1,8,0:0:0:0:
454,179,96877,2,0,L|460:95,1,70,10|0,0:0|0:0,0:0:0:0:
388,78,97177,6,0,P|347:17|275:20,1,140,14|14,0:0|0:0,0:0:0:0:
226,66,97627,2,0,B|222:130|222:130|227:141|227:141|223:208,1,140,2|0,0:0|0:0,0:0:0:0:
283,253,98077,2,0,P|256:275|222:281,1,70,14|0,0:0|0:0,0:0:0:0:
154,242,98377,6,2,L|108:240,7,35,2|0|0|0|0|0|0|0,0:1|0:0|0:0|0:0|0:0|0:0|0:0|0:0,0:1:0:0:
93,249,98977,2,2,L|47:247,7,35,2|0|0|0|0|0|0|0,0:1|0:0|0:0|0:0|0:0|0:0|0:0|0:0,0:0:0:0:
39,236,99577,6,2,B|257:199|329:2|329:2|256:199|391:380|391:380|256:199|109:242,1,1120,2|0,0:0|2:0,3:0:0:0:
58,247,107977,6,0,L|93:249,7,35,8|8|8|8|8|8|8|8,0:2|0:2|0:2|0:2|0:2|0:2|0:2|0:2,0:2:0:0:
119,240,108577,6,0,L|151:242,8,17.5
266,338,109177,6,0,P|342:341|389:293,1,140,12|10,0:0|0:0,0:0:0:0:
348,232,109627,1,0,0:0:0:0:
409,181,109777,2,0,L|417:108,1,70,10|0,0:0|0:0,0:0:0:0:
366,54,110077,1,10,0:0:0:0:
291,65,110227,2,0,L|299:138,1,70,2|8,0:0|0:0,0:0:0:0:
258,198,110527,1,2,0:0:0:0:
184,188,110677,2,0,L|192:115,1,70,10|0,0:0|0:0,0:0:0:0:
151,54,110977,6,0,P|126:78|118:112,1,70,8|2,0:0|0:0,0:0:0:0:
44,102,111277,2,0,P|45:136|65:165,1,70,10|10,0:0|0:0,0:0:0:0:
113,226,111577,6,0,L|123:373,1,140,12|10,0:0|0:0,0:0:0:0:
197,384,112027,1,0,0:0:0:0:
247,323,112177,2,0,P|251:285|238:248,1,70,10|0,0:0|0:0,0:0:0:0:
187,201,112477,1,10,0:0:0:0:
219,133,112627,2,0,L|308:142,1,70,2|8,0:0|0:0,0:0:0:0:
355,178,112927,1,2,0:0:0:0:
427,149,113077,2,0,P|431:187|418:224,1,70,10|0,0:0|0:0,0:0:0:0:
389,284,113377,6,0,L|300:293,1,70,10|10,0:0|0:0,0:0:0:0:
330,367,113677,2,0,L|241:376,1,70,14|10,0:0|0:0,0:0:0:0:
198,327,113977,6,0,L|44:316,1,140,12|10,0:0|0:0,0:0:0:0:
3,261,114427,1,0,0:0:0:0:
46,198,114577,2,0,L|122:192,1,70,10|0,0:0|0:0,0:0:0:0:
168,249,114877,1,10,0:0:0:0:
236,215,115027,2,0,L|230:139,1,70,2|8,0:0|0:0,0:0:0:0:
284,85,115327,1,2,0:0:0:0:
253,17,115477,2,0,L|177:23,1,70,10|0,0:0|0:0,0:0:0:0:
110,0,115777,6,0,P|107:36|127:76,1,70,10|2,0:0|0:0,0:0:0:0:
189,98,116077,2,0,L|182:173,1,70,10|10,0:0|0:0,0:0:0:0:
142,237,116377,6,0,P|68:242|24:188,1,140,12|10,0:0|0:0,0:0:0:0:
83,143,116827,1,0,0:0:0:0:
49,71,116977,2,0,L|119:66,1,70,10|0,0:0|0:0,0:0:0:0:
189,98,117277,1,10,0:0:0:0:
262,76,117427,2,0,P|263:114|244:149,1,70,2|8,0:0|0:0,0:0:0:0:
179,172,117727,1,2,0:0:0:0:
240,218,117877,2,0,L|314:212,1,70,10|0,0:0|0:0,0:0:0:0:
351,149,118177,6,0,P|376:173|384:207,1,70,10|2,0:0|0:0,0:0:0:0:
458,197,118477,2,0,P|457:231|437:260,1,70,8|8,0:0|0:0,0:0:0:0:
377,309,118777,5,4,0:0:0:0:
372,297,120577,5,6,1:2:0:0:
252,368,120877,2,0,P|191:364|122:364,1,112,2|8,1:2|1:2,0:2:0:0:
87,306,121327,2,0,P|90:245|90:176,1,112,2|0,0:2|0:2,0:2:0:0:
97,189,121702,1,0,0:0:0:0:
103,184,121777,2,0,P|164:188|233:188,1,112,2|2,0:2|1:2,0:0:0:0:
254,256,122227,2,0,P|278:256|312:259,1,56,2|8,0:0|0:0,0:0:0:0:
371,207,122527,1,2,0:2:0:0:
371,207,122677,2,0,P|371:183|374:149,1,56,2|0,0:2|0:0,0:0:0:0:
376,77,122977,6,0,P|320:76|264:72,1,112,2|2,1:2|0:2,0:2:0:0:
114,65,123577,1,10,1:2:0:0:
114,65,123727,2,0,P|113:120|110:176,1,112,2|2,0:2|0:2,0:2:0:0:
117,182,124102,1,2,0:2:0:0:
123,189,124177,2,0,P|147:189|181:192,1,56,2|0,0:2|0:0,0:0:0:0:
241,143,124477,1,0,1:2:0:0:
308,180,124627,2,0,P|304:235|303:291,1,112,0|0,1:0|0:0,0:0:0:0:
298,368,125077,2,0,P|270:365|242:365,1,56,2|2,0:2|0:2,0:0:0:0:
176,328,125377,5,2,1:2:0:0:
21,331,125677,2,0,P|19:275|16:219,1,112,2|8,0:2|1:2,0:2:0:0:
68,158,126127,2,0,P|123:156|179:153,1,112,2|2,0:2|0:2,0:2:0:0:
186,159,126502,1,2,0:2:0:0:
192,166,126577,2,0,P|193:195|195:224,2,56,2|0|2,0:2|0:2|1:2,0:0:0:0:
268,184,127027,2,0,P|267:161|265:126,2,56,2|8|2,0:2|1:2|0:2,0:0:0:0:
342,156,127477,2,0,P|343:185|344:211,1,56,2|0,0:2|0:0,0:0:0:0:
346,288,127777,6,0,P|401:284|457:282,1,112,2|2,1:2|0:2,0:0:0:0:
450,94,128377,1,10,1:2:0:0:
450,94,128527,2,0,P|422:96|394:96,1,56,2|0,0:2|1:0,0:2:0:0:
342,156,128827,1,2,1:2:0:0:
335,163,128902,1,2,0:2:0:0:
329,171,128977,2,0,P|301:171|273:173,1,56,2|0,1:2|0:0,0:0:0:0:
211,131,129277,1,10,1:2:0:0:
37,141,129577,6,0,P|39:169|39:197,1,56,8|10,1:2|1:2,0:0:0:0:
116,196,129877,2,0,P|116:223|118:251,1,56,10|10,1:2|1:2,0:0:0:0:
78,317,130177,5,2,1:2:0:0:
221,320,130477,2,0,P|223:264|225:208,1,112,2|10,0:2|1:2,0:0:0:0:
303,206,130927,2,0,P|304:150|307:94,1,112,2|2,0:2|0:2,0:2:0:0:
314,88,131302,1,2,0:2:0:0:
321,82,131377,6,0,P|376:84|432:86,1,112,2|2,0:2|1:2,0:0:0:0:
485,145,131827,2,0,P|482:172|482:200,1,56,0|8,0:0|1:2,0:0:0:0:
422,253,132127,1,0,0:0:0:0:
422,253,132277,2,0,P|394:250|366:250,1,56,2|0,0:2|0:0,0:0:0:0:
303,206,132577,6,0,P|247:205|191:202,1,112,2|2,1:2|0:2,0:2:0:0:
184,347,133177,1,10,1:2:0:0:
184,347,133327,2,0,P|128:344|72:343,1,112,2|2,0:2|0:2,0:2:0:0:
66,336,133702,1,2,0:2:0:0:
61,330,133776,2,0,P|63:302|63:274,1,56,2|0,0:2|0:0,0:0:0:0:
20,212,134077,1,0,1:2:0:0:
89,175,134227,2,0,P|90:119|93:63,1,112,0|0,1:0|0:0,0:0:0:0:
167,97,134677,2,0,P|166:124|164:152,1,56,2|2,0:2|0:2,0:0:0:0:
160,232,134977,5,2,1:2:0:0:
310,226,135277,2,0,P|312:282|314:338,1,112,2|8,0:2|1:2,0:2:0:0:
394,368,135727,2,0,P|390:312|388:256,1,112,2|2,0:2|0:2,0:2:0:0:
395,250,136102,1,2,0:2:0:0:
402,244,136177,2,0,P|431:243|460:241,2,56,2|0|2,0:2|0:2|1:2,0:0:0:0:
425,169,136627,2,0,P|399:170|367:172,2,56,2|8|2,0:2|1:2|0:2,0:0:0:0:
395,94,137077,2,0,P|425:94|453:91,1,56,2|0,0:2|0:0,0:0:0:0:
444,17,137377,6,0,P|420:17|386:20,1,56,0|0,1:3|1:3,0:0:0:0:
312,23,137677,2,0,P|284:25|256:25,1,56,0|0,1:3|1:3,0:0:0:0:
181,28,137977,2,0,L|183:66,6,28,0|0|0|0|0|0|0,1:3|1:3|1:3|1:3|1:3|1:3|1:3,0:0:0:0:
106,31,138577,6,0,L|107:47,4,14,0|0|0|0|0,1:3|1:3|1:3|1:3|1:3,1:3:0:0:
31,35,138877,2,0,L|32:51,4,14,8|0|0|0|0,1:2|1:3|1:3|1:3|1:3,0:0:0:0:
38,125,139177,6,0,P|40:153|41:182,1,56,8|8,0:2|0:2,0:3:0:0:
119,176,139477,2,0,P|119:203|121:231,1,56,8|8,0:2|0:2,0:0:0:0:
85,298,139777,5,4,1:2:0:0:
87,346,149377,5,2,1:2:0:0:
216,315,149677,2,0,L|221:212,1,97.9999970092774,10|2,1:2|1:2,0:0:0:0:
145,238,150127,2,0,L|146:180,1,48.9999985046387,0|10,0:2|1:2,0:0:0:0:
184,123,150427,1,2,1:2:0:0:
124,78,150577,6,0,P|158:52|211:54,1,97.9999970092774,10|8,1:2|1:2,0:2:0:0:
260,114,151027,2,0,P|294:140|347:138,1,97.9999970092774,10|0,1:2|1:2,0:2:0:0:
432,114,151477,6,2,B|419:128|419:128|412:233|412:233|421:248,1,140,10|2,1:1|1:2,0:1:0:0:
404,382,152077,6,0,L|293:376,1,97.9999970092774,10|2,1:2|1:2,0:2:0:0:
250,323,152527,2,0,L|245:266,2,48.9999985046387,2|10|8,0:2|1:2|1:2,0:0:0:0:
178,351,152977,5,10,1:2:0:0:
178,351,153127,1,8,1:2:0:0:
171,221,153427,1,10,1:2:0:0:
162,91,153727,1,10,1:2:0:0:
162,91,153877,6,2,B|60:83|60:83|78:92|87:108,1,140,10|2,1:1|1:2,0:1:0:0:
216,150,154477,6,0,L|317:143,1,97.9999970092774,10|2,1:2|1:2,0:2:0:0:
381,110,154927,2,0,P|387:133|386:157,1,48.9999985046387,2|8,0:2|1:2,0:0:0:0:
334,216,155227,1,10,1:2:0:0:
348,290,155377,6,0,P|387:317|435:313,1,97.9999970092774,10|10,1:2|1:2,0:2:0:0:
489,257,155827,2,0,P|491:208|461:172,1,97.9999970092774,10|8,1:2|1:2,0:2:0:0:
385,158,156277,6,2,B|372:147|372:147|365:42|365:42|377:27,1,140,10|8,1:1|1:2,0:1:0:0:
512,21,156877,1,8,1:2:0:0:
376,28,157177,1,8,1:2:0:0:
236,33,157477,2,0,L|240:93,1,48.9999985046387,8|8,1:2|1:2,0:0:0:0:
246,157,157777,5,8,1:2:0:0:
246,157,157927,2,0,L|127:148,1,97.9999970092774,0|0,1:0|1:0,0:0:0:0:
23,64,158527,1,0,1:0:0:0:
23,64,158677,2,0,L|27:124,1,48.9999985046387,2|2,1:0|1:0,0:0:0:0:
70,178,158977,6,0,L|76:259,1,70,14|0,0:0|0:0,0:0:0:0:
9,291,159277,2,0,P|54:352|125:354,1,140,10|10,0:0|0:0,0:0:0:0:
162,297,159727,1,2,0:0:0:0:
237,319,159877,2,0,P|264:298|299:293,1,70,8|2,0:0|0:0,0:0:0:0:
305,286,160102,1,0,0:0:0:0:
311,279,160177,6,0,L|324:120,1,140,10|10,0:0|0:0,0:0:0:0:
386,92,160627,2,0,P|348:34|281:23,1,140,2|10,0:0|0:0,0:0:0:0:
260,94,161077,1,10,0:0:0:0:
460,75,161377,6,0,P|461:110|446:142,1,70,10|0,0:0|0:0,0:0:0:0:
374,168,161677,2,0,B|379:232|379:232|374:244|374:244|379:307,1,140,10|10,0:0|0:0,0:0:0:0:
421,372,162127,2,0,B|391:384|391:384|278:373,1,140,2|2,0:0|0:0,0:0:0:0:
277,365,162502,1,0,0:0:0:0:
271,357,162577,6,0,L|275:271,1,70,10|0,0:0|0:0,0:0:0:0:
203,258,162877,1,10,0:0:0:0:
237,189,163027,2,0,B|232:118,1,70,0|10,0:0|0:0,0:0:0:0:
179,63,163327,1,10,0:0:0:0:
179,63,163477,2,0,P|158:98|158:139,1,70,10|2,0:0|0:0,0:0:0:0:
82,156,163777,6,0,P|47:138|2:141,1,70,14|0,0:0|0:0,0:0:0:0:
29,213,164077,2,0,B|34:277|34:277|29:289|29:289|34:352,1,140,10|10,0:0|0:0,0:0:0:0:
101,384,164527,2,0,L|180:376,1,70,2|8,0:0|0:0,0:0:0:0:
229,326,164827,1,2,0:0:0:0:
229,326,164902,1,0,0:0:0:0:
229,326,164977,6,0,L|307:335,2,70,10|0|10,0:0|0:0|0:0,0:0:0:0:
187,261,165427,2,0,L|117:267,2,70,2|8|10,0:0|0:0|0:0,0:0:0:0:
235,201,165877,1,10,0:0:0:0:
453,175,166177,6,0,P|458:139|446:103,1,70,10|0,0:0|0:0,0:0:0:0:
449,31,166477,2,0,P|381:34|337:96,1,140,10|10,0:0|0:0,0:0:0:0:
253,43,166927,1,2,0:0:0:0:
258,51,167002,1,0,0:0:0:0:
263,59,167077,2,0,L|269:140,1,70,8|2,0:0|0:0,0:0:0:0:
273,137,167302,1,0,0:0:0:0:
278,145,167377,6,0,L|284:226,2,70,14|8|10,0:0|0:0|0:0,0:0:0:0:
355,171,167827,1,10,0:0:0:0:
392,239,167977,2,0,L|385:321,1,70,12|8,0:0|0:0,0:0:0:0:
319,348,168277,2,0,L|322:383,3,35,10|0|10|0,0:0|0:0|0:0|0:0,0:0:0:0:
304,334,168577,6,0,L|229:327,1,70,14|0,0:0|0:0,0:0:0:0:
213,254,168877,2,0,L|71:260,1,140,10|10,0:0|0:0,0:0:0:0:
6,302,169327,1,2,0:0:0:0:
2,227,169477,2,0,L|11:149,1,70,8|2,0:0|0:0,0:0:0:0:
7,149,169702,1,0,0:0:0:0:
3,141,169777,6,0,P|45:87|113:85,1,140,10|10,0:0|0:0,0:0:0:0:
158,146,170227,2,0,B|221:141|221:141|233:146|233:146|297:141,1,140,2|10,0:0|0:0,0:0:0:0:
346,83,170677,1,10,0:0:0:0:
474,146,170977,6,0,P|459:178|431:199,1,70,14|0,1:0|0:0,0:0:0:0:
368,157,171277,2,0,P|359:221|410:271,1,140,10|10,0:0|0:0,0:0:0:0:
404,349,171727,2,0,L|258:339,1,140,2|2,0:0|0:0,0:0:0:0:
258,332,172102,1,0,0:0:0:0:
252,325,172177,6,0,L|167:319,1,70,10|0,0:0|0:0,0:0:0:0:
115,282,172477,1,10,0:0:0:0:
138,211,172627,2,0,L|207:206,1,70,2|8,0:0|0:0,0:0:0:0:
268,251,172927,1,8,0:0:0:0:
268,251,173077,2,0,P|281:222|276:171,1,70,10|2,0:0|0:0,0:0:0:0:
222,132,173377,6,0,L|217:59,1,70,14|0,0:0|0:0,0:0:0:0:
164,4,173677,2,0,P|96:6|54:60,1,140,10|10,0:0|0:0,0:0:0:0:
81,132,174127,2,0,P|118:135|144:154,1,70,2|8,0:0|0:0,0:0:0:0:
133,229,174427,1,2,0:0:0:0:
130,236,174502,1,0,0:0:0:0:
127,244,174577,6,0,L|132:313,2,70,14|0|10,0:0|0:0|0:0,0:0:0:0:
206,267,175027,2,0,L|212:191,2,70,2|8|10,0:0|0:0|0:0,0:0:0:0:
252,331,175477,1,10,0:0:0:0:
275,114,175777,6,0,P|291:144|291:179,1,70,14|0,0:0|0:0,0:0:0:0:
369,174,176077,2,0,P|364:208|278:259,1,140,10|14,0:0|0:0,0:0:0:0:
252,331,176527,1,2,0:0:0:0:
243,334,176602,1,0,0:0:0:0:
235,337,176677,2,0,L|154:331,1,70,10|2,0:0|0:0,0:0:0:0:
157,326,176902,1,0,0:0:0:0:
149,321,176977,6,0,L|153:228,1,70,2|2,3:2|3:2,0:0:0:0:
76,268,177277,2,0,L|70:186,1,70,2|2,3:2|3:2,0:0:0:0:
140,163,177577,2,0,L|144:70,1,70,2|2,3:2|3:2,0:0:0:0:
67,110,177877,2,0,L|61:28,1,70,2|2,3:2|3:2,0:0:0:0:
128,4,178177,5,4,3:1:0:0:
