osu file format v14

[General]
AudioFilename: audio.mp3
AudioLeadIn: 0
PreviewTime: 80320
Countdown: 0
SampleSet: Normal
StackLeniency: 0.7
Mode: 0
LetterboxInBreaks: 0
WidescreenStoryboard: 1

[Editor]
DistanceSpacing: 0.8
BeatDivisor: 2
GridSize: 16
TimelineZoom: 8

[Metadata]
Title:Infinite of nuclear fusion ~Mugen no Taiyou Shinkou~
TitleUnicode:Infinite of nuclear fusion ~無限の太陽信仰~
Artist:AU
ArtistUnicode:あう
Creator:Luscent
Version:Lunatic
Source:東方地霊殿 ~ Subterranean Animism.
Tags:東方Project Touhou Chireiden 11 th11 霊知の太陽信仰 Reichi no Taiyou Shinkou Solar Sect of Mystic Wisdom ~ Nuclear Fusion Cellina jieusieu 404 aimnotfound electronic instrumental video game speedcore Team Shanghai Alice ZUN
BeatmapID:2952471
BeatmapSetID:1380266

[Difficulty]
HPDrainRate:5
CircleSize:4
OverallDifficulty:8
ApproachRate:9
SliderMultiplier:1.6
SliderTickRate:1

[Events]
//Background and Video events
0,0,"bg.jpg",0,0
//Break Periods
2,70977,78577
2,99777,107377
2,139977,148777
//Storyboard Layer 0 (Background)
//Storyboard Layer 1 (Fail)
//Storyboard Layer 2 (Pass)
//Storyboard Layer 3 (Foreground)
//Storyboard Layer 4 (Overlay)
//Storyboard Sound Samples

[TimingPoints]
1177,300,4,2,1,40,1,0
9577,-100,4,1,1,40,0,0
10477,-200,4,1,1,40,0,0
10777,-100,4,1,1,60,0,0
12052,-100,4,1,1,60,0,0
12127,-100,4,1,1,60,0,0
12352,-100,4,1,1,60,0,0
12427,-100,4,1,1,60,0,0
21652,-100,4,1,1,60,0,0
21727,-100,4,1,1,60,0,0
21952,-100,4,1,1,60,0,0
22027,-100,4,1,1,60,0,0
29977,-200,4,1,2,50,0,0
38377,-100,4,1,1,50,0,0
39577,-100,4,1,1,60,0,0
47977,-100,4,1,1,80,0,0
49177,-133.333333333333,4,1,1,40,0,0
49252,-133.333333333333,4,1,1,5,0,0
50377,-100,4,1,1,30,0,0
50452,-100,4,1,1,32,0,0
50527,-100,4,1,1,34,0,0
50602,-100,4,1,1,36,0,0
50677,-100,4,1,1,38,0,0
50752,-100,4,1,1,40,0,0
50827,-100,4,1,1,42,0,0
50902,-100,4,1,1,44,0,0
50977,-100,4,1,1,46,0,0
51052,-100,4,1,1,48,0,0
51127,-100,4,1,1,50,0,0
51202,-100,4,1,1,52,0,0
51277,-100,4,1,1,54,0,0
51352,-100,4,1,1,56,0,0
51427,-100,4,1,1,58,0,0
51502,-100,4,1,1,60,0,0
70177,-100,4,1,1,20,0,0
70777,-100,4,2,1,40,0,0
80377,-90.9090909090909,4,1,1,75,0,0
99577,-90.9090909090909,4,1,1,65,0,0
108877,-66.6666666666667,4,1,1,65,0,0
109177,-100,4,1,1,65,0,0
118777,300,6,1,1,40,1,0
120577,300,4,2,0,40,1,0
120577,-133.333333333333,4,2,0,40,0,0
128677,-133.333333333333,4,2,0,40,0,0
128827,-133.333333333333,4,2,0,40,0,0
138577,-133.333333333333,4,2,1,40,0,0
139177,-133.333333333333,4,2,1,20,0,0
139720,-133.333333333333,4,2,1,20,0,0
139777,-133.333333333333,4,2,1,20,0,0
149077,-100,4,2,1,20,0,0
149377,-100,4,2,0,60,0,0
151477,-100,4,2,1,60,0,0
151777,-100,4,2,0,60,0,0
153877,-100,4,2,1,60,0,0
154177,-100,4,2,0,60,0,0
156277,-100,4,2,1,60,0,0
156577,-100,4,2,0,60,0,0
158977,-90.9090909090909,4,1,1,80,0,0
176977,-133.333333333333,4,1,1,80,0,0
177277,-153.846153846154,4,1,1,80,0,0
177577,-181.818181818182,4,1,1,80,0,0
177877,-222.222222222222,4,1,1,80,0,0

[Colours]
Combo1 : 17,254,176
Combo2 : 173,255,95
Combo3 : 255,88,100
Combo4 : 255,94,55

[HitObjects]
53,73,1177,6,0,P|52:120|69:171,1,80,4|0,1:0|0:0,0:0:0:0:
129,201,1477,2,0,P|188:195|231:189,1,80,0|0,1:0|0:0,0:0:0:0:
321,258,1777,2,0,P|292:173|301:100,1,160,0|0,1:0|1:0,0:0:0:0:
378,52,2227,1,0,0:0:0:0:
460,95,2377,6,0,P|469:133|468:173,1,80,0|0,1:0|0:0,0:0:0:0:
394,230,2677,2,0,P|352:227|311:224,1,80,0|0,1:0|0:0,0:0:0:0:
232,174,2977,2,0,P|219:222|221:266,1,80,0|0,1:0|0:0,0:0:0:0:
260,336,3277,1,0,1:0:0:0:
260,336,3427,1,0,1:0:0:0:
11,292,3577,6,0,P|50:286|86:268,1,80,0|0,1:0|0:0,0:0:0:0:
145,210,3877,1,0,1:0:0:0:
145,210,4027,1,0,0:0:0:0:
0,59,4177,2,0,P|-3:111|14:158,1,80,0|0,1:0|0:0,0:0:0:0:
34,213,4477,1,0,1:0:0:0:
34,213,4627,1,0,0:0:0:0:
163,128,4777,6,0,P|159:80|156:35,1,80,0|0,1:0|0:0,0:0:0:0:
286,168,5077,2,0,P|282:120|279:75,1,80,0|0,1:0|0:0,0:0:0:0:
381,126,5377,1,0,1:0:0:0:
398,32,5527,1,0,1:0:0:0:
483,118,5677,1,0,1:0:0:0:
507,24,5827,1,0,1:0:0:0:
498,140,5977,6,0,P|493:186|492:239,1,80,4|0,1:0|0:0,0:0:0:0:
417,272,6277,2,0,P|427:310|434:349,1,80,0|0,1:0|0:0,0:0:0:0:
323,259,6577,2,0,P|307:301|295:350,1,80,0|0,1:0|0:0,0:0:0:0:
246,199,6877,2,0,P|215:221|175:254,1,80,0|0,1:0|0:0,0:0:0:0:
43,300,7177,6,0,P|29:250|16:212,1,80,0|0,1:0|0:0,0:0:0:0:
124,188,7477,2,0,P|92:169|56:144,1,80,0|0,1:0|0:0,0:0:0:0:
193,45,7777,2,0,P|153:60|110:70,1,80,0|0,1:0|0:0,0:0:0:0:
36,24,8077,1,0,1:0:0:0:
36,24,8227,1,0,1:0:0:0:
278,98,8377,6,0,L|285:12,2,80,0|0|0,1:0|0:0|1:0,0:0:0:0:
209,191,8827,2,0,L|223:280,2,80,0|0|0,0:0|1:0|0:0,0:0:0:0:
281,352,9277,1,0,1:0:0:0:
281,352,9427,1,0,0:0:0:0:
450,179,9577,5,4,1:3:0:0:
72,196,9877,1,4,1:3:0:0:
450,179,10177,1,4,1:3:0:0:
362,208,10477,6,2,P|362:165|363:131,1,60,0|0,0:3|2:0,0:0:0:0:
342,106,10777,6,0,P|296:112|255:130,1,80,6|0,0:0|0:0,0:0:0:0:
196,186,11077,1,2,0:0:0:0:
18,85,11227,2,0,P|14:134|19:180,1,80,0|2,0:0|0:0,0:0:0:0:
89,198,11527,1,0,0:0:0:0:
189,108,11677,1,2,0:0:0:0:
94,42,11827,1,2,0:0:0:0:
158,259,11977,6,0,L|107:263,2,40,0|0|2,0:0|0:0|0:0,0:0:0:0:
341,210,12277,2,0,L|392:214,2,40,2|0|0,0:0|0:0|0:0,0:0:0:0:
265,369,12577,2,0,P|260:313|261:262,1,80,2|0,0:0|0:0,0:0:0:0:
461,147,12877,1,2,0:0:0:0:
491,172,12952,1,0,0:0:0:0:
506,208,13027,1,2,0:0:0:0:
512,247,13102,1,0,0:0:0:0:
506,286,13177,6,0,P|459:291|402:288,1,80,6|0,0:0|0:0,0:0:0:0:
263,91,13477,1,2,0:0:0:0:
190,148,13627,2,0,P|194:191|199:237,1,80,0|2,0:0|0:0,0:0:0:0:
331,296,13927,1,0,0:0:0:0:
422,217,14077,2,0,P|421:167|417:116,1,80,2|2,0:0|0:0,0:0:0:0:
489,39,14377,6,0,L|486:-11,2,40,0|0|2,0:0|0:0|0:0,0:0:0:0:
335,98,14677,2,0,L|326:155,2,40,2|0|0,0:0|0:0|0:0,0:0:0:0:
241,66,14977,6,0,P|237:41|235:18,1,40,2|0,0:0|0:0,0:0:0:0:
168,98,15127,2,0,P|172:123|174:146,1,40,2|0,0:0|0:0,0:0:0:0:
93,66,15277,2,0,P|89:41|87:18,1,40,2|0,0:0|0:0,0:0:0:0:
20,98,15427,2,0,P|24:123|26:146,1,40,2|0,0:0|0:0,0:0:0:0:
0,239,15577,6,0,P|50:243|93:242,1,80,6|0,0:0|0:0,0:0:0:0:
248,340,15877,1,2,0:0:0:0:
320,272,16027,2,0,P|326:226|319:177,1,80,0|2,0:0|0:0,0:0:0:0:
261,101,16327,1,0,0:0:0:0:
114,173,16477,2,0,P|163:180|205:183,1,80,2|2,0:0|0:0,0:0:0:0:
389,354,16777,6,0,L|447:367,2,40,0|0|2,0:0|0:0|0:0,0:0:0:0:
464,271,17077,2,0,L|508:268,2,40,2|0|0,0:0|0:0|0:0,0:0:0:0:
397,193,17377,2,0,P|397:149|400:99,1,80,2|2,0:0|0:0,0:0:0:0:
248,11,17677,5,2,0:0:0:0:
217,22,17752,1,0,0:0:0:0:
194,44,17827,1,0,0:0:0:0:
179,72,17902,1,0,0:0:0:0:
174,103,17977,2,0,P|171:147|175:191,1,80,6|0,0:0|0:0,0:0:0:0:
257,321,18277,1,2,0:0:0:0:
347,242,18427,2,0,P|303:232|266:228,1,80,0|2,0:0|0:0,0:0:0:0:
114,375,18727,1,0,0:0:0:0:
20,319,18877,2,0,P|14:272|15:229,1,80,2|2,0:0|0:0,0:0:0:0:
59,152,19177,6,0,P|56:125|56:98,1,40
164,209,19327,2,0,P|167:236|167:263,1,40,2|0,0:0|0:0,0:0:0:0:
251,149,19477,1,2,0:0:0:0:
256,117,19552,1,0,0:0:0:0:
260,85,19627,1,0,0:0:0:0:
253,53,19702,1,0,0:0:0:0:
241,23,19777,2,0,P|223:19|207:17,6,20,2|0|0|0|0|0|0,0:0|0:0|0:0|0:0|0:0|0:0|0:0,0:0:0:0:
336,50,20077,2,0,L|386:43,3,40,2|0|2|0,0:0|0:0|0:0|0:0,0:0:0:0:
303,76,20377,6,0,P|311:119|312:168,1,80,6|0,0:0|0:0,0:0:0:0:
371,275,20677,1,2,0:0:0:0:
459,138,20827,1,0,0:0:0:0:
226,219,20977,2,0,P|276:230|313:245,1,80,2|0,0:0|0:0,0:0:0:0:
478,367,21277,1,2,0:0:0:0:
512,279,21427,2,0,P|472:286|436:303,1,80,2|0,0:0|0:0,0:0:0:0:
427,311,21652,1,0,0:0:0:0:
418,319,21727,1,2,0:0:0:0:
312,345,21877,2,0,L|317:387,2,40,2|0|0,0:0|0:0|0:0,0:0:0:0:
199,320,22177,2,0,P|159:327|121:338,1,80,2|0,0:0|0:0,0:0:0:0:
11,281,22477,5,2,0:0:0:0:
0,250,22552,1,0,0:0:0:0:
0,218,22627,1,2,0:0:0:0:
3,186,22702,1,0,0:0:0:0:
13,155,22777,2,0,P|27:107|53:67,1,80,6|0,0:0|0:0,0:0:0:0:
274,159,23077,1,2,0:0:0:0:
93,192,23227,1,0,0:0:0:0:
286,179,23377,2,0,P|296:216|300:276,1,80,2|0,0:0|0:0,0:0:0:0:
123,106,23677,2,0,P|112:58|113:13,1,80,2|2,0:0|0:0,0:0:0:0:
242,20,23977,5,0,0:0:0:0:
242,20,24052,1,0,0:0:0:0:
242,20,24127,1,2,0:0:0:0:
359,60,24277,2,0,L|371:6,2,40,2|0|0,0:0|0:0|0:0,0:0:0:0:
496,4,24577,5,2,0:0:0:0:
502,27,24652,1,0,0:0:0:0:
505,50,24727,1,2,0:0:0:0:
502,73,24802,1,0,0:0:0:0:
495,96,24877,1,0,0:0:0:0:
483,117,24952,1,0,0:0:0:0:
473,139,25027,1,2,0:0:0:0:
469,162,25102,1,0,0:0:0:0:
468,185,25177,6,0,P|466:220|471:282,1,80,6|0,0:0|0:0,0:0:0:0:
477,355,25477,1,2,0:0:0:0:
308,236,25627,1,0,0:0:0:0:
241,326,25777,2,0,P|295:319|349:318,1,80,2|0,0:0|0:0,0:0:0:0:
144,158,26077,1,2,0:0:0:0:
76,216,26227,2,0,P|72:261|85:313,1,80,2|0,0:0|0:0,0:0:0:0:
249,335,26527,1,2,0:0:0:0:
308,236,26677,2,0,P|309:194|297:135,1,80,2|0,0:0|0:0,0:0:0:0:
76,53,26977,5,2,0:0:0:0:
80,57,27277,1,2,0:0:0:0:
111,51,27352,1,0,0:0:0:0:
142,45,27427,1,0,0:0:0:0:
173,40,27502,1,0,0:0:0:0:
204,35,27577,6,0,P|245:38|292:45,1,80,6|0,0:0|0:0,0:0:0:0:
476,132,27877,1,2,0:0:0:0:
476,132,28027,1,0,0:0:0:0:
383,4,28177,2,0,P|376:53|381:106,1,80,2|2,0:0|0:0,0:0:0:0:
346,243,28477,2,0,P|337:196|315:149,1,80,2|2,0:0|0:0,0:0:0:0:
238,129,28777,6,0,P|196:121|112:130,1,120
88,154,29077,2,0,L|78:95,3,40
45,189,29377,6,0,L|40:219,6,20
0,154,29677,6,0,L|7:109,4,40,0|0|0|0|4,0:0|0:0|0:0|0:0|0:0,0:0:0:0:
26,326,30277,5,0,0:0:0:0:
26,326,30427,1,0,0:0:0:0:
26,326,30577,2,0,L|117:317,1,80,4|0,0:0|0:0,0:0:0:0:
225,369,31177,2,0,L|236:270,1,80,4|0,0:0|0:0,0:0:0:0:
329,318,31627,2,0,L|340:219,1,80,4|0,0:0|0:0,0:0:0:0:
435,266,32077,2,0,L|442:199,1,40,4|0,0:0|0:0,0:0:0:0:
510,161,32377,5,4,0:0:0:0:
97,193,32977,2,0,L|80:195,8,10,4|0|0|0|0|0|0|0|0,0:0|0:0|0:0|0:0|0:0|0:0|0:0|0:0|0:0,0:0:0:0:
162,132,33577,6,0,L|170:49,1,80,4|0,0:0|0:0,0:0:0:0:
238,269,34027,2,0,L|246:186,1,80,4|0,0:0|0:0,0:0:0:0:
319,352,34477,2,0,L|325:300,1,40,4|0,0:0|0:0,0:0:0:0:
400,258,34777,5,4,0:0:0:0:
247,0,35377,2,0,L|162:7,2,80,4|4|4,0:0|0:0|0:0,0:0:0:0:
339,143,36277,1,4,0:2:0:0:
339,143,36427,2,0,L|236:133,1,80,4|4,0:2|0:0,0:0:0:0:
20,223,37177,5,4,0:0:0:0:
492,161,37777,1,4,0:0:0:0:
228,50,38377,5,8,0:2:0:0:
241,78,38452,1,8,0:2:0:0:
263,100,38527,1,8,0:2:0:0:
293,108,38602,1,8,0:2:0:0:
325,108,38677,2,0,L|333:65,3,40,8|8|8|8,0:2|0:2|0:2|0:2,0:0:0:0:
367,141,38977,2,0,L|369:169,6,20,8|0|0|0|0|0|0,0:2|0:2|0:2|0:2|0:2|0:2|0:2,0:2:0:0:
408,114,39277,5,0,0:0:0:0:
190,268,39577,5,4,0:0:0:0:
101,309,39727,1,2,0:0:0:0:
19,263,39877,2,0,P|14:221|20:170,1,80,2|0,0:0|0:0,0:0:0:0:
169,135,40177,2,0,P|218:142|269:152,1,80,2|0,0:0|0:0,0:0:0:0:
154,16,40477,1,2,0:0:0:0:
22,28,40627,2,0,P|31:83|51:126,1,80,2|0,0:0|0:0,0:0:0:0:
115,200,40927,1,2,0:0:0:0:
248,148,41077,2,0,P|209:140|169:135,1,80,2|2,0:0|0:0,0:0:0:0:
342,75,41377,5,8,0:2:0:0:
342,75,41452,1,8,0:2:0:0:
342,75,41527,1,8,0:2:0:0:
342,75,41602,1,8,0:2:0:0:
342,75,41677,1,14,0:1:0:0:
416,344,41977,5,4,0:0:0:0:
500,280,42127,1,2,0:0:0:0:
329,224,42277,2,0,P|325:270|335:320,1,80,2|0,0:0|0:0,0:0:0:0:
512,275,42577,2,0,P|516:229|506:179,1,80,2|0,0:0|0:0,0:0:0:0:
412,182,42877,1,2,0:0:0:0:
260,139,43027,2,0,L|358:123,1,80,2|0,0:0|0:0,0:0:0:0:
512,71,43327,1,2,0:0:0:0:
421,11,43477,2,0,P|409:55|411:106,1,80,2|2,0:0|0:0,0:0:0:0:
314,36,43777,5,8,0:2:0:0:
314,36,43852,1,8,0:2:0:0:
314,36,43927,1,8,0:2:0:0:
314,36,44002,1,8,0:2:0:0:
314,36,44077,1,14,0:0:0:0:
89,195,44377,5,4,0:0:0:0:
15,116,44527,1,2,0:0:0:0:
78,31,44677,2,0,P|122:32|157:42,1,80,2|0,0:0|0:0,0:0:0:0:
305,202,44977,1,2,0:0:0:0:
314,117,45127,2,0,P|268:124|221:143,1,80,0|2,0:0|0:0,0:0:0:0:
141,287,45427,1,2,0:0:0:0:
229,340,45577,2,0,P|237:300|236:260,1,80,0|2,0:0|0:0,0:0:0:0:
49,246,45877,2,0,P|42:292|55:346,1,80,2|2,0:0|0:0,0:0:0:0:
160,188,46177,5,8,0:2:0:0:
160,188,46252,1,8,0:2:0:0:
160,188,46327,1,8,0:2:0:0:
160,188,46402,1,8,0:2:0:0:
160,188,46477,1,6,0:0:0:0:
0,26,46777,6,0,L|82:13,1,80,4|2,0:0|0:0,0:0:0:0:
149,91,47077,1,2,0:0:0:0:
149,91,47227,2,0,L|231:78,1,80,0|2,0:0|0:0,0:0:0:0:
310,28,47527,1,0,0:0:0:0:
310,28,47677,2,0,L|392:15,1,80,2|2,0:0|0:0,0:0:0:0:
486,9,47977,5,2,0:2:0:0:
486,24,48052,1,2,0:2:0:0:
486,39,48127,1,2,0:2:0:0:
486,54,48202,1,2,0:2:0:0:
486,69,48277,1,2,0:2:0:0:
486,84,48352,1,2,0:2:0:0:
486,99,48427,1,2,0:2:0:0:
486,114,48502,1,2,0:2:0:0:
486,129,48577,2,0,L|485:174,7,40,2|2|2|2|2|2|2|2,0:2|0:2|0:2|0:2|0:2|0:2|0:2|0:2,0:0:0:0:
512,190,49177,6,0,P|478:300|172:303,1,450.000017166138,6|0,0:0|2:2,0:0:0:0:
154,327,50377,6,0,P|150:299|150:273,7,40,0|0|0|0|0|0|0|0,0:2|0:2|0:2|0:2|0:2|0:2|0:2|0:2,0:0:0:0:
208,220,50977,2,0,P|214:191|216:162,3,40,0|0|0|0,0:2|0:2|0:2|0:2,0:0:0:0:
96,120,51277,2,0,P|90:91|88:62,3,40,0|0|0|0,0:2|0:2|0:2|0:2,0:0:0:0:
176,66,51577,5,2,0:0:0:0:
176,66,51877,1,2,0:0:0:0:
11,236,52177,1,2,0:0:0:0:
11,236,52327,2,0,P|57:232|113:227,1,80,2|0,0:0|0:0,0:0:0:0:
333,276,52627,1,2,0:0:0:0:
333,276,52702,1,0,0:0:0:0:
333,276,52777,2,0,P|339:224|328:167,1,80,2|0,0:0|0:0,0:0:0:0:
152,299,53077,1,2,0:0:0:0:
213,367,53227,2,0,L|307:357,1,80,2|0,0:0|0:0,0:0:0:0:
497,262,53527,1,2,0:0:0:0:
417,384,53677,1,2,0:0:0:0:
339,23,53977,5,2,0:0:0:0:
339,23,54277,1,2,0:0:0:0:
152,0,54577,1,2,0:0:0:0:
152,0,54727,2,0,P|149:47|155:96,1,80,2|0,0:0|0:0,0:0:0:0:
306,168,55027,1,2,0:0:0:0:
306,168,55102,1,0,0:0:0:0:
306,168,55177,2,0,L|218:162,1,80,2|0,0:0|0:0,0:0:0:0:
81,258,55477,1,2,0:0:0:0:
81,258,55627,2,0,L|169:252,1,80,2|0,0:0|0:0,0:0:0:0:
258,342,55927,1,0,0:0:0:0:
363,253,56077,1,2,0:0:0:0:
258,342,56227,1,2,0:0:0:0:
484,293,56377,5,2,0:0:0:0:
484,293,56677,1,2,0:0:0:0:
282,138,56977,1,2,0:0:0:0:
282,138,57127,2,0,P|279:191|285:242,1,80,2|0,0:0|0:0,0:0:0:0:
456,94,57427,1,2,0:0:0:0:
456,94,57502,1,0,0:0:0:0:
456,94,57577,1,2,0:0:0:0:
357,180,57727,1,2,0:0:0:0:
459,185,57877,1,2,0:0:0:0:
358,88,58027,1,2,0:0:0:0:
459,185,58177,1,0,0:0:0:0:
357,276,58327,1,2,0:0:0:0:
357,276,58477,1,2,0:0:0:0:
3,205,58777,5,2,0:0:0:0:
3,205,59077,1,2,0:0:0:0:
95,110,59377,1,2,0:0:0:0:
225,128,59527,1,2,0:0:0:0:
95,110,59677,1,0,0:0:0:0:
258,59,59827,5,2,0:0:0:0:
258,59,59902,1,0,0:0:0:0:
258,59,59977,2,0,L|263:162,1,80,2|0,0:0|0:0,0:0:0:0:
238,324,60277,1,2,0:0:0:0:
160,289,60427,2,0,P|163:243|171:187,1,80,2|0,0:0|0:0,0:0:0:0:
345,209,60727,2,0,P|350:249|352:289,2,80,2|2|0,0:0|0:0|0:0,0:0:0:0:
408,356,61177,5,2,0:0:0:0:
408,356,61477,1,2,0:0:0:0:
509,274,61777,1,2,0:0:0:0:
509,274,61927,2,0,P|513:228|510:174,1,80,2|0,0:0|0:0,0:0:0:0:
429,119,62227,1,2,0:0:0:0:
429,119,62302,1,0,0:0:0:0:
429,119,62377,2,0,P|377:122|330:133,1,80,2|0,0:0|0:0,0:0:0:0:
173,75,62677,1,2,0:0:0:0:
250,11,62827,2,0,P|263:49|269:88,1,80,2|0,0:0|0:0,0:0:0:0:
253,280,63127,1,2,0:0:0:0:
165,236,63277,2,0,P|162:182|170:140,1,80,2|0,0:0|0:0,0:0:0:0:
397,207,63577,5,2,0:0:0:0:
397,207,63877,1,2,0:0:0:0:
242,356,64177,1,2,0:0:0:0:
242,356,64327,2,0,P|193:351|144:348,1,80,2|0,0:0|0:0,0:0:0:0:
13,205,64627,1,2,0:0:0:0:
13,205,64702,1,0,0:0:0:0:
13,205,64777,2,0,L|20:294,1,80,2|0,0:0|0:0,0:0:0:0:
176,132,65077,1,2,0:0:0:0:
239,196,65227,2,0,P|238:240|229:298,1,80,2|0,0:0|0:0,0:0:0:0:
444,137,65527,1,0,0:0:0:0:
316,194,65677,1,2,0:0:0:0:
444,137,65827,1,2,0:0:0:0:
268,85,65977,5,2,0:0:0:0:
268,85,66277,1,2,0:0:0:0:
339,279,66577,1,2,0:0:0:0:
339,279,66727,2,0,P|389:270|446:267,1,80,2|0,0:0|0:0,0:0:0:0:
177,208,67027,1,2,0:0:0:0:
177,208,67102,1,0,0:0:0:0:
177,208,67177,2,0,P|123:203|79:200,1,80,2|0,0:0|0:0,0:0:0:0:
321,153,67477,1,2,0:0:0:0:
321,153,67627,2,0,P|366:148|412:146,1,80,2|0,0:0|0:0,0:0:0:0:
196,54,67927,1,2,0:0:0:0:
196,54,68077,1,2,0:0:0:0:
2,62,68377,6,0,L|12:150,1,80,2|0,0:0|0:0,0:0:0:0:
107,172,68677,2,0,L|92:277,1,80,2|0,0:0|0:0,0:0:0:0:
33,319,68977,1,2,0:0:0:0:
33,319,69127,1,2,0:0:0:0:
173,367,69277,1,0,0:0:0:0:
174,350,69352,1,0,0:0:0:0:
176,334,69427,1,2,0:0:0:0:
177,318,69502,1,0,0:0:0:0:
179,302,69577,2,0,L|182:253,7,40,2|0|0|0|0|0|0|0,0:1|0:0|0:0|0:0|0:0|0:0|0:0|0:0,0:0:0:0:
220,240,70177,6,0,L|215:213,14,20
237,179,70777,5,6,0:0:0:0:
256,192,79177,12,0,80077,2:2:0:0:
35,140,80377,6,0,P|89:196|198:172,1,176.000005371094,14|8,0:0|0:0,0:0:0:0:
291,280,80827,1,0,0:0:0:0:
362,194,80977,2,0,P|314:182|267:180,1,88.000002685547,8|0,0:0|0:0,0:0:0:0:
154,344,81277,2,0,P|202:356|249:358,1,88.000002685547,8|0,0:0|0:0,0:0:0:0:
452,308,81577,6,0,L|435:109,2,176.000005371094,14|8|8,0:0|0:0|0:0,0:0:0:0:
372,370,82327,1,8,0:0:0:0:
276,179,82477,2,0,L|284:79,1,88.000002685547,8|0,0:0|0:0,0:0:0:0:
231,8,82777,5,6,0:3:0:0:
231,8,83077,1,6,0:3:0:0:
131,213,83377,1,6,0:3:0:0:
248,275,83527,1,6,0:3:0:0:
351,202,83677,1,6,0:3:0:0:
238,129,83977,5,6,0:3:0:0:
132,220,84277,5,6,0:3:0:0:
257,284,84577,5,6,0:3:0:0:
358,198,84877,5,6,0:3:0:0:
19,116,85177,6,0,L|32:304,1,176.000005371094,14|8,0:0|0:0,0:0:0:0:
36,372,85627,1,0,0:0:0:0:
131,260,85777,2,0,P|180:263|222:277,1,88.000002685547,8|0,0:0|0:0,0:0:0:0:
258,381,86077,2,0,P|209:378|167:364,1,88.000002685547,8|0,0:0|0:0,0:0:0:0:
218,193,86377,6,0,P|276:265|363:269,1,176.000005371094,14|8,0:0|0:0,0:0:0:0:
433,329,86827,1,0,0:0:0:0:
509,265,86977,2,0,P|517:215|509:156,1,88.000002685547,8|8,0:0|0:0,0:0:0:0:
354,119,87277,1,10,0:0:0:0:
354,119,87577,6,0,P|401:120|460:136,1,88.000002685547,14|0,0:0|0:0,0:0:0:0:
505,66,87877,1,0,0:0:0:0:
387,198,88027,2,0,P|357:237|336:283,1,88.000002685547,2|14,0:0|0:0,0:0:0:0:
308,343,88327,1,0,0:0:0:0:
83,284,88477,2,0,P|179:312|237:384,2,176.000005371094,2|14|14,0:0|0:0|0:0,0:0:0:0:
8,289,89227,1,0,0:0:0:0:
159,145,89377,5,14,0:0:0:0:
0,213,89527,1,10,0:0:0:0:
163,225,89677,1,14,0:0:0:0:
14,138,89827,1,10,0:0:0:0:
172,236,89977,6,0,L|369:218,1,176.000005371094,14|8,0:0|0:0,0:0:0:0:
435,153,90427,1,0,0:0:0:0:
322,66,90577,2,0,P|300:106|294:146,1,88.000002685547,8|0,0:0|0:0,0:0:0:0:
304,335,90877,2,0,P|282:283|233:240,1,88.000002685547,8|0,0:0|0:0,0:0:0:0:
23,276,91177,6,0,P|128:257|187:176,2,176.000005371094,14|8|8,0:0|0:0|0:0,0:0:0:0:
131,310,91927,1,8,0:0:0:0:
19,204,92077,2,0,P|3:163|0:119,1,88.000002685547,8|0,0:0|0:0,0:0:0:0:
81,23,92377,5,6,0:3:0:0:
81,23,92677,1,6,0:3:0:0:
281,216,92977,1,6,0:3:0:0:
348,125,93127,1,6,0:3:0:0:
264,45,93277,1,6,0:3:0:0:
187,142,93577,5,6,0:3:0:0:
286,221,93877,5,6,0:3:0:0:
355,125,94177,5,6,0:3:0:0:
266,32,94477,5,6,0:3:0:0:
27,290,94777,6,0,B|115:274|110:317|201:304,1,176.000005371094,14|8,0:0|0:0,0:0:0:0:
295,361,95227,1,0,0:0:0:0:
377,294,95377,2,0,P|375:250|363:208,1,88.000002685547,8|8,0:0|0:0,0:0:0:0:
178,193,95677,2,0,P|229:184|277:159,1,88.000002685547,8|0,0:0|0:0,0:0:0:0:
417,104,95977,6,0,P|325:96|283:15,2,176.000005371094,14|8|12,0:0|0:0|0:0,0:0:0:0:
480,57,96727,1,8,0:0:0:0:
354,154,96877,2,0,P|316:187|293:226,1,88.000002685547,10|0,0:0|0:0,0:0:0:0:
161,56,97177,6,0,P|209:80|256:90,1,88.000002685547,14|0,0:0|0:0,0:0:0:0:
25,216,97477,2,0,P|50:162|58:122,1,88.000002685547,14|2,0:0|0:0,0:0:0:0:
199,337,97777,2,0,P|150:323|97:320,1,88.000002685547,12|0,0:0|0:0,0:0:0:0:
317,186,98077,2,0,P|306:233|304:287,1,88.000002685547,14|0,0:0|0:0,0:0:0:0:
426,325,98377,6,0,L|475:322,7,44.0000013427735,2|0|0|0|0|0|0|0,0:2|0:0|0:0|0:0|0:0|0:0|0:0|0:0,0:0:0:0:
356,358,98977,2,0,L|312:361,7,44.0000013427735,2|0|0|0|0|0|0|0,0:2|0:0|0:0|0:0|0:0|0:0|0:0|0:0,0:0:0:0:
384,265,99577,1,2,0:2:0:0:
468,78,107977,5,0,0:0:0:0:
468,78,108052,1,0,0:0:0:0:
468,78,108127,1,0,0:0:0:0:
468,78,108202,1,0,0:0:0:0:
468,78,108277,6,0,L|460:137,3,44.0000013427735
426,147,108577,2,0,L|429:177,6,22.0000006713867
450,197,108877,6,0,L|443:274,1,60.0000022888184
289,331,109177,5,12,0:0:0:0:
183,367,109327,1,2,0:0:0:0:
100,292,109477,1,10,0:0:0:0:
183,367,109627,1,0,0:0:0:0:
213,256,109777,6,0,P|217:212|207:156,1,80,10|0,0:0|0:0,0:0:0:0:
162,99,110077,1,10,0:0:0:0:
0,210,110227,2,0,L|91:202,1,80,2|8,0:0|0:0,0:0:0:0:
162,99,110527,1,2,0:0:0:0:
55,33,110677,2,0,P|38:81|38:130,1,80,10|0,0:0|0:0,0:0:0:0:
268,164,110977,2,0,P|285:116|285:67,1,80,8|2,0:0|0:0,0:0:0:0:
259,6,111277,1,10,0:0:0:0:
259,6,111427,1,10,0:0:0:0:
415,0,111577,5,12,0:0:0:0:
361,82,111727,1,2,0:0:0:0:
426,148,111877,1,10,0:0:0:0:
361,82,112027,1,0,0:0:0:0:
493,69,112177,2,0,P|501:109|505:170,1,80,10|0,0:0|0:0,0:0:0:0:
423,296,112477,1,10,0:0:0:0:
326,253,112627,2,0,P|334:203|360:152,1,80,2|8,0:0|0:0,0:0:0:0:
423,296,112927,1,2,0:0:0:0:
276,318,113077,2,0,P|227:298|199:269,1,80,10|0,0:0|0:0,0:0:0:0:
68,261,113377,5,10,0:0:0:0:
201,206,113527,1,10,0:0:0:0:
68,261,113677,1,14,0:0:0:0:
201,206,113827,1,10,0:0:0:0:
0,125,113977,6,0,P|6:164|10:204,1,80,12|2,0:0|0:0,0:0:0:0:
127,320,114277,2,0,P|176:311|224:306,1,80,10|0,0:0|0:0,0:0:0:0:
305,359,114577,1,10,0:0:0:0:
390,289,114727,2,0,P|390:243|380:201,1,80,0|10,0:0|0:0,0:0:0:0:
192,102,115027,1,2,0:0:0:0:
122,162,115177,2,0,P|124:205|138:249,1,80,8|2,0:0|0:0,0:0:0:0:
354,129,115477,2,0,L|234:143,1,80,10|0,0:0|0:0,0:0:0:0:
54,23,115777,2,0,L|174:37,1,80,10|2,0:0|0:0,0:0:0:0:
208,184,116077,1,10,0:0:0:0:
208,184,116227,1,10,0:0:0:0:
51,254,116377,6,0,P|39:215|35:175,2,80,12|2|10,0:0|0:0|0:0,0:0:0:0:
223,333,116827,2,0,P|270:349|312:375,2,80,0|10|0,0:0|0:0|0:0,0:0:0:0:
121,184,117277,2,0,P|129:139|157:83,1,80,10|2,0:0|0:0,0:0:0:0:
147,375,117577,5,8,0:0:0:0:
147,375,117727,1,2,0:0:0:0:
278,267,117877,2,0,L|378:259,1,80,10|0,0:0|0:0,0:0:0:0:
455,263,118177,1,10,0:0:0:0:
507,145,118327,1,2,0:0:0:0:
460,276,118477,1,8,0:0:0:0:
349,186,118627,1,8,0:0:0:0:
256,192,118777,12,6,120577,1:2:0:0:
256,184,120877,5,2,1:2:0:0:
128,240,121177,1,8,1:2:0:0:
128,240,121327,2,0,P|120:168|130:101,1,120.000004577637,2|0,0:2|0:2,0:2:0:0:
98,88,121777,2,0,P|159:68|249:64,1,120.000004577637,2|2,0:2|1:2,0:0:0:0:
234,25,122227,2,0,P|286:62|368:74,1,120.000004577637,2|2,0:0|0:2,0:0:0:0:
372,48,122677,1,2,0:2:0:0:
512,178,122977,5,2,1:2:0:0:
512,178,123277,1,2,0:2:0:0:
453,325,123577,1,10,1:2:0:0:
453,325,123727,2,0,L|305:311,1,120.000004577637,2|2,0:2|0:2,0:2:0:0:
314,323,124102,1,2,0:2:0:0:
295,333,124177,2,0,L|282:190,2,120.000004577637,2|0|8,0:2|1:2|1:2,0:0:0:0:
22,351,125077,5,2,0:2:0:0:
22,351,125227,1,2,0:2:0:0:
22,351,125377,2,0,L|12:277,1,60.0000022888184,2|0,1:2|0:2,0:2:0:0:
96,255,125677,2,0,P|105:191|99:132,1,120.000004577637,2|8,0:2|1:2,0:2:0:0:
32,84,126127,2,0,P|101:118|164:115,1,120.000004577637,2|2,0:2|0:2,0:2:0:0:
219,18,126577,6,0,P|218:54|221:85,1,60.0000022888184,2|0,0:2|0:2,0:0:0:0:
289,143,126877,1,2,1:2:0:0:
289,143,127027,2,0,P|327:139|360:136,1,60.0000022888184,2|8,0:2|1:2,0:0:0:0:
445,111,127327,1,2,0:2:0:0:
445,111,127477,2,0,P|429:179|426:238,1,120.000004577637,2|2,0:2|1:2,0:0:0:0:
425,228,128077,5,2,0:2:0:0:
324,324,128377,1,10,1:2:0:0:
324,324,128527,2,0,P|286:318|236:314,1,60.0000022888184,2|0,0:2|1:0,0:2:0:0:
173,265,128827,1,2,1:2:0:0:
173,265,128902,1,2,0:2:0:0:
173,265,128977,2,0,P|181:326|187:395,2,120.000004577637,2|10|8,1:2|1:2|1:2,0:0:0:0:
100,240,129727,1,10,1:2:0:0:
199,141,129877,1,10,1:2:0:0:
34,184,130027,1,10,1:2:0:0:
228,166,130177,6,0,L|387:151,1,120.000004577637,2|2,1:2|0:2,0:2:0:0:
94,0,130777,1,10,1:2:0:0:
94,0,130927,2,0,P|67:72|99:152,1,120.000004577637,2|2,0:2|0:2,0:2:0:0:
53,140,131302,1,2,0:2:0:0:
53,140,131377,2,0,P|97:189|118:253,1,120.000004577637,2|2,0:2|1:2,0:0:0:0:
14,319,131977,1,8,1:2:0:0:
14,319,132277,1,2,0:2:0:0:
181,384,132577,5,2,1:2:0:0:
271,326,132877,2,0,P|286:262|275:190,1,120.000004577637,2|10,0:2|1:2,0:0:0:0:
210,140,133327,2,0,P|157:173|89:171,1,120.000004577637,2|2,0:2|0:2,0:2:0:0:
74,146,133702,1,2,0:2:0:0:
74,146,133777,2,0,L|80:24,1,120.000004577637,2|0,0:2|1:2,0:0:0:0:
281,82,134377,1,8,1:2:0:0:
468,32,134677,5,2,0:2:0:0:
468,32,134827,1,2,0:2:0:0:
468,32,134977,2,0,L|460:106,1,60.0000022888184,2|0,1:2|0:2,0:2:0:0:
512,174,135277,2,0,P|450:171|391:184,1,120.000004577637,2|8,0:2|1:2,0:2:0:0:
306,166,135727,2,0,P|325:226|335:291,1,120.000004577637,2|2,0:2|0:2,0:2:0:0:
326,320,136102,1,2,0:2:0:0:
326,320,136177,2,0,L|244:330,1,60.0000022888184,2|0,0:2|0:2,0:0:0:0:
187,377,136477,1,2,1:2:0:0:
75,276,136627,2,0,L|142:285,1,60.0000022888184,2|8,0:2|1:2,0:0:0:0:
217,224,136927,1,2,0:2:0:0:
217,224,137077,1,2,0:2:0:0:
111,49,137377,6,0,P|109:93|115:127,1,60.0000022888184,0|0,1:3|1:3,0:0:0:0:
311,102,137677,2,0,P|313:58|307:24,1,60.0000022888184,0|0,1:3|1:3,0:0:0:0:
205,17,137977,1,0,1:3:0:0:
206,34,138052,1,0,1:3:0:0:
207,51,138127,1,0,1:3:0:0:
208,68,138202,1,0,1:3:0:0:
209,85,138277,1,0,1:3:0:0:
210,102,138352,1,0,1:3:0:0:
211,119,138427,1,0,1:3:0:0:
212,136,138502,1,0,1:3:0:0:
213,153,138577,6,0,L|214:177,14,15.0000005722046,0|0|0|0|0|0|0|0|0|0|0|0|0|0|0,1:3|1:3|1:3|1:3|1:3|1:3|1:3|1:3|1:3|1:3|1:3|1:3|1:3|1:3|1:3,1:3:0:0:
193,187,139177,6,0,L|194:198,28,7.50000028610231,0|0|0|0|0|0|0|0|0|0|0|0|0|0|0|0|0|0|0|0|0|0|0|0|0|0|0|0|0,1:3|1:3|1:3|1:3|1:3|1:3|1:3|1:3|1:3|1:3|1:3|1:3|1:3|1:3|1:3|1:3|1:3|1:3|1:3|1:3|1:3|1:3|1:3|1:3|1:3|1:3|1:3|1:3|1:3,1:3:0:0:
214,236,139777,5,4,1:2:0:0:
159,262,149377,6,0,L|-22:278,2,160,2|10|2,1:2|1:2|1:2,0:2:0:0:
324,350,150277,6,0,P|334:305|331:247,1,80,10|2,1:2|1:2,0:0:0:0:
188,124,150577,2,0,P|255:188|350:161,1,160,10|8,1:2|1:2,0:2:0:0:
446,216,151027,2,0,P|407:136|424:58,1,160,10|0,1:2|1:2,0:2:0:0:
491,12,151477,5,10,1:1:0:0:
175,10,151777,6,0,P|170:54|182:104,1,80,2|0,1:2|0:2,0:2:0:0:
321,84,152077,2,0,P|326:40|314:-10,1,80,10|0,1:2|0:0,0:2:0:0:
96,0,152377,2,0,P|87:61|103:169,1,160,2|10,1:2|1:2,0:0:0:0:
175,305,152827,1,8,1:2:0:0:
233,159,152977,5,10,1:2:0:0:
78,232,153127,2,0,L|184:224,1,80,8|2,1:2|0:2,0:2:0:0:
335,364,153427,2,0,P|304:276|310:203,1,160,10|10,1:2|1:2,0:2:0:0:
437,271,153877,5,10,1:1:0:0:
512,109,154177,6,0,L|427:101,1,80,2|0,1:2|0:2,0:2:0:0:
359,140,154477,2,0,L|274:132,1,80,10|0,1:2|0:0,0:2:0:0:
168,93,154777,2,0,P|207:177|209:252,1,160,2|8,1:2|1:2,0:0:0:0:
141,306,155227,1,10,1:2:0:0:
51,268,155377,2,0,P|36:225|36:171,1,80,10|0,1:2|0:2,0:2:0:0:
64,90,155677,1,10,1:2:0:0:
168,93,155827,2,0,L|331:77,1,160,10|8,1:2|1:2,0:2:0:0:
383,7,156277,5,10,1:1:0:0:
493,148,156577,5,8,1:2:0:0:
493,148,156877,1,8,1:2:0:0:
493,148,157177,1,8,1:2:0:0:
493,148,157477,1,8,1:2:0:0:
434,221,157627,1,8,1:2:0:0:
348,193,157777,2,0,L|234:206,1,80,8|0,1:2|1:0,0:0:0:0:
148,346,158227,1,0,1:0:0:0:
148,346,158527,1,0,1:0:0:0:
22,314,158677,5,2,1:0:0:0:
180,223,158827,1,2,1:0:0:0:
70,160,158977,2,0,P|67:221|74:260,1,88.000002685547,14|0,0:0|0:0,0:0:0:0:
319,81,159277,2,0,P|261:133|147:116,1,176.000005371094,10|10,0:0|0:0,0:0:0:0:
362,216,159727,2,0,L|465:205,1,88.000002685547,2|8,0:0|0:0,0:0:0:0:
261,227,160027,5,2,0:0:0:0:
261,227,160102,1,0,0:0:0:0:
261,227,160177,2,0,P|263:282|279:334,1,88.000002685547,10|0,0:0|0:0,0:0:0:0:
477,285,160477,1,10,0:0:0:0:
389,164,160627,2,0,P|365:217|359:285,1,88.000002685547,2|8,0:0|0:0,0:0:0:0:
374,363,160927,1,10,0:0:0:0:
254,334,161077,2,0,L|125:325,1,88.000002685547,10|0,0:0|0:0,0:0:0:0:
36,170,161377,6,0,P|37:209|52:265,1,88.000002685547,10|0,0:0|0:0,0:0:0:0:
282,171,161677,2,0,P|281:210|263:271,1,88.000002685547,10|0,0:0|0:0,0:0:0:0:
100,109,161977,1,10,0:0:0:0:
36,170,162127,2,0,P|37:209|52:265,1,88.000002685547,2|8,0:0|0:0,0:0:0:0:
282,94,162427,5,2,0:0:0:0:
282,94,162502,1,0,0:0:0:0:
282,94,162577,2,0,L|489:115,2,176.000005371094,10|10|10,0:0|0:0|0:0,0:0:0:0:
119,152,163327,1,10,0:0:0:0:
229,14,163477,1,10,0:0:0:0:
85,66,163627,1,2,0:0:0:0:
282,94,163777,6,0,L|381:105,1,88.000002685547,14|0,0:0|0:0,0:0:0:0:
111,167,164077,2,0,L|12:157,1,88.000002685547,10|0,0:0|0:0,0:0:0:0:
200,299,164377,1,10,0:0:0:0:
275,257,164527,2,0,P|294:205|285:140,1,88.000002685547,2|8,0:0|0:0,0:0:0:0:
31,340,164827,5,2,0:0:0:0:
31,340,164902,1,0,0:0:0:0:
31,340,164977,2,0,L|144:328,1,88.000002685547,10|0,0:0|0:0,0:0:0:0:
300,341,165277,1,10,0:0:0:0:
370,267,165427,2,0,L|255:254,1,88.000002685547,2|8,0:0|0:0,0:0:0:0:
150,167,165727,1,10,0:0:0:0:
75,210,165877,2,0,L|181:189,1,88.000002685547,10|0,0:0|0:0,0:0:0:0:
333,179,166177,6,0,P|354:92|332:-5,2,176.000005371094,10|10|10,0:0|0:0|0:0,0:0:0:0:
226,275,166927,1,2,0:0:0:0:
389,242,167077,1,8,0:0:0:0:
209,245,167227,1,2,0:0:0:0:
322,331,167377,5,14,0:0:0:0:
295,158,167527,1,8,0:0:0:0:
322,331,167677,1,10,0:0:0:0:
295,158,167827,1,10,0:0:0:0:
218,364,167977,6,0,L|167:359,3,44.0000013427735,12|0|8|0,0:0|0:0|0:0|0:0,0:0:0:0:
139,343,168277,2,0,L|80:351,3,44.0000013427735,10|0|10|0,0:0|0:0|0:0|0:0,0:0:0:0:
52,362,168577,6,0,P|28:266|52:181,1,176.000005371094,14|10,0:0|0:0,0:0:0:0:
139,135,169027,1,0,0:0:0:0:
234,189,169177,2,0,L|328:201,1,88.000002685547,10|2,0:0|0:0,0:0:0:0:
387,136,169477,1,8,0:0:0:0:
503,184,169627,5,2,0:0:0:0:
503,184,169702,1,0,0:0:0:0:
503,184,169777,2,0,L|486:361,2,176.000005371094,10|10|8,0:0|0:0|0:0,0:0:0:0:
418,28,170527,1,10,0:0:0:0:
352,167,170677,1,10,0:0:0:0:
512,107,170827,1,0,0:0:0:0:
331,87,170977,6,0,P|287:80|243:76,1,88.000002685547,14|0,1:0|0:0,0:0:0:0:
125,34,171277,2,0,P|158:107|174:211,1,176.000005371094,10|10,0:0|0:0,0:0:0:0:
222,323,171727,1,2,0:0:0:0:
350,254,171877,2,0,L|256:241,1,88.000002685547,8|2,0:0|0:0,0:0:0:0:
28,195,172177,6,0,L|46:379,2,176.000005371094,10|10|8,0:0|0:0|0:0,0:0:0:0:
241,103,172927,1,8,0:0:0:0:
109,185,173077,1,10,0:0:0:0:
241,103,173227,1,2,0:0:0:0:
115,21,173377,6,0,P|108:65|114:119,1,88.000002685547,14|0,0:0|0:0,0:0:0:0:
183,241,173677,2,0,L|370:212,1,176.000005371094,10|10,0:0|0:0,0:0:0:0:
492,142,174127,1,2,0:0:0:0:
324,120,174277,1,8,0:0:0:0:
458,235,174427,5,2,0:0:0:0:
458,235,174502,1,0,0:0:0:0:
458,235,174577,1,14,0:0:0:0:
419,64,174727,1,0,0:0:0:0:
356,214,174877,2,0,L|311:319,1,88.000002685547,10|2,0:0|0:0,0:0:0:0:
139,333,175177,1,8,0:0:0:0:
300,366,175327,1,10,0:0:0:0:
139,333,175477,2,0,P|123:278|130:225,1,88.000002685547,10|0,0:0|0:0,0:0:0:0:
174,116,175777,6,0,L|-17:141,2,176.000005371094,14|10|14,0:0|0:0|0:0,0:0:0:0:
243,26,176527,1,2,0:0:0:0:
381,97,176677,1,10,0:0:0:0:
269,186,176827,1,2,0:0:0:0:
305,97,176977,6,0,P|308:57|317:22,1,60.0000022888184,2|2,3:2|3:2,0:0:0:0:
490,162,177277,2,0,P|487:196|479:227,1,51.999997619629,2|2,3:2|3:2,0:0:0:0:
190,252,177577,2,0,P|193:223|202:196,1,44.0000013427735,2|2,3:2|3:2,0:0:0:0:
416,279,177877,2,0,P|413:303|409:322,1,35.9999989013672,2|2,3:2|3:2,0:0:0:0:
293,367,178177,5,4,3:1:0:0:
