osu file format v14

[General]
AudioFilename: audio.mp3
AudioLeadIn: 0
PreviewTime:80320
Countdown: 0
SampleSet: Normal
StackLeniency: 0.4
Mode: 0
LetterboxInBreaks: 0
WidescreenStoryboard: 1

[Editor]
DistanceSpacing: 0.2
BeatDivisor: 4
GridSize: 16
TimelineZoom: 3.500004

[Metadata]
Title:Infinite of nuclear fusion ~Mugen no Taiyou Shinkou~
TitleUnicode:Infinite of nuclear fusion ~無限の太陽信仰~
Artist:AU
ArtistUnicode:あう
Creator:Luscent
Version:Cellina's Extra
Source:東方地霊殿 ~ Subterranean Animism.
Tags:東方Project Touhou Chireiden 11 th11 霊知の太陽信仰 Reichi no Taiyou Shinkou Solar Sect of Mystic Wisdom ~ Nuclear Fusion Cellina jieusieu 404 aimnotfound electronic instrumental video game speedcore Team Shanghai Alice ZUN
BeatmapID:2948012
BeatmapSetID:1380266

[Difficulty]
HPDrainRate:5
CircleSize:5
OverallDifficulty:9
ApproachRate:9
SliderMultiplier:1.6
SliderTickRate:1

[Events]
//Background and Video events
0,0,"bg.jpg",0,0
//Break Periods
2,70977,78577
2,99777,107377
2,139977,148777
//Storyboard Layer 0 (Background)
//Storyboard Layer 1 (Fail)
//Storyboard Layer 2 (Pass)
//Storyboard Layer 3 (Foreground)
//Storyboard Layer 4 (Overlay)
//Storyboard Sound Samples

[TimingPoints]
1177,300,4,2,1,40,1,0
1177,-100,4,2,1,40,0,0
9577,-100,4,1,1,40,0,0
10477,-333.333333333333,4,1,1,40,0,0
10777,-100,4,1,1,60,0,0
29977,-142.857142857143,4,1,2,40,0,0
38377,-142.857142857143,4,1,1,40,0,0
39577,-100,4,1,1,60,0,0
47977,-100,4,1,1,80,0,0
48052,-100,4,1,1,40,0,0
48127,-100,4,1,1,80,0,0
48202,-100,4,1,1,40,0,0
48277,-100,4,1,1,80,0,0
48352,-100,4,1,1,40,0,0
48427,-100,4,1,1,80,0,0
48502,-100,4,1,1,40,0,0
48577,-100,4,1,1,80,0,0
48652,-100,4,1,1,40,0,0
48727,-100,4,1,1,80,0,0
48802,-100,4,1,1,40,0,0
48877,-100,4,1,1,80,0,0
48952,-100,4,1,1,40,0,0
49027,-100,4,1,1,80,0,0
49102,-100,4,1,1,40,0,0
49177,-142.857142857143,4,1,1,40,0,0
50377,-142.857142857143,4,1,1,30,0,0
50452,-142.857142857143,4,1,1,32,0,0
50527,-142.857142857143,4,1,1,34,0,0
50602,-142.857142857143,4,1,1,36,0,0
50677,-142.857142857143,4,1,1,38,0,0
50752,-142.857142857143,4,1,1,40,0,0
50827,-142.857142857143,4,1,1,42,0,0
50902,-142.857142857143,4,1,1,44,0,0
50977,-142.857142857143,4,1,1,46,0,0
51052,-142.857142857143,4,1,1,48,0,0
51127,-142.857142857143,4,1,1,50,0,0
51202,-142.857142857143,4,1,1,52,0,0
51277,-142.857142857143,4,1,1,54,0,0
51352,-142.857142857143,4,1,1,56,0,0
51427,-142.857142857143,4,1,1,58,0,0
51502,-142.857142857143,4,1,1,60,0,0
51577,-100,4,1,1,60,0,0
70177,-100,4,1,1,20,0,0
70777,-100,4,2,1,40,0,0
80377,-83.3333333333333,4,1,1,75,0,1
99577,-83.3333333333333,4,1,1,65,0,0
107977,-100,4,1,1,65,0,0
118777,300,6,1,1,40,1,0
120577,300,4,2,0,40,1,0
120577,-125,4,2,0,40,0,0
138577,-125,4,2,1,40,0,0
139177,-125,4,2,1,20,0,0
149377,-111.111111111111,4,2,0,50,0,0
151477,-76.9230769230769,4,2,1,65,0,0
151777,-76.9230769230769,4,2,0,50,0,0
152377,-111.111111111111,4,2,0,50,0,0
153727,-76.9230769230769,4,2,0,50,0,0
153877,-76.9230769230769,4,2,1,65,0,0
154177,-111.111111111111,4,2,0,50,0,0
156277,-76.9230769230769,4,2,1,65,0,0
156577,-76.9230769230769,4,2,0,50,0,0
158227,-111.111111111111,4,2,0,50,0,0
158977,-83.3333333333333,4,1,1,80,0,1
178177,-83.3333333333333,4,1,1,80,0,0

[Colours]
Combo1 : 17,254,176
Combo2 : 173,255,95
Combo3 : 255,88,100
Combo4 : 255,94,55

[HitObjects]
18,54,1177,5,4,1:0:0:0:
82,75,1327,1,0,0:0:0:0:
40,127,1477,1,0,1:0:0:0:
104,148,1627,1,0,0:0:0:0:
151,196,1777,5,0,1:0:0:0:
87,217,1927,1,0,0:0:0:0:
129,269,2077,1,0,1:0:0:0:
65,290,2227,1,0,0:0:0:0:
115,335,2377,6,0,L|214:347,1,80,0|0,1:0|0:0,0:0:0:0:
231,288,2677,2,0,L|310:278,1,80,0|0,1:0|0:0,0:0:0:0:
370,311,2977,2,0,B|388:336|388:336|372:405,1,80,0|0,1:0|0:0,0:0:0:0:
311,351,3277,5,0,1:0:0:0:
455,323,3427,1,0,1:0:0:0:
422,243,3577,5,0,1:0:0:0:
485,221,3727,1,0,0:0:0:0:
438,174,3877,1,0,1:0:0:0:
501,152,4027,1,0,0:0:0:0:
452,107,4177,5,0,1:0:0:0:
389,85,4327,1,0,0:0:0:0:
436,38,4477,1,0,1:0:0:0:
373,16,4627,1,0,0:0:0:0:
327,66,4777,6,0,B|312:88|312:88|336:158,1,80,0|0,1:0|0:0,0:0:0:0:
283,194,5077,2,0,L|194:183,1,80,0|0,1:0|0:0,0:0:0:0:
168,126,5377,5,0,1:0:0:0:
148,222,5527,1,0,1:0:0:0:
67,165,5677,1,0,1:0:0:0:
47,261,5827,1,0,1:0:0:0:
144,294,5977,5,4,1:0:0:0:
144,294,6127,2,0,B|161:273|161:273|142:198,1,80,0|0,0:0|1:0,0:0:0:0:
63,92,6427,2,0,B|49:143|49:143|66:164,1,80,0|0,0:0|1:0,0:0:0:0:
247,135,6727,2,0,L|158:124,1,80,0|0,0:0|1:0,0:0:0:0:
136,65,7027,1,0,0:0:0:0:
305,11,7177,5,0,1:0:0:0:
305,11,7327,2,0,B|288:37|288:37|307:94,1,80,0|0,0:0|1:0,0:0:0:0:
361,129,7627,2,0,B|378:155|378:155|359:212,1,80,0|0,0:0|1:0,0:0:0:0:
399,263,7927,1,0,0:0:0:0:
327,261,8077,5,0,1:0:0:0:
437,198,8227,1,0,1:0:0:0:
475,266,8377,5,0,1:0:0:0:
475,266,8527,2,0,B|491:292|491:292|471:363,1,80,0|0,0:0|1:0,0:0:0:0:
412,368,8827,2,0,L|308:381,1,80,0|0,0:0|1:0,0:0:0:0:
283,327,9127,1,0,0:0:0:0:
218,353,9277,2,0,B|234:327|234:327|214:256,1,80,0|0,1:0|0:0,0:0:0:0:
156,243,9577,5,4,3:3:0:0:
362,201,9877,1,4,3:3:0:0:
223,44,10177,1,4,3:3:0:0:
223,44,10477,6,2,L|217:86,1,35.9999989013672,0|0,0:3|2:0,0:0:0:0:
251,140,10777,5,6,0:0:0:0:
238,162,10852,1,0,0:0:0:0:
240,187,10927,1,0,0:0:0:0:
299,233,11077,1,2,0:0:0:0:
362,201,11227,1,0,0:0:0:0:
388,209,11302,1,0,0:0:0:0:
414,217,11377,1,2,0:0:0:0:
415,228,11452,1,0,0:0:0:0:
416,239,11527,1,0,0:0:0:0:
462,297,11677,2,0,B|454:318|454:318|379:333,1,80,2|2,0:0|0:0,0:0:0:0:
292,368,11977,5,0,0:0:0:0:
296,340,12052,1,0,0:0:0:0:
300,312,12127,1,2,0:0:0:0:
219,245,12277,1,2,0:0:0:0:
221,256,12352,1,0,0:0:0:0:
224,267,12427,1,0,0:0:0:0:
200,337,12577,1,2,0:0:0:0:
129,315,12727,1,0,0:0:0:0:
65,354,12877,1,2,0:0:0:0:
58,326,12952,1,0,0:0:0:0:
51,298,13027,1,2,0:0:0:0:
45,270,13102,1,0,0:0:0:0:
38,242,13177,5,6,0:0:0:0:
49,244,13252,1,0,0:0:0:0:
60,246,13327,1,0,0:0:0:0:
116,201,13477,1,2,0:0:0:0:
77,140,13627,1,0,0:0:0:0:
66,135,13702,1,0,0:0:0:0:
54,130,13777,1,2,0:0:0:0:
48,102,13852,1,0,0:0:0:0:
42,74,13927,1,0,0:0:0:0:
37,46,14002,1,0,0:0:0:0:
32,18,14077,1,2,0:0:0:0:
103,29,14227,1,2,0:0:0:0:
174,40,14377,5,0,0:0:0:0:
185,38,14452,1,0,0:0:0:0:
196,36,14527,1,2,0:0:0:0:
260,68,14677,1,2,0:0:0:0:
287,70,14752,1,0,0:0:0:0:
314,73,14827,1,0,0:0:0:0:
383,52,14977,1,2,0:0:0:0:
391,60,15052,1,0,0:0:0:0:
398,68,15127,1,2,0:0:0:0:
390,94,15202,1,0,0:0:0:0:
382,121,15277,1,2,0:0:0:0:
392,159,15352,1,0,0:0:0:0:
403,197,15427,1,2,0:0:0:0:
413,235,15502,1,0,0:0:0:0:
424,273,15577,6,0,L|433:218,2,40,6|0|0,0:0|0:0|0:0,0:0:0:0:
469,329,15877,1,2,0:0:0:0:
409,370,16027,1,0,0:0:0:0:
397,367,16102,1,0,0:0:0:0:
385,364,16177,1,2,0:0:0:0:
372,338,16252,1,0,0:0:0:0:
359,312,16327,1,0,0:0:0:0:
313,256,16477,2,0,B|292:271|292:271|287:339,1,80,2|2,0:0|0:0,0:0:0:0:
217,338,16777,5,0,0:0:0:0:
208,346,16852,1,0,0:0:0:0:
199,354,16927,2,0,L|184:264,1,80,2|2,0:0|0:0,0:0:0:0:
162,291,17152,1,0,0:0:0:0:
139,307,17227,2,0,B|119:296|119:296|128:218,1,80,0|2,0:0|0:0,0:0:0:0:
179,191,17527,1,2,0:0:0:0:
132,135,17677,1,2,0:0:0:0:
104,138,17752,1,0,0:0:0:0:
76,141,17827,1,0,0:0:0:0:
48,144,17902,1,0,0:0:0:0:
20,148,17977,5,6,0:0:0:0:
17,136,18052,1,0,0:0:0:0:
15,124,18127,1,0,0:0:0:0:
48,60,18277,1,2,0:0:0:0:
117,42,18427,1,0,0:0:0:0:
126,48,18502,1,0,0:0:0:0:
135,55,18577,1,2,0:0:0:0:
162,49,18652,1,0,0:0:0:0:
189,43,18727,1,0,0:0:0:0:
221,58,18802,1,0,0:0:0:0:
253,73,18877,2,0,L|346:50,1,80,2|2,0:0|0:0,0:0:0:0:
456,68,19177,5,0,0:0:0:0:
451,79,19252,1,0,0:0:0:0:
446,90,19327,1,2,0:0:0:0:
452,117,19402,1,0,0:0:0:0:
458,144,19477,1,2,0:0:0:0:
465,171,19552,1,0,0:0:0:0:
431,183,19627,1,0,0:0:0:0:
397,195,19702,1,0,0:0:0:0:
363,207,19777,2,0,L|359:236,6,20,2|0|0|0|0|0|0,0:0|0:0|0:0|0:0|0:0|0:0|0:0,0:0:0:0:
390,283,20077,1,2,0:0:0:0:
392,294,20152,1,0,0:0:0:0:
394,305,20227,1,2,0:0:0:0:
396,316,20302,1,0,0:0:0:0:
398,327,20377,6,0,L|440:330,2,40,6|0|0,0:0|0:0|0:0,0:0:0:0:
342,372,20677,1,2,0:0:0:0:
288,324,20827,1,0,0:0:0:0:
272,336,20902,1,0,0:0:0:0:
256,348,20977,1,2,0:0:0:0:
223,333,21052,1,0,0:0:0:0:
189,318,21127,1,0,0:0:0:0:
170,324,21202,1,0,0:0:0:0:
151,331,21277,2,0,L|64:323,1,80,2|2,0:0|0:0,0:0:0:0:
31,274,21577,5,0,0:0:0:0:
31,274,21652,1,0,0:0:0:0:
31,274,21727,1,2,0:0:0:0:
83,224,21877,1,2,0:0:0:0:
87,204,21952,1,0,0:0:0:0:
91,184,22027,1,0,0:0:0:0:
56,120,22177,2,0,B|34:106|34:106|26:45,1,80,2|0,0:0|0:0,0:0:0:0:
88,14,22477,1,2,0:0:0:0:
123,18,22552,1,0,0:0:0:0:
158,22,22627,1,2,0:0:0:0:
193,26,22702,1,0,0:0:0:0:
228,30,22777,5,6,0:0:0:0:
232,49,22852,1,0,0:0:0:0:
236,68,22927,1,0,0:0:0:0:
287,118,23077,1,2,0:0:0:0:
236,169,23227,1,0,0:0:0:0:
221,182,23302,1,0,0:0:0:0:
206,196,23377,1,2,0:0:0:0:
223,227,23452,1,0,0:0:0:0:
240,258,23527,1,0,0:0:0:0:
226,304,23602,1,0,0:0:0:0:
212,350,23677,2,0,B|230:371|230:371|299:363,1,80,2|2,0:0|0:0,0:0:0:0:
358,384,23977,5,0,0:0:0:0:
358,384,24052,1,0,0:0:0:0:
358,384,24127,1,2,0:0:0:0:
416,342,24277,2,0,L|476:349,2,40,2|0|0,0:0|0:0|0:0,0:0:0:0:
372,284,24577,1,2,0:0:0:0:
364,265,24652,1,0,0:0:0:0:
357,246,24727,1,2,0:0:0:0:
377,216,24802,1,0,0:0:0:0:
397,186,24877,1,0,0:0:0:0:
378,146,24952,1,0,0:0:0:0:
359,106,25027,1,2,0:0:0:0:
340,65,25102,1,0,0:0:0:0:
322,24,25177,6,0,L|371:30,2,40,6|0|0,0:0|0:0|0:0,0:0:0:0:
264,67,25477,1,2,0:0:0:0:
199,35,25627,1,0,0:0:0:0:
179,41,25702,1,0,0:0:0:0:
159,47,25777,1,2,0:0:0:0:
123,43,25852,1,0,0:0:0:0:
87,39,25927,1,0,0:0:0:0:
68,47,26002,1,0,0:0:0:0:
49,55,26077,2,0,B|32:83|32:83|45:135,1,80,2|2,0:0|0:0,0:0:0:0:
121,195,26377,6,0,L|176:188,2,40,0|0|2,0:0|0:0|0:0,0:0:0:0:
218,228,26677,2,0,L|273:221,2,40,2|0|0,0:0|0:0|0:0,0:0:0:0:
155,263,26977,2,0,B|139:289|139:289|155:341,1,80,2|2,0:0|0:0,0:0:0:0:
217,368,27277,1,2,0:0:0:0:
260,362,27352,1,0,0:0:0:0:
303,356,27427,1,0,0:0:0:0:
346,350,27502,1,0,0:0:0:0:
389,344,27577,5,6,0:0:0:0:
407,352,27652,1,0,0:0:0:0:
425,360,27727,1,0,0:0:0:0:
492,335,27877,1,2,0:0:0:0:
485,263,28027,1,0,0:0:0:0:
467,271,28102,1,0,0:0:0:0:
449,279,28177,1,2,0:0:0:0:
422,254,28252,1,0,0:0:0:0:
395,229,28327,1,2,0:0:0:0:
352,240,28402,1,0,0:0:0:0:
309,252,28477,2,0,L|215:241,1,80,2|2,0:0|0:0,0:0:0:0:
127,364,28777,5,0,0:0:0:0:
115,347,28852,1,0,0:0:0:0:
104,331,28927,1,0,0:0:0:0:
94,313,29002,1,0,0:0:0:0:
86,295,29077,1,0,0:0:0:0:
79,276,29152,1,0,0:0:0:0:
74,257,29227,1,0,0:0:0:0:
70,237,29302,1,0,0:0:0:0:
67,217,29377,2,0,P|66:200|68:182,6,20
50,187,29677,1,0,0:0:0:0:
35,116,29827,1,0,0:0:0:0:
20,45,29977,6,0,L|91:54,1,55.9999982910157,4|0,0:0|0:0,0:0:0:0:
134,15,30277,2,0,B|147:24|147:24|154:65,1,55.9999982910157
212,102,30577,1,4,0:0:0:0:
211,113,30652,1,0,0:0:0:0:
210,124,30727,1,0,0:0:0:0:
209,135,30802,1,0,0:0:0:0:
208,146,30877,1,0,0:0:0:0:
248,202,31027,1,0,0:0:0:0:
307,165,31177,6,0,L|380:158,1,55.9999982910157,4|0,0:0|0:0,0:0:0:0:
362,159,31402,1,0,0:0:0:0:
362,159,31477,1,0,0:0:0:0:
426,127,31627,1,4,0:0:0:0:
487,175,31777,1,0,0:0:0:0:
487,175,31852,1,0,0:0:0:0:
487,175,31927,2,0,B|498:195|498:195|490:238,1,55.9999982910157,0|4,0:0|0:0,0:0:0:0:
490,238,32152,1,0,0:0:0:0:
488,249,32227,1,0,0:0:0:0:
453,309,32377,6,0,L|382:317,1,55.9999982910157,4|0,0:0|0:0,0:0:0:0:
342,358,32677,1,0,0:0:0:0:
281,323,32827,1,0,0:0:0:0:
275,335,32902,1,0,0:0:0:0:
269,347,32977,2,0,L|244:351,6,13.9999995727539,4|0|0|0|0|0|0,0:0|0:0|0:0|0:0|0:0|0:0|0:0,0:0:0:0:
195,315,33277,2,0,B|184:334|184:334|190:371,1,55.9999982910157
120,364,33577,5,4,0:0:0:0:
64,339,33727,1,0,0:0:0:0:
64,339,33802,1,0,0:0:0:0:
64,339,33877,1,0,0:0:0:0:
108,285,34027,2,0,B|117:274|117:274|106:218,1,55.9999982910157,4|0,0:0|0:0,0:0:0:0:
107,221,34252,1,0,0:0:0:0:
106,209,34327,1,0,0:0:0:0:
58,159,34477,1,4,0:0:0:0:
61,134,34552,1,0,0:0:0:0:
64,109,34627,1,0,0:0:0:0:
44,42,34777,6,0,L|109:33,1,55.9999982910157,4|0,0:0|0:0,0:0:0:0:
157,72,35077,1,0,0:0:0:0:
181,75,35152,1,0,0:0:0:0:
205,78,35227,1,0,0:0:0:0:
229,81,35302,1,0,0:0:0:0:
253,84,35377,1,4,0:0:0:0:
264,82,35452,1,0,0:0:0:0:
275,80,35527,1,0,0:0:0:0:
286,78,35602,1,0,0:0:0:0:
297,76,35677,2,0,L|354:79,1,55.9999982910157,4|0,0:0|0:0,0:0:0:0:
418,55,35977,5,4,0:0:0:0:
471,99,36127,1,0,0:0:0:0:
468,112,36202,1,0,0:0:0:0:
465,125,36277,1,4,0:2:0:0:
410,167,36427,1,4,0:2:0:0:
451,222,36577,1,0,0:0:0:0:
454,235,36652,1,0,0:0:0:0:
457,248,36727,1,4,0:0:0:0:
405,294,36877,1,0,0:2:0:0:
404,319,36952,1,0,0:0:0:0:
403,344,37027,1,0,0:0:0:0:
342,378,37177,6,0,L|264:373,1,55.9999982910157,4|0,0:0|0:0,0:0:0:0:
235,326,37477,1,0,0:0:0:0:
222,333,37552,1,0,0:0:0:0:
209,340,37627,1,0,0:0:0:0:
198,348,37702,1,0,0:0:0:0:
186,356,37777,2,0,L|190:294,1,55.9999982910157,4|0,0:0|0:0,0:0:0:0:
210,272,38002,1,0,0:0:0:0:
194,240,38077,2,0,B|183:233|183:233|123:242,1,55.9999982910157
73,283,38377,5,8,0:2:0:0:
61,266,38452,1,8,0:2:0:0:
50,250,38527,1,8,0:2:0:0:
40,232,38602,1,8,0:2:0:0:
32,214,38677,1,8,0:2:0:0:
25,195,38752,1,8,0:2:0:0:
20,176,38827,1,8,0:2:0:0:
16,156,38902,1,8,0:2:0:0:
13,136,38977,2,0,P|12:119|13:113,6,13.9999995727539,8|0|0|0|0|0|0,0:2|0:2|0:2|0:2|0:2|0:2|0:2,0:2:0:0:
54,71,39277,5,0,0:0:0:0:
54,71,39577,6,0,L|133:64,1,80,4|2,0:0|0:0,0:0:0:0:
190,18,39877,1,2,0:0:0:0:
250,58,40027,1,0,0:0:0:0:
268,66,40102,1,0,0:0:0:0:
286,74,40177,1,2,0:0:0:0:
320,65,40252,1,0,0:0:0:0:
354,56,40327,1,0,0:0:0:0:
389,47,40402,1,0,0:0:0:0:
424,39,40477,2,0,L|510:54,1,80,2|2,0:0|0:0,0:0:0:0:
446,129,40777,5,0,0:0:0:0:
440,164,40852,1,0,0:0:0:0:
434,199,40927,1,2,0:0:0:0:
469,261,41077,1,2,0:0:0:0:
471,280,41152,1,0,0:0:0:0:
473,299,41227,1,2,0:0:0:0:
389,373,41377,5,8,0:2:0:0:
321,367,41452,1,8,0:2:0:0:
253,362,41527,1,8,0:2:0:0:
185,357,41602,1,8,0:2:0:0:
117,352,41677,1,14,0:1:0:0:
117,352,41977,6,0,B|92:347|92:347|76:287,1,80,4|2,0:0|0:0,0:0:0:0:
127,241,42277,1,2,0:0:0:0:
80,186,42427,1,0,0:0:0:0:
72,167,42502,1,0,0:0:0:0:
64,148,42577,1,2,0:0:0:0:
78,115,42652,1,0,0:0:0:0:
92,82,42727,1,0,0:0:0:0:
106,49,42802,1,0,0:0:0:0:
121,16,42877,2,0,L|206:27,1,80,2|2,0:0|0:0,0:0:0:0:
275,88,43177,5,0,0:0:0:0:
310,84,43252,1,0,0:0:0:0:
345,80,43327,1,2,0:0:0:0:
345,151,43477,1,2,0:0:0:0:
369,148,43552,1,0,0:0:0:0:
393,145,43627,1,2,0:0:0:0:
479,97,43777,5,8,0:2:0:0:
471,164,43852,1,8,0:2:0:0:
463,231,43927,1,8,0:2:0:0:
456,298,44002,1,8,0:2:0:0:
449,365,44077,1,14,0:0:0:0:
449,365,44377,6,0,L|350:354,1,80,4|2,0:0|0:0,0:0:0:0:
300,383,44677,2,0,B|279:369|279:369|265:297,1,80,2|0,0:0|0:0,0:0:0:0:
278,297,44902,1,0,0:0:0:0:
288,279,44977,1,2,0:0:0:0:
277,244,45052,1,0,0:0:0:0:
266,209,45127,1,0,0:0:0:0:
255,174,45202,1,0,0:0:0:0:
244,139,45277,2,0,L|257:58,1,80,2|2,0:0|0:0,0:0:0:0:
178,10,45577,5,0,0:0:0:0:
142,17,45652,1,0,0:0:0:0:
106,25,45727,1,2,0:0:0:0:
118,95,45877,1,2,0:0:0:0:
105,110,45952,1,0,0:0:0:0:
92,125,46027,1,2,0:0:0:0:
10,107,46177,5,8,0:2:0:0:
23,173,46252,1,8,0:2:0:0:
36,239,46327,1,8,0:2:0:0:
50,305,46402,1,8,0:2:0:0:
64,371,46477,1,6,0:0:0:0:
64,371,46777,6,0,L|148:361,1,80,4|2,0:0|0:0,0:0:0:0:
212,383,47077,2,0,B|233:365|233:365|223:306,1,80,2|0,0:0|0:0,0:0:0:0:
238,299,47302,1,0,0:0:0:0:
252,285,47377,1,2,0:0:0:0:
286,294,47452,1,0,0:0:0:0:
320,303,47527,1,0,0:0:0:0:
354,312,47602,1,0,0:0:0:0:
388,321,47677,2,0,L|470:308,1,80,2|2,0:0|0:0,0:0:0:0:
488,221,47977,5,2,0:2:0:0:
499,187,48052,1,2,0:2:0:0:
494,151,48127,1,2,0:2:0:0:
477,118,48202,1,2,0:2:0:0:
446,98,48277,1,2,0:2:0:0:
410,94,48352,1,2,0:2:0:0:
375,104,48427,1,2,0:2:0:0:
351,131,48502,1,2,0:2:0:0:
321,151,48577,1,2,0:2:0:0:
286,162,48652,1,2,0:2:0:0:
250,157,48727,1,2,0:2:0:0:
218,139,48802,1,2,0:2:0:0:
201,107,48877,1,2,0:2:0:0:
207,71,48952,1,2,0:2:0:0:
231,44,49027,1,2,0:2:0:0:
266,38,49102,1,2,0:2:0:0:
300,48,49177,5,6,0:0:0:0:
360,13,49327,2,0,L|422:22,1,55.9999982910157
489,131,49627,5,0,0:0:0:0:
489,131,49702,1,0,0:0:0:0:
489,131,49777,1,0,0:0:0:0:
489,131,49852,1,0,0:0:0:0:
489,131,49927,1,0,0:0:0:0:
442,183,50077,2,0,L|371:192,1,55.9999982910157
324,231,50377,5,0,0:2:0:0:
314,241,50452,1,0,0:2:0:0:
305,251,50527,1,0,0:2:0:0:
296,261,50602,1,0,0:2:0:0:
287,272,50677,1,0,0:2:0:0:
262,267,50752,1,0,0:2:0:0:
237,262,50827,1,0,0:2:0:0:
212,257,50902,1,0,0:2:0:0:
187,252,50977,1,0,0:2:0:0:
158,262,51052,1,0,0:2:0:0:
129,272,51127,1,0,0:2:0:0:
100,282,51202,1,0,0:2:0:0:
71,292,51277,1,0,0:2:0:0:
106,299,51352,1,0,0:2:0:0:
141,307,51427,1,0,0:2:0:0:
176,315,51502,1,0,0:2:0:0:
211,323,51577,6,0,P|292:341|382:363,2,160,2|2|2,0:0|0:0|0:0,0:0:0:0:
106,299,52327,2,0,P|116:346|123:383,1,80,2|0,0:0|0:0,0:0:0:0:
187,252,52627,5,2,0:0:0:0:
187,252,52702,1,0,0:0:0:0:
187,252,52777,2,0,P|177:205|170:168,1,80,2|0,0:0|0:0,0:0:0:0:
124,122,53077,1,2,0:0:0:0:
71,167,53227,2,0,P|27:160|-5:122,1,80,2|0,0:0|0:0,0:0:0:0:
124,122,53527,1,2,0:0:0:0:
155,60,53677,2,0,P|184:34|224:29,1,80,2|0,0:0|0:0,0:0:0:0:
291,54,53977,6,0,P|353:105|450:93,2,160,2|2|2,0:0|0:0|0:0,0:0:0:0:
291,54,54727,2,0,P|310:96|320:134,1,80,2|0,0:0|0:0,0:0:0:0:
430,261,55027,5,2,0:0:0:0:
430,261,55102,1,0,0:0:0:0:
430,261,55177,1,2,0:0:0:0:
473,190,55327,2,0,P|432:186|389:179,1,80,0|2,0:0|0:0,0:0:0:0:
311,325,55627,1,2,0:0:0:0:
268,254,55777,2,0,P|309:250|352:243,1,80
453,374,56077,5,2,0:0:0:0:
404,303,56227,1,2,0:0:0:0:
453,374,56377,2,0,P|396:330|290:331,2,160,2|2|2,0:0|0:0|0:0,0:0:0:0:
404,303,57127,2,0,P|412:263|423:225,1,80,2|0,0:0|0:0,0:0:0:0:
493,118,57427,5,2,0:0:0:0:
493,118,57502,1,0,0:0:0:0:
493,118,57577,1,2,0:0:0:0:
415,109,57727,1,2,0:0:0:0:
336,101,57877,1,2,0:0:0:0:
346,91,58027,1,2,0:0:0:0:
368,173,58177,5,0,0:0:0:0:
249,84,58327,1,2,0:0:0:0:
385,25,58477,1,2,0:0:0:0:
336,101,58627,1,0,0:0:0:0:
165,41,58777,6,0,P|100:99|18:96,2,160,2|2|2,0:0|0:0|0:0,0:0:0:0:
249,84,59527,1,2,0:0:0:0:
210,169,59677,1,0,0:0:0:0:
263,238,59827,5,2,0:0:0:0:
263,238,59902,1,0,0:0:0:0:
263,238,59977,2,0,P|304:235|362:229,1,80,2|0,0:0|0:0,0:0:0:0:
481,276,60277,2,0,P|440:279|382:285,1,80,2|2,0:0|0:0,0:0:0:0:
328,312,60577,5,0,0:0:0:0:
424,205,60727,1,2,0:0:0:0:
308,167,60877,5,2,0:0:0:0:
342,231,61027,1,0,0:0:0:0:
342,231,61177,6,0,P|354:146|371:60,2,160,2|2|2,0:0|0:0|0:0,0:0:0:0:
424,205,61927,2,0,P|432:159|443:103,1,80,2|0,0:0|0:0,0:0:0:0:
349,237,62227,5,2,0:0:0:0:
349,237,62302,1,0,0:0:0:0:
349,237,62377,2,0,P|298:248|263:253,1,80,2|0,0:0|0:0,0:0:0:0:
224,310,62677,1,2,0:0:0:0:
165,354,62827,2,0,P|125:345|86:338,1,80,2|0,0:0|0:0,0:0:0:0:
43,279,63127,1,2,0:0:0:0:
80,152,63277,2,0,P|90:199|101:239,1,80,2|0,0:0|0:0,0:0:0:0:
161,114,63577,6,0,P|74:107|27:50,2,160,2|2|2,0:0|0:0|0:0,0:0:0:0:
232,147,64327,2,0,P|241:99|236:57,1,80,2|0,0:0|0:0,0:0:0:0:
324,137,64627,5,2,0:0:0:0:
324,137,64702,1,0,0:0:0:0:
324,137,64777,2,0,P|362:133|427:125,1,80,2|0,0:0|0:0,0:0:0:0:
455,79,65077,1,2,0:0:0:0:
414,23,65227,1,2,0:0:0:0:
403,128,65377,6,0,P|412:169|417:211,1,80
483,237,65677,5,2,0:0:0:0:
415,366,65827,1,2,0:0:0:0:
343,329,65977,6,0,P|415:320|516:304,2,160,2|2|2,0:0|0:0|0:0,0:0:0:0:
305,262,66727,2,0,P|261:256|225:248,1,80,2|0,0:0|0:0,0:0:0:0:
130,192,67027,5,2,0:0:0:0:
130,192,67102,1,0,0:0:0:0:
130,192,67177,1,2,0:0:0:0:
138,269,67327,1,0,0:0:0:0:
147,346,67477,1,2,0:0:0:0:
157,338,67627,1,2,0:0:0:0:
227,382,67777,5,0,0:0:0:0:
83,316,67927,1,2,0:0:0:0:
226,248,68077,1,2,0:0:0:0:
157,338,68227,1,0,0:0:0:0:
316,369,68377,5,2,0:0:0:0:
325,297,68527,1,0,0:0:0:0:
388,378,68677,1,2,0:0:0:0:
397,306,68827,1,0,0:0:0:0:
471,384,68977,5,2,0:0:0:0:
481,367,69052,1,0,0:0:0:0:
489,350,69127,1,2,0:0:0:0:
496,332,69202,1,0,0:0:0:0:
502,313,69277,1,0,0:0:0:0:
506,294,69352,1,0,0:0:0:0:
508,275,69427,1,2,0:0:0:0:
510,256,69502,1,0,0:0:0:0:
509,237,69577,6,0,P|509:226|508:216,14,20,2|0|0|0|0|0|0|0|0|0|0|0|0|0|0,0:1|0:0|0:0|0:0|0:0|0:0|0:0|0:0|0:0|0:0|0:0|0:0|0:0|0:0|0:0,0:0:0:0:
463,173,70177,2,0,L|462:164,28,10
509,113,70777,1,6,0:0:0:0:
256,192,79177,12,0,80077,2:2:0:0:
42,23,80377,6,0,P|63:133|75:218,1,191.999994140625,14|8,0:0|0:0,0:0:0:0:
145,247,80827,1,0,0:0:0:0:
99,384,80977,2,0,P|73:337|83:291,1,95.9999970703126,8|0,0:0|0:0,0:0:0:0:
203,186,81277,2,0,P|229:233|219:279,1,95.9999970703126,8|0,0:0|0:0,0:0:0:0:
335,126,81577,6,0,P|224:109|125:92,1,191.999994140625,14|8,0:0|0:0,0:0:0:0:
145,247,82027,1,0,0:0:0:0:
203,186,82177,5,8,0:0:0:0:
322,348,82327,1,8,0:0:0:0:
489,238,82477,1,8,0:0:0:0:
489,238,82627,1,0,0:0:0:0:
424,275,82777,6,0,P|440:332|446:382,1,95.9999970703126,6|0,0:3|2:0,0:0:0:0:
488,164,83077,2,0,P|472:107|466:57,1,95.9999970703126,6|0,0:3|2:0,0:0:0:0:
291,60,83377,5,6,0:3:0:0:
335,126,83527,1,6,0:3:0:0:
299,197,83677,1,6,0:3:0:0:
125,340,83977,6,0,P|135:280|148:237,1,95.9999970703126,6|0,0:3|2:0,0:3:0:0:
96,90,84277,2,0,P|86:150|73:193,1,95.9999970703126,6|0,0:3|2:0,0:3:0:0:
76,183,84577,5,6,0:3:0:0:
435,200,84877,1,6,0:3:0:0:
435,200,85177,6,0,P|405:304|389:386,1,191.999994140625,14|8,0:0|0:0,0:0:0:0:
333,254,85627,1,0,0:0:0:0:
358,180,85777,2,0,P|349:136|335:81,1,95.9999970703126,8|0,0:0|0:0,0:0:0:0:
435,12,86077,2,0,P|444:56|458:111,1,95.9999970703126,8|0,0:0|0:0,0:0:0:0:
271,130,86377,6,0,P|286:24|398:24,1,191.999994140625,14|8,0:0|0:0,0:0:0:0:
336,86,86827,1,0,0:0:0:0:
271,130,86977,5,8,0:0:0:0:
94,57,87127,1,8,0:0:0:0:
12,231,87277,2,0,P|34:294|49:378,1,143.999995605469,10|0,0:0|2:0,0:0:0:0:
79,276,87577,6,0,P|96:232|81:188,1,95.9999970703126,14|0,0:0|0:0,0:0:0:0:
11,65,87877,2,0,P|-5:109|10:154,1,95.9999970703126,0|2,0:0|0:0,0:0:0:0:
178,280,88177,6,0,P|147:350|137:385,1,95.9999970703126,14|0,0:0|0:0,0:0:0:0:
299,174,88477,2,0,P|330:104|340:69,1,95.9999970703126,2|0,0:0|0:0,0:0:0:0:
466,340,88777,5,14,0:0:0:0:
449,267,88927,1,0,0:0:0:0:
376,284,89077,1,14,0:0:0:0:
393,357,89227,1,0,0:0:0:0:
466,340,89377,5,14,0:0:0:0:
385,177,89527,1,10,0:0:0:0:
285,329,89677,1,14,0:0:0:0:
466,340,89827,1,10,0:0:0:0:
376,284,89977,6,0,P|252:306|164:317,1,191.999994140625,14|8,0:0|0:0,0:0:0:0:
126,267,90427,1,0,0:0:0:0:
54,290,90577,2,0,P|47:341|34:390,1,95.9999970703126,8|0,0:0|0:0,0:0:0:0:
199,230,90877,2,0,P|187:183|180:135,1,95.9999970703126,8|0,0:0|0:0,0:0:0:0:
0,12,91177,6,0,P|73:76|160:62,1,191.999994140625,14|8,0:0|0:0,0:0:0:0:
180,135,91627,1,0,0:0:0:0:
233,80,91777,5,8,0:0:0:0:
395,192,91927,1,8,0:0:0:0:
312,370,92077,1,8,0:0:0:0:
312,370,92227,1,0,0:0:0:0:
366,313,92377,6,0,P|412:306|464:302,1,95.9999970703126,6|0,0:3|2:0,0:0:0:0:
234,348,92677,2,0,P|188:355|136:359,1,95.9999970703126,6|0,0:3|2:0,0:0:0:0:
1,206,92977,5,6,0:3:0:0:
68,243,93127,1,6,0:3:0:0:
121,188,93277,1,6,0:3:0:0:
278,36,93577,6,0,P|288:94|293:145,1,95.9999970703126,6|0,0:3|2:0,0:3:0:0:
234,348,93877,2,0,P|224:290|219:239,1,95.9999970703126,6|0,0:3|2:0,0:3:0:0:
52,141,94177,5,6,0:3:0:0:
460,243,94477,1,6,0:3:0:0:
460,243,94777,6,0,P|357:269|319:360,1,191.999994140625,14|8,0:0|0:0,0:0:0:0:
412,136,95227,1,0,0:0:0:0:
480,167,95377,2,0,P|488:125|490:72,1,95.9999970703126,8|8,0:0|0:0,0:0:0:0:
356,9,95677,2,0,P|348:51|346:104,1,95.9999970703126,8|0,0:0|0:0,0:0:0:0:
306,170,95977,6,0,P|212:129|212:28,1,191.999994140625,14|8,0:0|0:0,0:0:0:0:
140,4,96427,1,0,0:0:0:0:
84,58,96577,5,12,0:0:0:0:
217,182,96727,1,8,0:0:0:0:
109,350,96877,1,10,0:0:0:0:
174,313,97027,5,0,0:0:0:0:
157,235,97177,5,14,0:0:0:0:
140,157,97327,1,0,0:0:0:0:
79,252,97477,1,14,0:0:0:0:
62,174,97627,1,2,0:0:0:0:
294,205,97777,5,12,0:0:0:0:
311,127,97927,1,0,0:0:0:0:
372,222,98077,1,14,0:0:0:0:
389,144,98227,1,0,0:0:0:0:
260,61,98377,5,2,0:2:0:0:
251,77,98452,1,0,0:0:0:0:
242,93,98527,1,0,0:0:0:0:
235,110,98602,1,0,0:0:0:0:
229,128,98677,1,0,0:0:0:0:
224,146,98752,1,0,0:0:0:0:
220,164,98827,1,0,0:0:0:0:
217,182,98902,1,0,0:0:0:0:
173,242,98977,5,2,0:2:0:0:
177,250,99052,1,0,0:0:0:0:
181,259,99127,1,0,0:0:0:0:
184,268,99202,1,0,0:0:0:0:
187,277,99277,1,0,0:0:0:0:
189,286,99352,1,0,0:0:0:0:
191,295,99427,1,0,0:0:0:0:
193,304,99502,1,0,0:0:0:0:
252,350,99577,5,2,0:2:0:0:
76,74,107977,5,0,0:0:0:0:
76,74,108052,1,0,0:0:0:0:
76,74,108127,1,0,0:0:0:0:
76,74,108202,1,0,0:0:0:0:
76,74,108277,5,0,0:0:0:0:
76,74,108352,1,0,0:0:0:0:
76,74,108427,1,0,0:0:0:0:
76,74,108502,1,0,0:0:0:0:
76,74,108577,6,0,L|69:111,1,20
78,110,108652,2,0,L|71:147,1,20
80,146,108727,2,0,L|73:183,1,20
82,182,108802,2,0,L|75:219,1,20
84,218,108877,6,0,L|77:255,1,20
438,366,109177,5,12,0:0:0:0:
446,290,109327,1,2,0:0:0:0:
377,322,109477,1,10,0:0:0:0:
438,366,109627,5,0,0:0:0:0:
383,244,109777,1,10,0:0:0:0:
305,353,109927,1,0,0:0:0:0:
377,322,110077,5,10,0:0:0:0:
254,293,110227,1,2,0:0:0:0:
197,234,110377,5,8,0:0:0:0:
276,214,110527,1,2,0:0:0:0:
298,135,110677,1,10,0:0:0:0:
460,207,110827,1,0,0:0:0:0:
383,244,110977,5,8,0:0:0:0:
390,159,111127,1,2,0:0:0:0:
460,207,111277,1,10,0:0:0:0:
254,293,111427,1,10,0:0:0:0:
48,379,111577,5,12,0:0:0:0:
26,305,111727,1,2,0:0:0:0:
101,322,111877,1,10,0:0:0:0:
48,379,112027,5,0,0:0:0:0:
80,245,112177,1,10,0:0:0:0:
180,339,112327,1,0,0:0:0:0:
101,322,112477,5,10,0:0:0:0:
139,186,112627,1,2,0:0:0:0:
59,165,112777,5,8,0:0:0:0:
50,93,112927,1,2,0:0:0:0:
159,264,113077,1,10,0:0:0:0:
4,226,113227,1,0,0:0:0:0:
139,186,113377,5,10,0:0:0:0:
217,208,113527,1,10,0:0:0:0:
159,264,113677,1,14,0:0:0:0:
200,124,113827,1,10,0:0:0:0:
323,204,113977,5,12,0:0:0:0:
388,244,114127,1,2,0:0:0:0:
462,233,114277,1,10,0:0:0:0:
323,204,114427,5,0,0:0:0:0:
434,302,114577,1,10,0:0:0:0:
293,349,114727,1,0,0:0:0:0:
406,371,114877,5,10,0:0:0:0:
462,233,115027,1,2,0:0:0:0:
416,175,115177,5,8,0:0:0:0:
404,101,115327,1,2,0:0:0:0:
474,127,115477,1,10,0:0:0:0:
392,27,115627,1,0,0:0:0:0:
278,88,115777,5,10,0:0:0:0:
215,44,115927,1,2,0:0:0:0:
209,121,116077,1,10,0:0:0:0:
28,202,116227,1,10,0:0:0:0:
190,316,116377,5,12,0:0:0:0:
140,260,116527,1,2,0:0:0:0:
117,332,116677,1,10,0:0:0:0:
190,316,116827,5,0,0:0:0:0:
198,205,116977,1,10,0:0:0:0:
133,116,117127,1,0,0:0:0:0:
140,260,117277,5,10,0:0:0:0:
247,264,117427,1,2,0:0:0:0:
117,332,117577,5,8,0:0:0:0:
46,364,117727,1,2,0:0:0:0:
53,286,117877,1,10,0:0:0:0:
117,332,118027,1,0,0:0:0:0:
72,205,118177,5,10,0:0:0:0:
140,260,118327,1,2,0:0:0:0:
210,130,118477,1,8,0:0:0:0:
106,24,118627,1,8,0:0:0:0:
58,85,118777,5,6,0:0:0:0:
73,103,120577,6,0,P|79:141|82:179,1,64,6|0,1:2|0:0,0:0:0:0:
153,178,120877,6,0,P|147:140|144:102,1,64,2|0,1:2|0:0,0:2:0:0:
107,232,121177,1,8,1:2:0:0:
36,226,121327,2,0,P|19:290|52:354,1,128,2|0,0:2|0:2,0:2:0:0:
46,349,121702,1,0,0:0:0:0:
51,351,121777,6,0,P|125:364|200:379,1,128,2|2,0:2|1:2,0:0:0:0:
224,324,122227,2,0,P|263:321|318:314,1,64,2|8,0:0|1:2,0:0:0:0:
350,345,122527,1,2,0:2:0:0:
405,304,122677,2,0,P|443:331|464:351,1,64,2|0,0:2|0:0,0:0:0:0:
350,345,122977,5,2,1:2:0:0:
421,188,123277,1,2,0:2:0:0:
476,255,123577,1,10,1:2:0:0:
476,255,123652,1,0,0:0:0:0:
476,255,123727,2,0,P|427:221|349:233,1,128,2|2,0:2|0:2,0:2:0:0:
359,219,124102,1,2,0:2:0:0:
356,212,124177,6,0,P|343:135|332:66,1,128,2|0,0:2|1:2,0:0:0:0:
376,31,124627,1,0,0:0:0:0:
271,96,124777,5,8,1:2:0:0:
262,165,124927,1,0,0:0:0:0:
199,136,125077,1,2,0:2:0:0:
190,205,125227,1,2,0:2:0:0:
127,176,125377,6,0,P|74:189|39:194,1,64,2|0,1:2|0:2,0:2:0:0:
69,263,125677,2,0,P|122:250|157:245,1,64,2|0,0:2|0:0,0:2:0:0:
4,228,125977,1,8,1:2:0:0:
64,190,126127,2,0,P|79:116|74:45,1,128,2|2,0:2|0:2,0:2:0:0:
75,57,126502,1,2,0:2:0:0:
71,51,126577,6,0,L|-3:43,1,64,2|0,0:2|0:2,0:0:0:0:
142,27,126877,1,2,1:2:0:0:
190,81,127027,1,2,0:2:0:0:
213,10,127177,5,8,1:2:0:0:
120,129,127327,1,2,0:2:0:0:
176,182,127477,2,0,P|170:239|161:269,1,64,2|0,0:2|0:0,0:0:0:0:
110,283,127777,5,2,1:2:0:0:
332,367,128077,1,2,0:2:0:0:
375,176,128377,5,10,1:2:0:0:
306,193,128527,1,2,0:2:0:0:
323,262,128677,1,0,1:0:0:0:
399,252,128827,1,2,1:2:0:0:
399,252,128902,1,2,0:2:0:0:
399,252,128977,2,0,P|450:259|486:267,1,64,2|0,1:2|0:0,0:0:0:0:
512,213,129277,1,10,1:2:0:0:
282,39,129577,5,8,1:2:0:0:
235,118,129727,1,10,1:2:0:0:
136,75,129877,1,10,1:2:0:0:
172,159,130027,1,10,1:2:0:0:
122,214,130177,6,0,P|86:206|45:193,1,64,2|0,1:2|0:0,0:2:0:0:
15,262,130477,2,0,P|51:270|92:283,1,64,2|0,0:2|0:0,0:0:0:0:
107,137,130777,1,10,1:2:0:0:
60,198,130927,2,0,P|30:129|33:64,1,128,2|2,0:2|0:2,0:2:0:0:
33,71,131302,1,2,0:2:0:0:
38,67,131377,6,0,L|110:54,1,64,2|0,0:2|0:0,0:0:0:0:
146,3,131677,1,2,1:2:0:0:
198,49,131827,2,0,P|266:61|352:71,1,128
388,43,132277,2,0,P|413:70|439:94,1,64,2|0,0:2|0:0,0:0:0:0:
498,88,132577,5,2,1:2:0:0:
436,288,132877,1,2,0:2:0:0:
511,259,133177,1,10,1:2:0:0:
511,259,133252,1,0,0:0:0:0:
511,259,133327,2,0,P|439:246|372:234,1,128,2|2,0:2|0:2,0:2:0:0:
379,239,133702,1,2,0:2:0:0:
374,242,133777,6,0,P|343:314|356:374,1,128,2|0,0:2|1:2,0:0:0:0:
286,384,134227,1,0,0:0:0:0:
224,318,134377,5,8,1:2:0:0:
215,249,134527,1,0,0:0:0:0:
152,278,134677,1,2,0:2:0:0:
143,209,134827,1,2,0:2:0:0:
80,238,134977,6,0,P|44:243|3:254,1,64,2|0,1:2|0:2,0:2:0:0:
21,175,135277,2,0,P|52:170|83:163,1,64,2|0,0:2|0:0,0:2:0:0:
143,209,135577,1,8,1:2:0:0:
206,169,135727,2,0,P|224:100|218:25,1,128,2|2,0:2|0:2,0:2:0:0:
220,37,136102,1,2,0:2:0:0:
215,32,136177,6,0,L|135:24,1,64,2|0,0:2|0:2,0:0:0:0:
100,75,136477,1,2,1:2:0:0:
258,114,136627,2,0,L|338:105,1,64,2|8,0:2|1:2,0:0:0:0:
366,54,136927,1,2,0:2:0:0:
206,169,137077,2,0,P|194:221|198:252,1,64,2|0,0:2|0:0,0:0:0:0:
253,275,137377,5,0,1:3:0:0:
325,284,137527,1,0,1:3:0:0:
281,341,137677,5,0,1:3:0:0:
145,364,137827,1,0,1:3:0:0:
82,334,137977,5,0,1:3:0:0:
72,317,138052,1,0,1:3:0:0:
64,300,138127,1,0,1:3:0:0:
57,282,138202,1,0,1:3:0:0:
51,263,138277,1,0,1:3:0:0:
47,244,138352,1,0,1:3:0:0:
45,225,138427,1,0,1:3:0:0:
43,206,138502,1,0,1:3:0:0:
44,187,138577,6,0,L|39:161,14,16,0|0|0|0|0|0|0|0|0|0|0|0|0|0|0,1:3|1:3|1:3|1:3|1:3|1:3|1:3|1:3|1:3|1:3|1:3|1:3|1:3|1:3|1:3,1:3:0:0:
90,123,139177,6,0,L|91:112,28,8,0|0|0|0|0|0|0|0|0|0|0|0|0|0|0|0|0|0|0|0|0|0|0|0|0|0|0|0|0,1:3|1:3|1:3|1:3|1:3|1:3|1:3|1:3|1:3|1:3|1:3|1:3|1:3|1:3|1:3|1:3|1:3|1:3|1:3|1:3|1:3|1:3|1:3|1:3|1:3|1:3|1:3|1:3|1:3,1:3:0:0:
44,63,139777,5,4,1:2:0:0:
37,62,149377,5,2,1:2:0:0:
36,79,149452,1,0,0:0:0:0:
35,96,149527,1,0,0:0:0:0:
34,113,149602,1,0,0:0:0:0:
33,130,149677,6,0,L|29:174,3,35.9999989013672,10|0|0|0,1:2|0:0|0:2|0:0,0:0:0:0:
42,169,149977,2,0,L|38:213,3,35.9999989013672,2|0|0|0,1:2|0:0|0:2|0:0,0:2:0:0:
101,229,150277,6,0,L|105:273,1,35.9999989013672,10|0,1:2|0:0,0:0:0:0:
92,268,150427,2,0,L|96:312,1,35.9999989013672,2|0,1:2|0:0,0:0:0:0:
65,360,150577,5,10,1:2:0:0:
79,349,150652,1,0,0:0:0:0:
95,342,150727,1,0,0:2:0:0:
112,339,150802,1,0,0:0:0:0:
129,339,150877,2,0,P|151:341|187:354,1,35.9999989013672,8|0,1:2|0:0,0:0:0:0:
238,342,151027,5,10,1:2:0:0:
252,353,151102,1,0,0:0:0:0:
268,360,151177,1,0,0:0:0:0:
285,363,151252,1,0,0:0:0:0:
302,363,151327,2,0,P|324:361|360:348,1,35.9999989013672,0|0,1:2|0:0,0:0:0:0:
421,384,151477,6,0,P|428:305|450:169,2,207.999990478516,10|2|10,1:1|1:2|1:2,0:2:0:0:
471,110,152377,5,2,1:2:0:0:
471,110,152452,1,0,0:0:0:0:
471,110,152527,2,0,L|423:103,1,35.9999989013672,2|0,0:2|0:0,0:0:0:0:
352,63,152677,2,0,L|400:56,1,35.9999989013672,10|0,1:2|0:0,0:2:0:0:
508,46,152827,2,0,L|460:39,1,35.9999989013672,8|0,1:2|0:0,0:0:0:0:
352,63,152977,6,0,L|345:119,1,35.9999989013672,10|0,1:2|0:0,0:0:0:0:
297,176,153127,2,0,L|292:140,3,35.9999989013672,8|0|2|0,1:2|0:0|0:2|0:0,0:2:0:0:
225,94,153427,2,0,L|218:150,3,35.9999989013672,10|0|0|0,1:2|0:0|0:0|0:0,0:2:0:0:
178,230,153727,6,0,P|163:200|154:159,1,51.999997619629,10|0,1:2|0:0,0:0:0:0:
112,36,153877,2,0,P|97:66|88:107,1,51.999997619629,10|0,1:1|0:0,0:2:0:0:
33,149,154027,2,0,L|110:162,1,51.999997619629,0|0,0:0|0:2,0:0:0:0:
178,230,154177,5,2,1:2:0:0:
187,245,154252,1,0,0:0:0:0:
195,260,154327,1,0,0:2:0:0:
201,276,154402,1,0,0:0:0:0:
207,292,154477,2,0,P|216:321|218:344,3,35.9999989013672,10|0|0|0,1:2|0:0|0:0|0:2,0:2:0:0:
241,329,154777,2,0,P|239:359|233:381,3,35.9999989013672,2|0|2|0,1:2|0:0|0:2|0:0,0:0:0:0:
123,368,155077,6,0,P|144:361|168:356,1,35.9999989013672,8|0,1:2|0:0,0:0:0:0:
346,335,155227,2,0,P|325:328|301:323,1,35.9999989013672,10|0,1:2|0:0,0:0:0:0:
297,256,155377,5,10,1:2:0:0:
314,254,155452,1,0,0:0:0:0:
331,252,155527,1,0,0:2:0:0:
348,250,155602,1,0,0:0:0:0:
365,249,155677,2,0,L|409:245,1,35.9999989013672,10|0,1:2|0:0,0:0:0:0:
332,180,155827,5,10,1:2:0:0:
349,178,155902,1,0,0:0:0:0:
366,176,155977,1,0,0:0:0:0:
383,174,156052,1,0,0:0:0:0:
400,173,156127,2,0,L|444:169,1,35.9999989013672,8|0,1:2|0:0,0:0:0:0:
495,115,156277,6,0,P|473:213|460:341,2,207.999990478516,10|8|8,1:1|1:2|1:2,0:2:0:0:
256,32,157177,1,8,1:2:0:0:
17,115,157477,2,0,P|47:112|76:108,1,51.999997619629,8|0,1:2|0:0,0:0:0:0:
114,180,157627,2,0,P|84:183|55:187,1,51.999997619629,8|0,1:2|0:0,0:0:0:0:
152,101,157777,5,8,1:2:0:0:
16,258,157927,1,0,1:0:0:0:
16,258,158002,1,0,0:0:0:0:
15,257,158077,2,0,P|40:259|66:262,1,51.999997619629
145,256,158227,5,0,1:0:0:0:
143,266,158302,1,0,0:0:0:0:
141,276,158377,1,0,0:0:0:0:
139,286,158452,1,0,0:0:0:0:
138,296,158527,2,0,L|127:353,1,35.9999989013672,0|0,1:0|0:0,0:0:0:0:
72,373,158677,5,2,1:0:0:0:
201,342,158827,1,2,1:0:0:0:
66,262,158977,6,0,P|37:166|43:64,1,191.999994140625,14|10,0:0|0:0,0:0:0:0:
122,103,159427,1,0,0:0:0:0:
189,51,159577,2,0,P|211:95|211:150,1,95.9999970703126,10|2,0:0|0:0,0:0:0:0:
353,326,159877,5,8,0:0:0:0:
309,384,160027,1,2,0:0:0:0:
309,384,160102,1,0,0:0:0:0:
309,384,160177,2,0,P|318:279|327:163,1,191.999994140625,10|10,0:0|0:0,0:0:0:0:
286,131,160627,1,2,0:0:0:0:
471,1,160777,5,8,0:0:0:0:
499,72,160927,1,10,0:0:0:0:
444,126,161077,1,10,0:0:0:0:
324,192,161227,5,0,0:0:0:0:
378,142,161377,2,0,P|461:165|481:281,1,191.999994140625,10|10,0:0|0:0,0:0:0:0:
425,293,161827,1,0,0:0:0:0:
324,192,161977,6,0,P|320:130|305:68,1,95.9999970703126,10|2,0:0|0:0,0:0:0:0:
354,40,162277,1,8,0:0:0:0:
245,231,162427,1,2,0:0:0:0:
245,231,162502,1,0,0:0:0:0:
245,231,162577,2,0,P|213:324|210:391,1,143.999995605469,10|0,0:0|2:0,0:0:0:0:
209,368,162877,2,0,L|107:354,1,95.9999970703126,10|0,0:0|0:0,0:0:0:0:
50,384,163177,5,10,0:0:0:0:
20,250,163327,1,10,0:0:0:0:
180,283,163477,1,10,0:0:0:0:
150,149,163627,1,2,0:0:0:0:
87,184,163777,6,0,P|57:103|73:-7,1,191.999994140625,14|10,0:0|0:0,0:0:0:0:
150,149,164227,1,0,0:0:0:0:
195,206,164377,1,10,0:0:0:0:
250,160,164527,2,0,P|299:157|368:137,1,95.9999970703126,2|8,0:0|0:0,0:0:0:0:
455,383,164827,5,2,0:0:0:0:
455,383,164902,1,0,0:0:0:0:
455,383,164977,1,10,0:0:0:0:
398,327,165127,1,0,0:0:0:0:
474,305,165277,1,10,0:0:0:0:
417,251,165427,5,2,0:0:0:0:
320,373,165577,1,8,0:0:0:0:
264,228,165727,1,10,0:0:0:0:
417,251,165877,1,10,0:0:0:0:
248,356,166027,5,0,0:0:0:0:
221,290,166177,2,0,P|128:291|67:379,1,191.999994140625,10|10,0:0|0:0,0:0:0:0:
264,228,166627,1,0,0:0:0:0:
214,172,166777,5,10,0:0:0:0:
214,172,166852,1,0,0:0:0:0:
214,172,166927,2,0,P|165:167|104:160,1,95.9999970703126,2|8,0:0|0:0,0:0:0:0:
329,293,167227,5,2,0:0:0:0:
329,293,167302,1,0,0:0:0:0:
329,293,167377,2,0,P|378:288|439:281,1,95.9999970703126,14|8,0:0|0:0,0:0:0:0:
165,373,167677,2,0,P|116:368|55:361,1,95.9999970703126,10|10,0:0|0:0,0:0:0:0:
5,384,167977,5,12,0:0:0:0:
221,290,168127,1,8,0:0:0:0:
118,161,168277,5,10,0:0:0:0:
151,240,168427,1,10,0:0:0:0:
151,240,168502,1,0,0:0:0:0:
151,240,168577,2,0,P|101:231|29:220,1,95.9999970703126,14|0,0:0|0:0,0:0:0:0:
231,38,168877,2,0,P|203:139|214:200,1,143.999995605469,10|0,0:0|2:0,0:0:0:0:
207,176,169177,1,10,0:0:0:0:
306,253,169327,2,0,P|321:204|316:145,1,95.9999970703126,2|8,0:0|0:0,0:0:0:0:
372,95,169627,5,2,0:0:0:0:
372,95,169702,1,0,0:0:0:0:
372,95,169777,2,0,L|473:106,1,95.9999970703126,10|0,0:0|0:0,0:0:0:0:
427,19,170077,1,10,0:0:0:0:
319,159,170227,1,2,0:0:0:0:
333,333,170377,5,8,0:0:0:0:
387,278,170527,1,10,0:0:0:0:
458,306,170677,1,10,0:0:0:0:
262,361,170827,5,0,0:0:0:0:
208,306,170977,2,0,P|203:250|189:194,1,95.9999970703126,14|0,1:0|0:0,0:0:0:0:
194,211,171277,2,0,P|126:251|36:239,1,143.999995605469,10|0,0:0|2:0,0:0:0:0:
3,223,171577,1,10,0:0:0:0:
66,130,171727,2,0,P|118:140|169:146,1,95.9999970703126,2|8,0:0|0:0,0:0:0:0:
303,8,172027,5,2,0:0:0:0:
303,8,172102,1,0,0:0:0:0:
303,8,172177,2,0,P|315:64|323:123,1,95.9999970703126,10|0,0:0|0:0,0:0:0:0:
426,149,172477,2,0,P|415:102|408:54,1,95.9999970703126,10|2,0:0|0:0,0:0:0:0:
498,83,172777,5,8,0:0:0:0:
347,183,172927,1,8,0:0:0:0:
512,200,173077,1,10,0:0:0:0:
361,300,173227,1,2,0:0:0:0:
439,354,173377,6,0,P|449:295|439:246,1,95.9999970703126,14|0,0:0|0:0,0:0:0:0:
282,118,173677,2,0,P|259:201|270:273,1,143.999995605469,10|0,0:0|2:0,0:0:0:0:
265,257,173977,1,10,0:0:0:0:
199,320,174127,2,0,L|95:311,1,95.9999970703126,2|8,0:0|0:0,0:0:0:0:
45,378,174427,5,2,0:0:0:0:
45,378,174502,1,0,0:0:0:0:
45,378,174577,1,14,0:0:0:0:
6,186,174727,1,0,0:0:0:0:
191,248,174877,1,10,0:0:0:0:
103,311,175027,5,2,0:0:0:0:
166,84,175177,1,8,0:0:0:0:
331,252,175327,1,10,0:0:0:0:
103,311,175477,1,10,0:0:0:0:
288,193,175627,5,0,0:0:0:0:
331,252,175777,2,0,P|380:243|435:237,1,95.9999970703126,14|0,0:0|0:0,0:0:0:0:
467,147,176077,2,0,P|418:156|363:162,1,95.9999970703126,10|0,0:0|0:0,0:0:0:0:
288,193,176377,5,14,0:0:0:0:
252,364,176527,1,2,0:0:0:0:
233,123,176677,1,10,0:0:0:0:
197,294,176827,1,2,0:0:0:0:
197,294,176902,1,0,0:0:0:0:
197,294,176977,6,0,P|145:302|90:313,1,95.9999970703126,2|2,3:2|3:2,0:0:0:0:
315,294,177277,2,0,P|367:302|422:313,1,95.9999970703126,2|2,3:2|3:2,0:0:0:0:
265,193,177577,5,2,3:2:0:0:
233,123,177727,1,2,3:2:0:0:
307,110,177877,1,2,3:2:0:0:
275,40,178027,1,2,3:2:0:0:
265,193,178177,5,4,3:1:0:0:
