osu file format v14

[General]
AudioFilename: audio.mp3
AudioLeadIn: 0
PreviewTime: 49078
Countdown: 0
SampleSet: Soft
StackLeniency: 0.7
Mode: 0
LetterboxInBreaks: 0
WidescreenStoryboard: 0

[Editor]
Bookmarks: 3994,6705,12129,17553,24841,25688,50095
DistanceSpacing: 1
BeatDivisor: 4
GridSize: 4
TimelineZoom: 1.9

[Metadata]
Title:Harmonia
TitleUnicode:Harmonia
Artist:ATSUMI UEDA
ArtistUnicode:ATSUMI UEDA
Creator:Starfy
Version:Easy
Source:pop'n music ラピストリア
Tags:starforyou PON BeatStream Lapistoria 22 Power Of Nature bemani ポップンミュジック Nostalgia ノスタルジア
BeatmapID:1150685
BeatmapSetID:542868

[Difficulty]
HPDrainRate:2
CircleSize:3
OverallDifficulty:2
ApproachRate:3
SliderMultiplier:0.799999999999999
SliderTickRate:1

[Events]
//Background and Video events
0,0,"bgee.jpg",0,0
//Break Periods
//Storyboard Layer 0 (Background)
//Storyboard Layer 1 (Fail)
//Storyboard Layer 2 (Pass)
//Storyboard Layer 3 (Foreground)
//Storyboard Sound Samples

[TimingPoints]
3994,338.983050847458,4,2,1,75,1,0
6705,-100,4,2,1,75,0,0
8400,-100,4,2,99,75,0,0
8739,-100,4,2,1,75,0,0
11112,-100,4,2,99,75,0,0
11451,-100,4,2,1,75,0,0
13824,-100,4,2,99,75,0,0
14163,-100,4,2,1,75,0,0
19248,-100,4,2,99,75,0,0
19587,-100,4,2,1,75,0,0
21960,-100,4,2,99,75,0,0
22299,-100,4,2,1,75,0,0
25010,-100,4,2,1,30,0,0
25688,-100,4,3,1,60,0,0
39248,-100,4,2,1,70,0,0
47383,-100,4,2,1,75,0,0
50095,-100,4,2,1,80,0,1
51790,-100,4,2,99,80,0,1
52129,-100,4,2,1,80,0,1
54502,-100,4,2,99,80,0,1
54841,-100,4,2,1,80,0,1
57214,-100,4,2,99,80,0,1
57553,-100,4,2,1,80,0,1
62638,-100,4,2,99,80,0,1
62977,-100,4,2,1,80,0,1
68061,-100,4,2,99,80,0,1
68400,-100,4,2,1,80,0,1
71790,-100,4,2,1,75,0,0
74841,-100,4,2,99,75,0,0
75180,-100,4,2,1,75,0,0
78909,-100,4,2,99,75,0,0
79248,-100,4,2,1,75,0,0
80265,-100,4,2,99,75,0,0
80604,-100,4,2,1,75,0,0
85688,-100,4,2,99,75,0,0
86027,-100,4,2,1,75,0,0
88400,-100,4,2,99,75,0,0
88739,-100,4,2,1,75,0,0

[Colours]
Combo1 : 255,128,80
Combo2 : 128,255,255
Combo3 : 255,128,192
Combo4 : 255,255,128
Combo5 : 255,128,128
Combo6 : 128,255,128
Combo7 : 128,128,255
Combo8 : 192,192,192

[HitObjects]
308,51,3994,6,0,B|349:113|349:181|293:228|293:228|213:164|117:220|125:332|188:353,1,479.999999999999,12|0,0:3|0:0,0:0:0:0:
264,328,6366,1,8,0:0:0:0:
340,352,6705,6,0,P|384:356|428:348,1,79.9999999999999,12|8,0:3|0:0,0:0:0:0:
416,270,7383,2,0,P|372:266|328:274,1,79.9999999999999,0|8,0:0|0:0,0:0:0:0:
256,272,8061,2,0,P|236:220|260:120,1,160,0|0,0:0|0:0,0:0:0:0:
276,44,9078,1,8,0:0:0:0:
335,98,9417,6,0,P|379:102|419:98,1,79.9999999999999,4|8,0:3|0:0,0:0:0:0:
476,152,10095,2,0,L|472:232,1,79.9999999999999,4|8,0:3|0:0,0:0:0:0:
476,312,10773,2,0,B|396:300|396:300|300:312,1,160,0|4,0:0|0:3,0:0:0:0:
252,356,11790,1,8,0:0:0:0:
244,276,12129,6,0,L|153:278,1,79.9999999999999,12|8,0:3|0:0,0:0:0:0:
116,212,12807,2,0,P|121:172|111:133,1,79.9999999999999,0|8,0:0|0:0,0:0:0:0:
32,120,13485,2,0,P|100:128|184:88,1,160,0|4,0:0|0:0,0:0:0:0:
232,28,14502,1,8,0:0:0:0:
260,103,14841,6,0,P|299:99|338:106,1,79.9999999999999,4|8,0:3|0:0,0:0:0:0:
372,128,15349,2,0,L|460:124,2,79.9999999999999,4|4|4,0:3|0:3|0:3,0:0:0:0:
324,192,16366,2,0,P|312:232|316:272,1,79.9999999999999,4|0,0:0|0:0,0:0:0:0:
339,346,17044,2,0,L|295:350,1,40,4|12,0:0|0:0,0:0:0:0:
220,336,17553,6,0,L|128:339,1,79.9999999999999,12|8,0:3|0:0,0:0:0:0:
112,264,18231,2,0,L|32:261,1,79.9999999999999,4|8,0:3|0:0,0:0:0:0:
16,184,18909,2,0,P|0:107|34:36,1,160,4|4,0:3|0:0,0:0:0:0:
108,8,19926,1,8,0:0:0:0:
188,8,20265,6,0,L|280:12,1,79.9999999999999,4|8,0:3|0:0,0:0:0:0:
324,68,20943,2,0,P|363:72|403:69,1,79.9999999999999,4|8,0:3|0:0,0:0:0:0:
475,107,21621,2,0,P|399:125|356:190,1,160,4|4,0:3|0:0,0:0:0:0:
340,268,22638,1,8,0:0:0:0:
384,336,22977,6,0,B|304:266|204:282|204:282|124:376|12:280|44:216,1,439.999999999999,12|4,0:3|0:3,0:0:0:0:
240,176,25688,6,0,P|317:192|395:174,1,160,4|8,0:0|0:2,0:0:0:0:
456,72,26875,2,0,P|358:51|260:70,1,200,4|8,0:2|0:2,0:0:0:0:
192,108,28061,1,0,0:3:0:0:
152,176,28400,6,0,L|156:268,1,79.9999999999999,4|4,0:0|0:0,0:0:0:0:
107,319,29078,2,0,P|162:297|222:301,1,120,8|4,0:2|0:2,0:0:0:0:
282,248,29926,1,4,0:0:0:0:
298,327,30265,2,0,L|377:330,1,79.9999999999999,8|8,0:2|0:2,0:0:0:0:
488,377,31112,6,0,P|504:332|472:224,1,160,4|8,0:0|0:2,0:0:0:0:
492,108,32299,2,0,B|412:104|412:104|372:120|372:120|292:108,1,200,4|8,0:2|0:2,0:0:0:0:
256,40,33485,1,8,0:2:0:0:
216,108,33824,6,0,L|136:112,1,79.9999999999999,4|4,0:0|0:0,0:0:0:0:
132,192,34502,2,0,L|212:196,1,79.9999999999999,4|4,0:0|0:0,0:0:0:0:
216,276,35180,2,0,L|136:280,1,79.9999999999999,8|4,0:2|0:0,0:0:0:0:
132,360,35858,2,0,L|184:368,1,40,6|6,0:0|0:0,0:0:0:0:
250,352,36366,6,0,P|306:348|382:344,1,120,4|8,0:0|0:2,0:0:0:0:
403,228,37383,2,0,B|307:308|209:227|209:227|245:148|322:149,1,360,8|8,0:2|0:2,0:0:0:0:
392,112,39248,6,0,P|396:84|384:24,1,79.9999999999999,4|8,0:3|0:0,0:0:0:0:
308,16,39926,2,0,L|212:20,1,79.9999999999999,4|8,0:3|0:0,0:0:0:0:
176,80,40604,2,0,P|124:68|52:72,2,120,4|0|8,0:3|0:0|0:0,0:0:0:0:
224,144,41960,6,0,P|232:183|228:222,1,79.9999999999999,4|8,0:3|0:0,0:0:0:0:
148,232,42638,2,0,P|139:192|143:153,1,79.9999999999999,4|8,0:3|0:0,0:0:0:0:
176,80,43316,2,0,L|304:84,2,120,4|0|8,0:3|0:0|0:0,0:0:0:0:
97,90,44671,6,0,B|56:204|56:204|84:324,1,240,4|8,0:3|0:0,0:0:0:0:
146,371,46027,2,0,P|185:372|225:365,1,79.9999999999999,0|8,0:0|0:0,0:0:0:0:
296,328,46705,2,0,P|340:320|384:324,1,79.9999999999999,4|8,0:3|0:0,0:0:0:0:
439,370,47383,6,0,B|404:336|408:268|448:232|448:232|500:188|484:80|384:56|324:104|300:164|332:212,1,479.999999999999,12|4,0:3|0:0,0:0:0:0:
341,281,49756,1,8,0:0:0:0:
284,336,50095,6,0,P|240:328|192:324,1,79.9999999999999,12|8,0:3|0:0,0:0:0:0:
160,258,50773,2,0,P|120:265|80:269,1,79.9999999999999,0|8,0:0|0:0,0:0:0:0:
29,331,51451,2,0,P|2:258|47:196,1,160,0|0,0:0|0:0,0:0:0:0:
124,176,52468,1,8,0:0:0:0:
180,116,52807,6,0,L|184:24,1,79.9999999999999,4|8,0:3|0:0,0:0:0:0:
264,20,53485,2,0,L|260:112,1,79.9999999999999,4|8,0:3|0:0,0:0:0:0:
288,176,54163,2,0,P|352:196|444:176,1,160,0|4,0:0|0:3,0:0:0:0:
484,112,55180,1,8,0:0:0:0:
456,36,55519,6,0,L|373:37,1,79.9999999999999,12|8,0:3|0:0,0:0:0:0:
308,80,56197,2,0,P|262:82|212:75,1,79.9999999999999,0|8,0:0|0:0,0:0:0:0:
152,48,56875,2,0,P|84:44|44:124,1,160,0|4,0:0|0:0,0:0:0:0:
116,152,57892,1,8,0:0:0:0:
48,196,58231,6,0,P|52:240|52:284,1,79.9999999999999,4|8,0:3|0:0,0:0:0:0:
84,300,58739,2,0,L|80:380,2,79.9999999999999,4|4|4,0:3|0:3|0:3,0:0:0:0:
128,188,59926,1,8,0:0:0:0:
196,147,60265,2,0,P|231:143|290:151,1,79.9999999999999,4|4,0:3|0:0,0:0:0:0:
344,104,60943,6,0,L|436:100,1,79.9999999999999,12|8,0:3|0:0,0:0:0:0:
432,180,61621,2,0,L|352:183,1,79.9999999999999,0|8,0:0|0:0,0:0:0:0:
288,232,62299,2,0,P|264:268|312:364,1,160,0|0,0:0|0:0,0:0:0:0:
384,336,63316,1,8,0:0:0:0:
452,296,63655,6,0,P|467:259|464:219,1,79.9999999999999,4|8,0:3|0:0,0:0:0:0:
420,152,64332,2,0,P|404:115|407:75,1,79.9999999999999,4|8,0:3|0:0,0:0:0:0:
432,44,64841,2,0,L|520:48,2,79.9999999999999,4|4|4,0:3|0:3|0:0,0:0:0:0:
316,8,66027,1,8,0:0:0:0:
255,60,66366,6,0,P|216:63|176:58,1,79.9999999999999,12|8,0:3|0:0,0:0:0:0:
156,136,67044,2,0,P|116:130|76:134,1,79.9999999999999,0|8,0:0|0:0,0:0:0:0:
20,192,67722,2,0,B|48:236|48:236|-4:284|24:344,1,160,0|4,0:0|0:0,0:0:0:0:
95,305,68739,1,8,0:0:0:0:
168,340,69078,6,0,P|207:344|247:338,1,79.9999999999999,4|8,0:3|0:0,0:0:0:0:
284,322,69587,2,0,L|368:326,2,79.9999999999999,4|4|4,0:3|0:3|0:3,0:0:0:0:
204,232,70773,1,8,0:0:0:0:
144,180,71112,2,0,P|132:141|134:102,1,79.9999999999999,4|4,0:3|0:0,0:0:0:0:
176,32,71790,6,0,L|255:35,1,79.9999999999999,4|4,0:3|0:0,0:0:0:0:
308,95,72468,2,0,P|367:87|425:99,1,120,4|4,0:0|0:0,0:0:0:0:
457,124,73146,6,0,P|452:168|453:212,1,79.9999999999999,4|8,0:3|0:0,0:0:0:0:
392,256,73824,2,0,P|396:295|396:335,1,79.9999999999999,4|8,0:3|0:0,0:0:0:0:
332,384,74502,2,0,P|256:364|168:368,1,160,4|4,0:3|0:3,0:0:0:0:
96,372,75519,1,8,0:0:0:0:
40,316,75858,6,0,B|20:240|20:240|72:176|52:80,1,240,6|8,0:3|0:0,0:0:0:0:
104,24,77214,1,12,0:3:0:0:
168,72,77553,1,8,0:0:0:0:
236,32,77892,2,0,P|280:28|328:32,1,79.9999999999999,4|10,0:0|0:0,0:0:0:0:
364,96,78570,6,0,B|396:72|398:32|398:32|475:118|444:192,1,240,4|8,0:3|0:0,0:0:0:0:
500,244,79926,2,0,P|428:224|300:320,1,240,4|8,0:3|0:0,0:0:0:0:
232,356,81282,6,0,P|200:360|136:352,1,79.9999999999999,4|8,0:3|0:0,0:0:0:0:
120,332,81790,2,0,L|124:240,2,79.9999999999999,4|4|4,0:3|0:3|0:3,0:0:0:0:
40,324,82807,2,0,L|42:267,1,40,4|8,0:0|0:0,0:0:0:0:
58,205,83316,2,0,L|54:125,1,79.9999999999999,4|12,0:3|0:0,0:0:0:0:
108,66,83994,6,0,P|148:62|200:70,1,79.9999999999999,4|8,0:3|0:0,0:0:0:0:
267,81,84671,2,0,P|306:85|346:81,1,79.9999999999999,4|8,0:3|0:0,0:0:0:0:
408,28,85349,2,0,L|400:200,1,160,4|4,0:3|0:3,0:0:0:0:
448,252,86366,1,8,0:0:0:0:
368,264,86705,6,0,P|376:304|360:356,1,79.9999999999999,4|8,0:3|0:0,0:0:0:0:
287,344,87383,2,0,P|279:304|295:252,1,79.9999999999999,4|8,0:3|0:0,0:0:0:0:
256,192,88061,2,0,P|204:152|104:168,1,160,4|4,0:3|0:3,0:0:0:0:
64,224,89078,1,4,0:0:0:0:
80,304,89417,6,0,B|140:316|140:316|212:304,2,120,4|4|4,0:3|0:3|0:3,0:0:0:0:
32,192,90943,2,0,P|24:152|40:108,1,79.9999999999999,4|4,0:3|0:3,0:0:0:0:
92,60,91621,2,0,L|136:64,1,40,8|8,0:0|0:0,0:0:0:0:
212,52,92129,6,0,B|320:36|368:144|368:144|256:216|304:364,1,439.999999999999,12|2,0:3|0:0,0:0:0:0:
