osu file format v14

[General]
AudioFilename: audio.mp3
AudioLeadIn: 0
PreviewTime: 46193
Countdown: 0
SampleSet: Soft
StackLeniency: 0.4
Mode: 0
LetterboxInBreaks: 0
WidescreenStoryboard: 0

[Editor]
Bookmarks: 1109,3820,9244,20092,22803,28227,36363,44498,47210,68905,77041,90600,101447,112295,122464,124498,131278,131956,133312,136702,144837,150261,161109,166532,171956,174498,177380,188227,192125,195515,198566,199075,204498,207210,209075
DistanceSpacing: 1
BeatDivisor: 4
GridSize: 32
TimelineZoom: 2.5

[Metadata]
Title:Harmonia
TitleUnicode:Harmonia
Artist:ATSUMI UEDA
ArtistUnicode:ATSUMI UEDA
Creator:Creamy Candy
Version:y0_'s Normal
Source:pop'n music ラピストリア
Tags:agai132 [Mad] realy0_ DeppyForce xHappy- p_kung penfifteen Xenon Xehn long version full PON Daichi Watanabe japanese video game female vocals BeatStream popn Lapistoria 22 Power Of Nature konami bemani ポップンミュジック Nostalgia ノスタルジア
BeatmapID:2170449
BeatmapSetID:1028168

[Difficulty]
HPDrainRate:3
CircleSize:3.4
OverallDifficulty:4
ApproachRate:5
SliderMultiplier:1.08
SliderTickRate:1

[Events]
//Background and Video events
0,0,"harmonia.png",0,0
//Break Periods
2,166732,170756
//Storyboard Layer 0 (Background)
//Storyboard Layer 1 (Fail)
//Storyboard Layer 2 (Pass)
//Storyboard Layer 3 (Foreground)
//Storyboard Layer 4 (Overlay)
//Storyboard Sound Samples

[TimingPoints]
1109,338.983050847458,4,2,1,68,1,0
1109,-100,4,2,1,68,0,0
1278,-100,4,2,1,38,0,0
1363,-100,4,2,1,48,0,0
1447,-100,4,2,1,63,0,0
1532,-100,4,2,1,68,0,0
1617,-100,4,2,2,68,0,0
1786,-100,4,2,1,58,0,0
2125,-100,4,2,1,68,0,0
2295,-100,4,2,1,43,0,0
2380,-100,4,2,1,58,0,0
2464,-100,4,2,1,68,0,0
2634,-100,4,2,2,68,0,0
2973,-100,4,2,1,68,0,0
3142,-100,4,2,1,68,0,0
3481,-100,4,2,1,68,0,0
3820,-100,4,2,1,68,0,1
4329,-100,4,2,1,68,0,1
5685,-100,4,2,1,68,0,1
5939,-100,4,2,1,38,0,1
6024,-100,4,2,1,68,0,1
6363,-100,4,2,1,68,0,1
6871,-100,4,2,1,68,0,1
8142,-100,4,2,1,38,0,1
8227,-100,4,2,1,68,0,1
9753,-100,4,2,1,68,0,1
10431,-100,4,2,1,68,0,1
10770,-100,4,2,1,68,0,1
11193,-100,4,2,1,38,0,1
11278,-100,4,2,1,68,0,1
11447,-100,4,2,1,38,0,1
11617,-100,4,2,1,53,0,1
11702,-100,4,2,1,68,0,1
11956,-100,4,2,1,68,0,1
12125,-100,4,2,1,48,0,1
12210,-100,4,2,1,63,0,1
12295,-100,4,2,1,68,0,1
12803,-100,4,2,1,68,0,1
13142,-100,4,2,1,68,0,1
13651,-100,4,2,1,68,0,1
13990,-100,4,2,1,68,0,1
14414,-100,4,2,1,31,0,1
14498,-100,4,2,1,68,0,1
14668,-100,4,2,1,68,0,0
15007,-100,4,2,1,68,0,0
15346,-100,4,2,1,68,0,0
16024,-100,4,2,1,68,0,0
16532,-100,4,2,1,38,0,0
16617,-100,4,2,1,48,0,0
16702,-100,4,2,1,68,0,0
17719,-100,4,2,1,68,0,0
18058,-100,4,2,1,68,0,0
18736,-100,4,2,1,68,0,0
19244,-100,4,2,1,43,0,0
19414,-100,4,2,1,68,0,0
20092,-100,4,2,3,68,0,0
20261,-100,4,2,1,38,0,0
20346,-100,4,2,1,43,0,0
20431,-100,4,2,1,68,0,0
20515,-100,4,2,1,48,0,0
20600,-100,4,2,2,68,0,0
20770,-100,4,2,1,68,0,0
21109,-100,4,2,3,68,0,0
21278,-100,4,2,1,38,0,0
21363,-100,4,2,1,43,0,0
21447,-100,4,2,1,68,0,0
21786,-100,4,2,1,55,0,0
21956,-100,4,2,1,68,0,0
22125,-100,4,2,2,46,0,0
22464,-100,4,2,1,68,0,0
22803,-100,4,2,2,55,0,0
23990,-100,4,2,1,55,0,0
24329,-100,4,2,2,55,0,0
25007,-100,4,2,2,28,0,0
25092,-100,4,2,2,37,0,0
25176,-100,4,2,2,55,0,0
26702,-100,4,2,1,55,0,0
27210,-100,4,2,1,55,0,0
28227,-100,4,2,2,55,0,0
28397,-100,4,2,2,34,0,0
28736,-100,4,2,2,56,0,0
29414,-100,4,2,1,55,0,0
30261,-100,4,2,1,35,0,0
30431,-100,4,2,1,28,0,0
30515,-100,4,2,1,50,0,0
30600,-100,4,2,1,58,0,0
30770,-100,4,2,1,55,0,0
31617,-100,4,2,1,42,0,0
31956,-100,4,2,1,52,0,0
32295,-100,4,2,1,58,0,0
32634,-100,4,2,1,68,0,0
32973,-100,4,2,2,68,0,0
33481,-100,4,2,1,68,0,0
34329,-100,4,2,2,68,0,0
34498,-100,4,2,1,68,0,0
35007,-100,4,2,1,38,0,0
35176,-100,4,2,1,58,0,0
35346,-100,4,2,1,68,0,0
36702,-100,4,2,2,58,0,0
36871,-100,4,2,2,34,0,0
37041,-100,4,2,2,58,0,0
37210,-100,4,2,2,48,0,0
37380,-100,4,2,2,58,0,0
38566,-100,4,2,2,45,0,0
38736,-100,4,2,2,58,0,0
39922,-100,4,2,2,48,0,0
40092,-100,4,2,2,58,0,0
40939,-100,4,2,2,48,0,0
41109,-100,4,2,2,58,0,0
41278,-100,4,2,1,38,0,0
41363,-100,4,2,1,48,0,0
41447,-100,4,2,1,63,0,0
42295,-100,4,2,3,48,0,0
42464,-100,4,2,3,68,0,0
42634,-100,4,2,1,68,0,0
43990,-100,4,2,1,48,0,0
44075,-100,4,2,1,68,0,0
44668,-100,4,2,1,33,0,0
44753,-100,4,2,1,38,0,0
44837,-100,4,2,1,58,0,0
44922,-100,4,2,1,68,0,0
45685,-100,4,2,1,33,0,0
45770,-100,4,2,1,53,0,0
45854,-100,4,2,1,68,0,0
46024,-100,4,2,1,68,0,0
47210,-100,4,2,1,68,0,1
49075,-100,4,2,1,68,0,1
49329,-100,4,2,1,28,0,1
49414,-100,4,2,1,68,0,1
49753,-100,4,2,1,68,0,1
50770,-100,4,2,1,68,0,1
51109,-100,4,2,1,68,0,1
53142,-100,4,2,1,68,0,1
53820,-100,4,2,1,68,0,1
54159,-100,4,2,1,68,0,1
54583,-100,4,2,1,38,0,1
54668,-100,4,2,1,68,0,1
54837,-100,4,2,1,38,0,1
54922,-100,4,2,1,48,0,1
55007,-100,4,2,1,68,0,1
55346,-100,4,2,1,68,0,0
55515,-100,4,2,1,38,0,0
55600,-100,4,2,1,48,0,0
55685,-100,4,2,1,58,0,0
55854,-100,4,2,1,68,0,0
56193,-100,4,2,1,68,0,0
56532,-100,4,2,1,68,0,0
57041,-100,4,2,1,68,0,0
57380,-100,4,2,1,68,0,0
58058,-100,4,2,1,68,0,1
59922,-100,4,2,1,68,0,1
60176,-100,4,2,1,38,0,1
60261,-100,4,2,1,68,0,1
60600,-100,4,2,1,68,0,1
61617,-100,4,2,1,68,0,1
61956,-100,4,2,3,68,0,1
62295,-100,4,2,1,68,0,1
62634,-100,4,2,1,68,0,1
63990,-100,4,2,1,68,0,1
64668,-100,4,2,1,68,0,1
65007,-100,4,2,1,68,0,1
65431,-100,4,2,1,38,0,1
65515,-100,4,2,1,68,0,1
65685,-100,4,2,1,38,0,1
65770,-100,4,2,1,48,0,1
65854,-100,4,2,1,68,0,1
66193,-100,4,2,1,68,0,1
66363,-100,4,2,1,38,0,1
66532,-100,4,2,1,68,0,1
66702,-100,4,2,1,68,0,1
67041,-100,4,2,1,68,0,1
67380,-100,4,2,2,68,0,1
67719,-100,4,2,1,68,0,1
67888,-100,4,2,1,68,0,1
68227,-100,4,2,1,68,0,1
68651,-100,4,2,1,28,0,1
68736,-100,4,2,1,68,0,1
68905,-100,4,2,1,68,0,0
69244,-100,4,2,1,68,0,0
69583,-100,4,2,1,68,0,0
70261,-100,4,2,1,68,0,0
71617,-100,4,2,1,68,0,0
71956,-100,4,2,1,68,0,0
72295,-100,4,2,1,68,0,0
72973,-100,4,2,1,68,0,0
73481,-100,4,2,1,42,0,0
73651,-100,4,2,1,68,0,0
73820,-100,4,2,1,48,0,0
73905,-100,4,2,1,50,0,0
73990,-100,4,2,1,68,0,0
74498,-100,4,2,1,40,0,0
74668,-100,4,2,1,68,0,0
75515,-100,4,2,1,37,0,0
75600,-100,4,2,1,41,0,0
75685,-100,4,2,1,68,0,0
76363,-100,4,2,2,46,0,0
76702,-100,4,2,1,68,0,0
77041,-100,4,2,1,65,0,0
77380,-100,4,2,1,55,0,0
78058,-100,4,2,2,55,0,0
78227,-100,4,2,1,55,0,0
79244,-100,4,2,1,25,0,0
79329,-100,4,2,1,45,0,0
79414,-100,4,2,1,47,0,0
79583,-100,4,2,1,45,0,0
79753,-100,4,2,2,55,0,0
80092,-100,4,2,1,55,0,0
80770,-100,4,2,2,53,0,0
80939,-100,4,2,1,55,0,0
81617,-100,4,2,1,55,0,0
81871,-100,4,2,1,55,0,0
81956,-100,4,2,1,55,0,0
82210,-100,4,2,1,55,0,0
82464,-100,4,2,2,55,0,0
82549,-100,4,2,2,35,0,0
82719,-100,4,2,2,42,0,0
82803,-100,4,2,2,55,0,0
83651,-100,4,2,1,55,0,0
84329,-100,4,2,1,45,0,0
84498,-100,4,2,1,55,0,0
84668,-100,4,2,1,27,0,0
84753,-100,4,2,1,31,0,0
84837,-100,4,2,1,55,0,0
85854,-100,4,2,1,35,0,0
86193,-100,4,2,1,45,0,0
86363,-100,4,2,1,55,0,0
86532,-100,4,2,1,59,0,0
86871,-100,4,2,1,63,0,0
87210,-100,4,2,2,63,0,0
87719,-100,4,2,1,63,0,0
88227,-100,4,2,3,63,0,0
88566,-100,4,2,2,63,0,0
88736,-100,4,2,1,63,0,0
89244,-100,4,2,1,48,0,0
89414,-100,4,2,1,63,0,0
89583,-100,4,2,1,55,0,0
90939,-100,4,2,2,58,0,0
91109,-100,4,2,2,35,0,0
91278,-100,4,2,2,58,0,0
91447,-100,4,2,2,48,0,0
91617,-100,4,2,2,58,0,0
92464,-100,4,2,2,38,0,0
92634,-100,4,2,2,58,0,0
92803,-100,4,2,2,50,0,0
92973,-100,4,2,2,58,0,0
93481,-100,4,2,2,40,0,0
93651,-100,4,2,2,58,0,0
93820,-100,4,2,2,38,0,0
93990,-100,4,2,2,58,0,0
94159,-100,4,2,2,46,0,0
94329,-100,4,2,2,42,0,0
94498,-100,4,2,1,58,0,0
94668,-100,4,2,2,58,0,0
95515,-100,4,2,2,32,0,0
95600,-100,4,2,2,41,0,0
95685,-100,4,2,2,58,0,0
96024,-100,4,2,3,58,0,0
96193,-100,4,2,2,58,0,0
97041,-100,4,2,3,58,0,0
98905,-100,4,2,3,31,0,0
98990,-100,4,2,3,39,0,0
99075,-100,4,2,1,58,0,0
99159,-100,4,2,1,68,0,0
99753,-100,4,2,2,68,0,0
99922,-100,4,2,1,38,0,0
100007,-100,4,2,1,58,0,0
100092,-100,4,2,1,68,0,0
100261,-100,4,2,1,68,0,0
101447,-100,4,2,1,68,0,1
103312,-100,4,2,1,68,0,1
103566,-100,4,2,1,41,0,1
103651,-100,4,2,1,68,0,1
103990,-100,4,2,1,68,0,1
105007,-100,4,2,1,68,0,1
105346,-100,4,2,1,68,0,1
107380,-100,4,2,1,68,0,1
108058,-100,4,2,1,68,0,1
108397,-100,4,2,1,68,0,1
109075,-100,4,2,1,42,0,1
109244,-100,4,2,1,68,0,1
109583,-100,4,2,1,68,0,0
109753,-100,4,2,1,38,0,0
109837,-100,4,2,1,44,0,0
109922,-100,4,2,1,68,0,0
110431,-100,4,2,1,68,0,0
110770,-100,4,2,1,68,0,0
111278,-100,4,2,1,68,0,0
111447,-100,4,2,1,48,0,0
111532,-100,4,2,1,52,0,0
111617,-100,4,2,1,68,0,0
112295,-100,4,2,1,68,0,1
114159,-100,4,2,1,68,0,1
114414,-100,4,2,1,41,0,1
114498,-100,4,2,1,68,0,1
114837,-100,4,2,1,68,0,1
115854,-100,4,2,1,68,0,1
116193,-100,4,2,1,68,0,1
116871,-100,4,2,1,68,0,1
118312,-100,4,2,1,48,0,1
118397,-100,4,2,1,68,0,1
118905,-100,4,2,1,68,0,1
119244,-100,4,2,1,68,0,1
119753,-100,4,2,1,68,0,1
119922,-100,4,2,1,43,0,1
120092,-100,4,2,1,68,0,1
120431,-100,4,2,1,68,0,1
120600,-100,4,2,1,32,0,1
120685,-100,4,2,1,45,0,1
120770,-100,4,2,1,63,0,1
121278,-100,4,2,1,63,0,1
121617,-100,4,2,1,63,0,1
122295,-100,4,2,1,28,0,1
122464,-100,4,2,1,48,0,1
122803,-100,4,2,1,58,0,1
123142,-100,4,2,1,68,0,1
123990,-100,4,2,3,68,0,1
124498,-100,4,2,1,68,0,0
125346,-100,4,2,1,37,0,0
125431,-100,4,2,1,47,0,0
125515,-100,4,2,1,68,0,0
125600,-100,4,2,1,35,0,0
125685,-100,4,2,1,55,0,0
125770,-100,4,2,1,68,0,0
125854,-100,4,2,1,73,0,0
131278,-100,4,2,3,68,0,1
131617,-100,4,2,3,62,0,1
131786,-100,4,2,3,47,0,1
131956,-100,4,2,3,61,0,1
132125,-100,4,2,3,40,0,1
132295,-100,4,2,3,56,0,1
132464,-100,4,2,3,42,0,1
132634,-100,4,2,3,57,0,1
132803,-100,4,2,3,39,0,1
132973,-100,4,2,3,56,0,1
133142,-100,4,2,3,38,0,1
133312,-100,4,2,3,66,0,1
133481,-100,4,2,1,39,0,1
133566,-100,4,2,1,52,0,1
133651,-100,4,2,1,68,0,1
134159,-100,4,2,1,48,0,1
134244,-100,4,2,1,58,0,1
134329,-100,4,2,1,68,0,1
134498,-100,4,2,1,68,0,1
134837,-100,4,2,1,68,0,1
135176,-100,4,2,1,68,0,1
136702,-100,4,2,3,68,0,0
136871,-100,4,2,2,68,0,0
137719,-100,4,2,3,68,0,0
137888,-100,4,2,1,68,0,0
139414,-100,4,2,1,56,0,0
140007,-100,4,2,1,36,0,0
140092,-100,4,2,1,56,0,0
141532,-100,4,2,1,35,0,0
141617,-100,4,2,1,56,0,0
142634,-100,4,2,1,34,0,0
142719,-100,4,2,1,55,0,0
142803,-100,4,2,1,58,0,0
145431,-100,4,2,1,44,0,0
145515,-100,4,2,1,58,0,0
146956,-100,4,2,1,32,0,0
147041,-100,4,2,1,58,0,0
148058,-100,4,2,1,31,0,0
148142,-100,4,2,1,39,0,0
148227,-100,4,2,1,58,0,0
148736,-100,4,2,2,58,0,0
149075,-100,4,2,1,58,0,0
149244,-100,4,2,3,58,0,0
149583,-100,4,2,1,58,0,0
149837,-100,4,2,1,45,0,0
149922,-100,4,2,1,58,0,0
150770,-100,4,2,2,58,0,0
150939,-100,4,2,1,58,0,0
151956,-100,4,2,3,57,0,0
152295,-100,4,2,3,58,0,0
152464,-100,4,2,3,32,0,0
152549,-100,4,2,3,42,0,0
152634,-100,4,2,3,58,0,0
152803,-100,4,2,1,58,0,0
154159,-100,4,2,2,58,0,0
154498,-100,4,2,1,58,0,0
155176,-100,4,2,1,36,0,0
155261,-100,4,2,1,42,0,0
155346,-100,4,2,1,68,0,0
155685,-100,4,2,2,58,0,0
155854,-100,4,2,1,47,0,0
156024,-100,4,2,1,58,0,0
156193,-100,4,2,3,58,0,0
156363,-100,4,2,1,58,0,0
156702,-100,4,2,3,58,0,0
158397,-100,4,2,2,58,0,0
158736,-100,4,2,3,58,0,0
159075,-100,4,2,3,33,0,0
159244,-100,4,2,3,68,0,0
159414,-100,4,2,3,61,0,0
160600,-100,4,2,3,35,0,0
160685,-100,4,2,3,44,0,0
160770,-100,4,2,3,58,0,0
162125,-100,4,2,1,58,0,0
163312,-100,4,2,1,36,0,0
163397,-100,4,2,1,40,0,0
163481,-100,4,2,1,68,0,0
163990,-100,4,2,1,34,0,0
164075,-100,4,2,1,42,0,0
164159,-100,4,2,1,68,0,0
164583,-100,4,2,1,38,0,0
164668,-100,4,2,1,68,0,0
165007,-100,4,2,1,34,0,0
165092,-100,4,2,1,43,0,0
165176,-100,4,2,1,68,0,0
165346,-100,4,2,1,68,0,0
166532,-100,4,2,4,63,0,0
167041,-100,4,2,1,33,0,0
171278,-100,4,2,2,46,0,0
171617,-100,4,2,2,55,0,0
171786,-100,4,2,1,61,0,0
171956,-100,4,2,2,51,0,0
174159,-100,4,2,1,51,0,0
174329,-100,4,2,2,51,0,0
174922,-100,4,2,2,57,0,0
175007,-100,4,2,2,66,0,0
175176,-100,4,2,1,68,0,0
175515,-100,4,2,1,68,0,0
175854,-100,4,2,1,68,0,0
176109,-100,4,2,1,28,0,0
176193,-100,4,2,1,68,0,0
176532,-100,4,2,1,32,0,0
176617,-100,4,2,1,53,0,0
176702,-100,4,2,1,68,0,0
176871,-100,4,2,1,50,0,0
177041,-100,4,2,1,54,0,0
177210,-100,4,2,1,57,0,0
177295,-100,4,2,1,67,0,0
177380,-100,4,2,1,68,0,1
179244,-100,4,2,1,68,0,1
179498,-100,4,2,1,49,0,1
179583,-100,4,2,1,68,0,1
179922,-100,4,2,1,68,0,1
180939,-100,4,2,1,68,0,1
181278,-100,4,2,1,68,0,1
181956,-100,4,2,2,68,0,1
182973,-100,4,2,1,68,0,1
183312,-100,4,2,3,68,0,1
183397,-100,4,2,3,49,0,1
183481,-100,4,2,3,68,0,1
183990,-100,4,2,3,68,0,1
184329,-100,4,2,3,68,0,1
184753,-100,4,2,3,38,0,1
184837,-100,4,2,3,68,0,1
185007,-100,4,2,1,68,0,1
185515,-100,4,2,1,68,0,0
186024,-100,4,2,1,68,0,0
186363,-100,4,2,1,68,0,0
186702,-100,4,2,1,68,0,0
187210,-100,4,2,2,68,0,0
187380,-100,4,2,3,68,0,0
187719,-100,4,2,1,68,0,0
187973,-100,4,2,1,41,0,0
188058,-100,4,2,1,68,0,0
188227,-100,4,2,1,68,0,1
188397,-100,4,2,1,48,0,1
188566,-100,4,2,1,68,0,1
190431,-100,4,2,1,39,0,1
190515,-100,4,2,1,68,0,1
192125,-100,4,2,1,68,0,0
193651,-100,4,2,1,68,0,1
195515,-100,4,2,1,42,0,1
195600,-100,4,2,1,38,0,1
195685,-100,4,2,1,68,0,1
195854,-100,4,2,1,31,0,1
195939,-100,4,2,1,48,0,1
196024,-100,4,2,1,68,0,1
196532,-100,4,2,1,48,0,1
196617,-100,4,2,1,58,0,1
196702,-100,4,2,1,68,0,1
197549,-100,4,2,2,68,0,1
197888,-100,4,2,1,68,0,1
198227,-100,4,2,1,68,0,1
198566,-100,4,2,1,68,0,1
199075,-100,4,2,1,68,0,0
199414,-100,4,2,1,68,0,0
199753,-100,4,2,1,68,0,0
200431,-100,4,2,1,68,0,0
200939,-100,4,2,1,39,0,0
201024,-100,4,2,1,47,0,0
201109,-100,4,2,1,68,0,0
202125,-100,4,2,1,68,0,0
202464,-100,4,2,1,68,0,0
203142,-100,4,2,1,68,0,0
203651,-100,4,2,1,45,0,0
203820,-100,4,2,1,68,0,0
203990,-100,4,2,1,54,0,0
204075,-100,4,2,1,34,0,0
204159,-100,4,2,1,58,0,0
204329,-100,4,2,1,68,0,0
206024,-100,4,2,1,68,0,0
206786,-100,4,2,1,48,0,0
207041,-100,4,2,1,68,0,0
207125,-100,4,2,1,48,0,0
207210,-100,4,2,1,68,0,0
207380,-100,4,2,1,53,0,0
207464,-100,4,2,1,58,0,0
207549,-100,4,2,1,68,0,0
207973,-100,4,2,1,40,0,0
208058,-100,4,2,1,68,0,0
208397,-100,4,2,1,43,0,0
208481,-100,4,2,1,56,0,0
208566,-100,4,2,1,36,0,0
208651,-100,4,2,1,68,0,0
208736,-100,4,2,2,68,0,0
208905,-100,4,2,2,48,0,0
209075,-100,4,2,1,68,0,0

[Colours]
Combo1 : 200,130,247
Combo2 : 226,188,137
Combo3 : 0,221,193
Combo4 : 247,145,203

[HitObjects]
177,43,1109,6,0,B|139:35|102:65|102:65|54:70|27:34,2,162,4|4|4,3:2|3:2|3:2,0:0:0:0:
325,107,2634,2,0,B|304:156|304:156|314:209,1,108,4|2,3:2|3:2,0:0:0:0:
360,237,3142,1,0,0:0:0:0:
464,206,3481,1,2,3:0:0:0:
492,103,3820,6,0,L|498:26,2,54,4|2|8,3:2|0:0|0:0,0:0:0:0:
440,120,4329,2,0,P|380:102|352:35,1,108,2|2,0:0|3:2,0:0:0:0:
310,95,4837,1,8,0:0:0:0:
310,95,5007,2,0,P|227:97|177:100,2,108,2|2|2,3:2|3:2|3:2,0:0:0:0:
359,191,6024,2,0,L|435:197,2,54,2|8|2,3:2|0:0|3:2,0:0:0:0:
317,226,6532,5,0,3:0:0:0:
397,297,6871,2,0,L|403:373,1,54,8|2,0:0|0:0,0:0:0:0:
356,380,7210,2,0,P|293:372|254:311,1,108,0|8,3:0|0:0,0:0:0:0:
219,309,7719,2,0,B|128:295|165:353|41:335,1,162,2|8,0:0|0:0,0:0:0:0:
17,310,8397,1,2,0:0:0:0:
17,310,8566,2,0,B|0:258|0:258|15:207,1,108,2|8,3:0|3:2,0:0:0:0:
105,144,9244,6,0,L|111:67,2,54,4|2|8,3:2|0:0|0:0,0:0:0:0:
146,179,9753,2,0,P|199:176|253:175,1,108,2|2,0:0|3:2,0:0:0:0:
300,202,10261,1,8,0:0:0:0:
300,202,10431,2,0,P|332:243|384:255,2,108,2|2|2,3:2|3:2|3:2,0:0:0:0:
354,109,11447,1,8,0:0:0:0:
285,25,11786,1,8,0:0:0:0:
285,25,11956,6,0,B|232:14|232:14|182:35,1,108,4|8,3:2|0:0,0:0:0:0:
158,83,12464,2,0,P|75:85|25:88,2,108,2|2|4,3:2|3:2|3:2,0:0:0:0:
248,141,13481,1,0,3:0:0:0:
248,141,13651,2,0,L|242:217,1,54,10|0,0:0|0:0,0:0:0:0:
283,231,13990,2,0,B|345:227|345:227|369:204|369:204|439:200,1,162,4|6,3:0|3:0,0:0:0:0:
479,232,14668,6,0,P|471:295|410:334,1,108,4|8,3:2|0:0,0:0:0:0:
332,334,15346,2,0,B|293:318|293:318|265:346,2,81,0|0|0,3:0|3:0|3:0,0:0:0:0:
380,308,16024,2,0,B|386:216|331:258|338:132,1,162,0|0,3:0|0:0,0:0:0:0:
365,109,16702,1,0,3:0:0:0:
294,27,17041,1,8,0:0:0:0:
201,83,17380,6,0,P|201:136|204:190,1,108,4|8,3:2|0:0,0:0:0:0:
136,274,18058,2,0,B|97:289|97:289|69:261,2,81,0|0|0,3:0|3:0|3:0,0:0:0:0:
186,293,18736,2,0,B|248:289|248:289|274:309|274:309|344:304,1,162,0|4,3:0|3:0,0:0:0:0:
391,326,19414,1,4,3:0:0:0:
464,246,19753,1,8,3:2:0:0:
399,160,20092,6,0,B|391:122|421:85|421:85|426:37|390:10,2,162,4|4|4,3:2|3:2|3:2,0:0:0:0:
254,234,21617,2,0,B|205:213|205:213|152:223,1,108,4|10,3:2|0:0,0:0:0:0:
31,351,22803,5,4,3:2:0:0:
135,322,23142,1,2,3:2:0:0:
225,380,23481,2,0,B|329:386|282:333|401:338,2,162,8|2|0,0:0|3:2|3:0,0:0:0:0:
135,322,24837,2,0,P|125:268|119:215,1,108,8|8,0:0|0:0,0:0:0:0:
45,135,25515,5,2,3:2:0:0:
113,51,25854,1,0,3:0:0:0:
210,97,26193,2,0,B|272:93|272:93|296:70|296:70|366:66,2,162,8|2|0,0:0|3:2|3:0,0:0:0:0:
236,144,27380,2,0,P|226:197|220:250,1,108,10|10,0:0|0:0,0:0:0:0:
349,348,28227,5,2,3:2:0:0:
436,284,28566,1,2,3:2:0:0:
395,183,28905,2,0,B|396:131|431:85|431:85|465:88|484:103,2,162,8|2|0,0:0|3:2|3:0,0:0:0:0:
315,256,30261,2,0,B|262:266|262:266|213:245,1,108,8|8,0:0|0:0,0:0:0:0:
104,250,30939,5,4,3:2:0:0:
125,144,31278,1,2,3:0:0:0:
36,82,31617,2,0,L|30:6,2,54,8|8|8,0:0|0:0|0:0,0:0:0:0:
6,127,32125,1,8,0:0:0:0:
6,127,32295,2,0,L|0:203,2,54,8|8|8,0:0|0:0|0:0,0:0:0:0:
108,160,32973,5,4,3:2:0:0:
108,160,33142,1,4,3:2:0:0:
189,88,33481,2,0,B|293:94|246:41|365:46,1,162,4|10,3:2|0:0,0:0:0:0:
385,77,34159,2,0,L|379:153,1,54,0|2,0:0|0:0,0:0:0:0:
353,177,34498,6,0,P|300:174|246:173,1,108,4|8,3:2|0:0,0:0:0:0:
197,199,35007,1,8,0:0:0:0:
236,299,35346,2,0,L|312:293,1,54,8|8,3:0|0:0,0:0:0:0:
340,276,35685,2,0,L|416:282,1,54,2|0,3:0|3:0,0:0:0:0:
441,305,36024,1,8,0:0:0:0:
500,214,36363,6,0,B|510:161|510:161|489:112,2,108,4|10|2,3:2|0:0|3:2,0:0:0:0:
450,237,37210,2,0,L|456:313,2,54,2|8|0,0:0|0:0|0:0,0:0:0:0:
399,216,37719,2,0,B|295:210|342:263|223:258,1,162,2|2,3:2|0:0,0:0:0:0:
206,294,38397,1,2,3:2:0:0:
129,217,38736,1,8,0:0:0:0:
21,230,39075,6,0,P|14:155|55:105,1,108,2|8,3:2|0:0,0:0:0:0:
81,116,39583,1,2,0:0:0:0:
81,116,39753,2,0,B|130:137|130:137|183:127,2,108,2|10|0,3:2|0:0|3:0,0:0:0:0:
123,16,40770,1,8,0:0:0:0:
123,16,40939,2,0,B|184:9|184:9|212:27|212:27|282:19,1,162,2|8,0:0|0:0,0:0:0:0:
371,74,41786,6,0,P|361:127|355:180,1,108,4|8,3:2|0:0,0:0:0:0:
397,215,42295,2,0,P|407:268|413:321,1,108,2|0,3:2|3:0,0:0:0:0:
370,355,42803,2,0,B|274:359|321:306|217:312,1,162,12|0,0:0|3:0,0:0:0:0:
176,346,43481,1,8,0:0:0:0:
176,346,43651,2,0,P|116:328|88:261,1,108,0|8,3:0|0:0,0:0:0:0:
107,240,44159,1,8,0:0:0:0:
147,140,44498,6,0,B|109:148|72:118|72:118|24:113|-3:149,2,162,4|0|4,3:2|3:2|3:2,0:0:0:0:
299,83,46024,2,0,B|320:132|320:132|310:185,1,108,4|2,3:2|3:2,0:0:0:0:
354,217,46532,1,8,0:0:0:0:
456,183,46871,1,2,3:0:0:0:
511,276,47210,6,0,L|505:353,2,54,4|2|8,3:2|0:0|0:0,0:0:0:0:
460,295,47719,2,0,P|406:295|352:298,1,108,2|2,3:2|3:2,0:0:0:0:
306,327,48227,1,8,0:0:0:0:
306,327,48397,2,0,P|246:309|218:242,2,108,2|2|2,3:2|3:2|3:2,0:0:0:0:
410,297,49414,2,0,L|416:374,2,54,2|8|2,3:2|0:0|0:0,0:0:0:0:
375,255,49922,5,0,3:0:0:0:
461,189,50261,2,0,L|467:113,1,54,8|2,0:0|0:0,0:0:0:0:
432,92,50600,2,0,P|369:93|324:151,1,108,0|8,3:0|0:0,0:0:0:0:
292,153,51109,2,0,B|230:149|230:149|206:126|206:126|136:122,1,162,2|8,0:0|0:0,0:0:0:0:
92,148,51786,1,2,0:0:0:0:
92,148,51956,2,0,B|75:200|75:200|90:251,1,108,2|8,3:0|3:2,0:0:0:0:
187,298,52634,6,0,L|193:375,2,54,4|2|8,3:2|0:0|0:0,0:0:0:0:
211,249,53142,2,0,P|273:250|318:308,1,108,2|2,3:2|3:2,0:0:0:0:
353,306,53651,1,8,0:0:0:0:
353,306,53821,2,0,P|436:304|486:301,2,108,2|2|2,0:0|3:2|3:2,0:0:0:0:
281,224,54837,1,8,0:0:0:0:
351,142,55176,1,2,3:0:0:0:
351,142,55346,6,0,B|404:131|404:131|454:152,1,108,4|8,3:2|0:0,0:0:0:0:
503,129,55854,2,0,P|495:66|434:27,2,108,2|2|4,3:2|3:2|3:2,0:0:0:0:
405,175,56871,1,0,3:0:0:0:
405,175,57041,2,0,L|409:228,1,54,12|0,0:0|0:0,0:0:0:0:
377,272,57380,2,0,P|315:271|270:213,1,108,6|6,3:0|3:0,0:0:0:0:
174,258,58058,6,0,L|97:264,2,54,4|2|8,3:2|0:0|0:0,0:0:0:0:
199,209,58566,2,0,P|201:155|201:101,1,108,2|2,3:2|3:2,0:0:0:0:
243,66,59075,1,8,0:0:0:0:
243,66,59245,2,0,P|303:48|331:-19,2,108,2|2|2,0:0|3:2|0:0,0:0:0:0:
160,16,60261,1,2,0:0:0:0:
160,16,60431,1,8,0:0:0:0:
160,16,60600,6,0,B|69:2|106:60|-18:42,1,162,2|8,0:0|0:0,0:0:0:0:
33,148,61447,2,0,L|27:225,2,54,0|2|8,3:0|0:0|0:0,0:0:0:0:
85,131,61956,2,0,P|138:131|192:133,1,108,4|0,3:2|3:0,0:0:0:0:
246,122,62464,1,8,0:0:0:0:
246,122,62634,2,0,B|250:184|250:184|273:208|273:208|277:278,1,162,4|8,3:2|0:0,0:0:0:0:
362,339,63481,6,0,L|439:345,2,54,4|2|8,3:2|0:0|0:0,0:0:0:0:
312,362,63990,2,0,P|250:367|199:314,1,108,2|2,3:2|3:2,0:0:0:0:
185,296,64498,1,8,0:0:0:0:
185,296,64668,2,0,P|102:298|52:301,2,108,2|2|2,3:2|3:2|3:2,0:0:0:0:
264,222,65685,1,8,0:0:0:0:
348,289,66024,1,2,3:0:0:0:
348,289,66194,6,0,B|401:300|401:300|451:279,1,108,4|8,3:2|0:0,0:0:0:0:
461,226,66702,2,0,P|463:143|466:93,2,108,2|2|4,3:2|3:2|3:2,0:0:0:0:
356,197,67719,1,0,3:0:0:0:
356,197,67889,2,0,L|350:121,1,54,10|0,0:0|0:0,0:0:0:0:
310,108,68227,2,0,B|219:94|256:152|132:134,1,162,8|2,3:0|3:0,0:0:0:0:
110,104,68905,6,0,P|101:41|150:-12,1,108,4|8,3:2|0:0,0:0:0:0:
228,29,69583,2,0,B|267:45|267:45|295:17,2,81,0|0|0,3:0|3:0|3:0,0:0:0:0:
200,75,70261,2,0,B|204:137|204:137|227:161|227:161|231:231,1,162,0|0,3:0|0:0,0:0:0:0:
253,276,70939,1,0,3:0:0:0:
169,344,71278,1,8,0:0:0:0:
81,280,71617,6,0,P|81:226|84:172,1,108,4|8,3:2|0:0,0:0:0:0:
66,65,72295,2,0,B|27:49|27:49|-1:77,2,81,0|0|0,3:0|3:0|3:0,0:0:0:0:
114,89,72973,2,0,B|205:75|168:133|292:115,1,162,0|4,3:0|3:0,0:0:0:0:
319,138,73651,1,4,3:0:0:0:
410,80,73990,1,8,3:2:0:0:
480,161,74329,6,0,B|488:199|458:236|458:236|453:284|489:311,2,162,4|4|4,3:2|3:2|3:2,0:0:0:0:
340,78,75854,2,0,B|291:99|291:99|238:89,1,108,4|10,3:2|0:0,0:0:0:0:
70,178,77041,5,4,3:2:0:0:
154,245,77380,1,2,3:2:0:0:
146,352,77719,2,0,B|208:348|208:348|232:325|232:325|302:321,2,162,8|2|0,0:0|3:2|3:0,0:0:0:0:
58,288,79075,1,8,0:0:0:0:
125,204,79414,1,2,0:0:0:0:
36,141,79753,6,0,P|26:87|20:34,1,108,2|2,3:2|3:2,0:0:0:0:
124,6,80431,2,0,B|228:0|181:53|300:48,2,162,8|2|0,0:0|3:2|3:0,0:0:0:0:
83,42,81617,2,0,P|91:105|152:144,1,108,10|10,0:0|0:0,0:0:0:0:
235,250,82464,5,2,3:2:0:0:
329,197,82803,1,2,3:2:0:0:
417,258,83142,2,0,B|436:273|470:276|470:276|505:230|506:178,2,162,10|2|0,0:0|3:2|3:0,0:0:0:0:
329,195,84498,2,0,B|350:146|350:146|340:93,1,108,8|8,0:0|0:0,0:0:0:0:
247,36,85176,5,4,3:2:0:0:
156,95,85515,1,2,3:0:0:0:
192,196,85854,2,0,L|268:202,2,54,8|8|8,0:0|0:0|0:0,0:0:0:0:
147,226,86362,1,8,0:0:0:0:
147,226,86532,2,0,L|71:232,2,54,8|8|8,0:0|0:0|0:0,0:0:0:0:
224,302,87210,5,4,3:2:0:0:
224,302,87379,1,4,3:2:0:0:
320,253,87719,2,0,B|382:249|382:249|406:226|406:226|476:222,1,162,4|12,3:2|0:0,0:0:0:0:
508,181,88397,2,0,L|512:127,1,54,2|2,3:0|3:2,0:0:0:0:
467,96,88736,6,0,P|403:92|354:146,1,108,4|8,3:2|0:0,0:0:0:0:
348,166,89244,1,8,0:0:0:0:
245,194,89583,2,0,L|251:118,1,54,8|0,3:0|0:0,0:0:0:0:
284,99,89922,2,0,L|278:23,1,54,8|0,0:0|3:0,0:0:0:0:
242,5,90261,1,8,0:0:0:0:
141,47,90600,6,0,B|88:57|88:57|39:36,2,108,4|10|2,3:2|0:0|3:2,0:0:0:0:
180,83,91447,2,0,L|174:159,2,54,2|8|0,0:0|0:0|0:0,0:0:0:0:
232,66,91956,2,0,B|294:70|294:70|318:93|318:93|388:97,1,162,2|2,3:2|0:0,0:0:0:0:
421,135,92634,1,2,3:2:0:0:
349,216,92973,1,8,0:0:0:0:
245,186,93312,6,0,P|244:239|247:293,1,108,0|8,3:0|0:0,0:0:0:0:
335,356,93990,2,0,B|384:335|384:335|437:345,1,108,2|10,3:2|0:0,0:0:0:0:
490,332,94498,1,0,0:0:0:0:
490,332,94668,2,0,P|514:284|503:232,1,108,2|8,3:2|0:0,0:0:0:0:
423,159,95346,1,2,3:2:0:0:
480,67,95685,1,8,0:0:0:0:
386,14,96024,6,0,P|324:32|296:99,1,108,4|8,3:2|0:0,0:0:0:0:
257,99,96532,2,0,P|301:145|291:217,1,108,4|0,3:2|3:0,0:0:0:0:
258,215,97041,2,0,B|196:211|196:211|172:188|172:188|102:184,1,162,12|0,0:0|3:0,0:0:0:0:
64,219,97719,1,8,0:0:0:0:
64,219,97888,2,0,P|66:302|69:352,1,108,0|8,3:0|0:0,0:0:0:0:
110,360,98397,1,8,0:0:0:0:
209,318,98736,6,0,B|233:350|281:345|281:345|318:315|356:323,2,162,4|4|4,3:2|3:2|3:2,0:0:0:0:
275,169,100261,2,0,B|285:116|285:116|264:67,1,108,4|2,3:2|3:2,0:0:0:0:
285,16,100769,1,8,0:0:0:0:
380,66,101108,1,2,3:0:0:0:
487,53,101447,6,0,L|493:-24,2,54,4|2|8,3:2|0:0|0:0,0:0:0:0:
508,102,101956,2,0,P|479:157|409:173,1,108,2|2,3:2|3:2,0:0:0:0:
406,218,102464,1,8,0:0:0:0:
406,218,102634,2,0,P|404:301|401:351,2,108,2|2|2,3:2|3:2|3:2,0:0:0:0:
308,170,103651,2,0,L|302:93,2,54,2|8|2,3:2|0:0|0:0,0:0:0:0:
270,208,104159,5,0,3:0:0:0:
171,164,104498,2,0,L|95:170,1,54,8|2,0:0|0:0,0:0:0:0:
70,195,104837,2,0,P|78:258|139:297,1,108,0|8,3:0|0:0,0:0:0:0:
161,277,105346,2,0,B|252:270|210:325|336:318,1,162,2|8,0:0|0:0,0:0:0:0:
358,288,106024,1,2,0:0:0:0:
358,288,106193,2,0,B|341:236|341:236|356:185,1,108,2|8,3:0|3:2,0:0:0:0:
461,211,106871,6,0,L|467:288,2,54,4|2|8,3:2|0:0|0:0,0:0:0:0:
495,168,107380,2,0,P|492:115|491:61,1,108,2|2,3:2|3:2,0:0:0:0:
448,26,107888,1,8,0:0:0:0:
448,26,108058,2,0,P|396:33|360:72,2,108,2|2|2,0:0|3:2|3:2,0:0:0:0:
507,116,109074,1,8,0:0:0:0:
429,191,109413,1,8,0:0:0:0:
429,191,109583,6,0,B|379:170|379:170|326:181,1,108,4|8,3:2|0:0,0:0:0:0:
290,221,110092,2,0,P|288:304|285:354,2,108,2|2|4,3:2|3:2|3:2,0:0:0:0:
211,146,111108,1,0,3:0:0:0:
211,146,111278,2,0,L|205:70,1,54,12|8,0:0|0:0,0:0:0:0:
160,64,111617,2,0,P|106:64|52:67,1,108,6|6,3:0|3:0,0:0:0:0:
55,175,112295,6,0,L|1:170,2,54,4|2|8,3:2|0:0|0:0,0:0:0:0:
107,190,112804,2,0,P|146:154|199:151,1,108,2|2,3:2|3:2,0:0:0:0:
236,191,113312,1,8,0:0:0:0:
236,191,113482,2,0,P|238:274|241:324,2,108,2|2|2,0:0|3:2|0:0,0:0:0:0:
342,203,114498,1,2,0:0:0:0:
342,203,114668,1,8,0:0:0:0:
342,203,114837,6,0,B|349:141|349:141|330:113|330:113|338:44,1,162,2|8,0:0|0:0,0:0:0:0:
385,21,115515,1,2,0:0:0:0:
385,21,115685,2,0,L|438:16,1,54,0|2,3:0|0:0,0:0:0:0:
507,99,116193,2,0,P|494:150|452:182,1,108,4|0,3:2|3:0,0:0:0:0:
408,150,116702,1,8,0:0:0:0:
408,150,116871,2,0,B|317:164|354:106|230:124,1,162,4|2,3:2|3:0,0:0:0:0:
148,90,117719,6,0,L|142:13,2,54,4|2|8,3:2|0:0|0:0,0:0:0:0:
117,135,118228,2,0,P|120:188|121:242,1,108,2|2,0:0|3:2,0:0:0:0:
88,286,118736,1,8,0:0:0:0:
88,286,118906,2,0,P|52:324|0:331,2,108,2|2|2,3:2|3:2|3:2,0:0:0:0:
191,316,119922,1,8,0:0:0:0:
265,238,120261,1,2,3:0:0:0:
265,238,120431,6,0,B|318:227|318:227|368:248,1,108,4|8,3:2|0:0,0:0:0:0:
404,287,120939,2,0,P|487:289|537:292,2,108,2|2|4,3:2|3:2|3:2,0:0:0:0:
269,377,122125,1,8,0:0:0:0:
194,298,122464,1,0,3:2:0:0:
194,298,122634,2,0,L|200:222,2,54,8|8|8,0:0|3:2|0:0,0:0:0:0:
148,327,123142,2,0,L|154:403,2,54,8|8|8,3:2|0:0|3:2,0:0:0:0:
95,311,123651,6,0,P|33:310|-12:252,2,108,8|12|0,0:0|0:0|0:0,0:0:0:0:
136,276,124498,2,0,B|129:222|129:222|154:174,1,108,4|2,3:2|0:0,0:0:0:0:
64,112,125176,2,0,B|38:142|38:142|-3:130,2,81,0|8|8,3:0|0:0|3:2,0:0:0:0:
102,74,125854,6,0,P|156:74|210:71,1,108,4|8,3:2|0:0,0:0:0:0:
252,36,126363,2,0,B|343:29|301:84|427:77,1,162,2|8,0:0|0:0,0:0:0:0:
452,102,127041,1,2,0:0:0:0:
430,207,127380,2,0,L|436:283,2,54,2|8|2,0:0|0:0|0:0,0:0:0:0:
382,181,127888,1,0,3:0:0:0:
289,237,128227,1,8,0:0:0:0:
211,161,128566,6,0,B|199:121|199:121|229:95,2,81,0|0|0,3:0|0:0|0:0,0:0:0:0:
178,204,129244,2,0,P|178:257|175:311,1,108,0|8,3:0|0:0,0:0:0:0:
91,381,129922,2,0,P|38:374|1:336,2,108,0|8|0,3:0|0:0|3:0,0:0:0:0:
174,311,130939,1,8,0:0:0:0:
272,355,131278,6,0,L|348:349,1,54,4|0,3:2|0:0,0:0:0:0:
373,324,131617,2,0,L|449:330,1,54,10|2,0:0|0:0,0:0:0:0:
472,299,131956,2,0,P|472:246|440:204,1,108,2|10,3:2|0:0,0:0:0:0:
331,203,132634,2,0,B|277:210|277:210|229:185,1,108,2|2,3:2|0:0,0:0:0:0:
148,256,133312,2,0,L|154:332,2,54,4|8|8,3:0|0:0|0:0,0:0:0:0:
106,220,133820,1,2,3:0:0:0:
106,220,133990,6,0,P|110:166|110:112,1,108,4|8,3:2|0:0,0:0:0:0:
141,68,134498,2,0,P|88:61|51:23,2,108,2|2|4,3:2|3:2|3:2,0:0:0:0:
242,105,135515,1,0,3:0:0:0:
242,105,135685,2,0,L|248:29,1,54,10|0,0:0|3:0,0:0:0:0:
295,29,136024,2,0,P|349:29|403:32,1,108,10|2,0:0|3:0,0:0:0:0:
488,98,136702,6,0,B|467:148|467:148|478:201,1,108,4|0,3:2|3:0,0:0:0:0:
444,242,137210,2,0,P|391:235|354:197,1,108,12|0,0:0|3:0,0:0:0:0:
303,177,137719,2,0,P|329:131|322:78,1,108,12|0,0:0|3:0,0:0:0:0:
275,52,138227,2,0,P|225:72|199:118,1,108,12|0,0:0|3:0,0:0:0:0:
159,155,138736,1,8,0:0:0:0:
59,112,139075,1,6,3:0:0:0:
0,202,139414,6,0,P|0:255|4:309,1,108,4|8,3:2|0:0,0:0:0:0:
49,339,139922,1,2,0:0:0:0:
49,339,140092,2,0,P|103:335|157:335,1,108,0|8,3:0|0:0,0:0:0:0:
205,358,140600,1,2,0:0:0:0:
285,285,140939,1,2,0:0:0:0:
391,325,141278,1,2,0:0:0:0:
391,325,141447,2,0,P|428:287|434:234,1,108,0|8,3:0|0:0,0:0:0:0:
353,162,142125,6,0,L|347:86,2,54,0|2|8,3:0|0:0|0:0,0:0:0:0:
329,211,142634,1,10,0:0:0:0:
329,211,142803,2,0,B|276:222|276:222|226:201,1,108,0|8,3:0|0:0,0:0:0:0:
188,161,143312,2,0,B|195:99|195:99|176:71|176:71|184:2,1,162,2|8,0:0|0:0,0:0:0:0:
78,29,144159,2,0,P|78:82|82:136,1,108,0|8,3:0|0:0,0:0:0:0:
177,188,144837,6,0,P|226:168|278:180,1,108,4|8,3:2|0:0,0:0:0:0:
314,221,145346,1,2,0:0:0:0:
314,221,145515,2,0,P|319:273|294:321,1,108,0|8,3:0|0:0,0:0:0:0:
244,342,146024,1,2,0:0:0:0:
149,290,146363,1,2,0:0:0:0:
48,329,146702,1,2,0:0:0:0:
48,329,146871,2,0,P|48:276|52:222,1,108,0|8,3:0|0:0,0:0:0:0:
84,177,147380,6,0,B|175:163|138:221|262:203,1,162,2|8,0:0|0:0,0:0:0:0:
285,233,148058,1,2,0:0:0:0:
371,169,148397,1,2,3:2:0:0:
459,231,148736,2,0,B|448:284|448:284|469:334,2,108,6|0|0,3:2|3:0|0:0,0:0:0:0:
510,135,149753,1,8,0:0:0:0:
391,25,150261,6,0,P|348:57|295:58,1,108,4|8,3:2|0:0,0:0:0:0:
253,93,150770,2,0,B|245:158|245:158|264:186|264:186|257:248,1,162,4|8,3:2|0:0,0:0:0:0:
211,276,151447,1,2,3:2:0:0:
130,203,151786,1,2,3:2:0:0:
130,203,151956,2,0,P|130:149|134:95,1,108,12|4,0:0|3:0,0:0:0:0:
87,67,152464,2,0,L|11:73,1,54,8|8,0:0|0:0,0:0:0:0:
0,114,152803,6,0,P|-5:166|20:214,1,108,4|2,3:2|3:2,0:0:0:0:
64,248,153312,1,8,0:0:0:0:
64,248,153481,2,0,P|118:244|172:244,1,108,4|0,3:2|3:0,0:0:0:0:
275,276,154159,2,0,B|286:329|286:329|265:379,2,108,4|2|2,3:2|3:2|0:0,0:0:0:0:
348,196,155176,1,8,0:0:0:0:
269,131,155515,1,2,3:0:0:0:
269,131,155685,6,0,P|243:85|250:32,1,108,4|8,3:2|0:0,0:0:0:0:
297,6,156193,2,0,P|347:26|373:72,1,108,2|0,3:2|3:0,0:0:0:0:
423,92,156702,2,0,B|429:183|374:141|381:267,1,162,4|0,3:2|3:0,0:0:0:0:
417,284,157380,1,8,0:0:0:0:
345,365,157719,1,8,0:0:0:0:
257,301,158058,1,8,0:0:0:0:
157,342,158397,6,0,P|103:342|49:346,1,108,4|8,3:2|0:0,0:0:0:0:
9,309,158905,2,0,P|4:255|4:201,1,108,0|2,3:0|0:0,0:0:0:0:
51,173,159414,2,0,B|113:177|113:177|137:200|137:200|207:204,1,162,4|0,3:2|3:0,0:0:0:0:
247,235,160092,1,8,0:0:0:0:
338,178,160431,2,0,L|344:102,2,54,4|8|8,3:0|0:0|0:0,0:0:0:0:
374,280,161109,6,0,B|424:301|424:301|477:290,1,108,4|8,3:2|0:0,0:0:0:0:
495,239,161617,2,0,P|490:185|490:131,1,108,2|0,3:2|3:0,0:0:0:0:
510,80,162125,2,0,B|418:86|460:31|334:38,1,162,4|0,3:2|3:0,0:0:0:0:
318,75,162803,1,8,0:0:0:0:
211,57,163142,2,0,L|205:-19,2,54,4|8|8,3:0|0:0|0:0,0:0:0:0:
146,144,163820,6,0,B|108:152|71:122|71:122|23:117|-4:153,2,162,4|0|4,3:2|3:2|3:2,0:0:0:0:
306,163,165346,2,0,B|285:114|285:114|295:61,1,108,4|2,3:2|3:2,0:0:0:0:
333,22,165854,2,0,P|386:23|428:55,1,108,8|2,0:0|3:0,0:0:0:0:
420,163,166532,5,4,3:2:0:0:
476,246,171956,6,0,P|423:241|369:238,1,108,4|2,3:2|3:2,0:0:0:0:
288,311,172634,2,0,P|234:313|180:318,1,108,2|2,3:2|3:2,0:0:0:0:
82,272,173312,2,0,P|77:218|102:171,1,108,2|2,3:2|3:2,0:0:0:0:
209,158,173990,2,0,B|259:179|259:179|312:168,1,108,2|2,3:2|3:2,0:0:0:0:
348,128,174498,5,4,3:2:0:0:
211,40,175007,1,8,0:0:0:0:
211,40,175176,2,0,P|157:44|103:47,2,108,2|2|4,3:2|3:2|3:2,0:0:0:0:
310,83,176193,2,0,L|316:7,2,54,8|8|8,0:0|3:2|0:0,0:0:0:0:
275,124,176702,2,0,P|277:177|282:231,1,108,0|8,3:0|0:0,0:0:0:0:
369,295,177380,6,0,L|446:301,2,54,4|2|8,3:2|0:0|0:0,0:0:0:0:
326,327,177888,2,0,P|274:339|226:317,1,108,2|2,3:2|3:2,0:0:0:0:
190,276,178396,1,8,0:0:0:0:
190,276,178566,2,0,P|192:359|195:409,2,108,2|2|2,0:0|3:2|0:0,0:0:0:0:
95,222,179583,1,2,0:0:0:0:
95,222,179753,1,8,0:0:0:0:
95,222,179922,6,0,B|109:131|51:168|69:44,1,162,2|8,0:0|0:0,0:0:0:0:
173,56,180770,2,0,L|179:-21,2,54,0|2|8,3:0|0:0|0:0,0:0:0:0:
221,81,181278,2,0,P|274:78|328:78,1,108,4|0,3:2|3:0,0:0:0:0:
367,116,181786,1,8,0:0:0:0:
367,116,181956,2,0,B|363:178|363:178|340:202|340:202|336:272,1,162,4|8,3:2|0:0,0:0:0:0:
267,351,182803,6,0,L|190:357,2,54,4|0|8,3:2|0:0|0:0,0:0:0:0:
312,381,183312,2,0,P|395:383|445:386,1,108,2|2,3:2|3:2,0:0:0:0:
467,358,183820,1,8,0:0:0:0:
467,358,183990,2,0,P|494:312|486:260,2,108,2|2|2,3:2|3:2|3:2,0:0:0:0:
378,295,185007,1,8,0:0:0:0:
286,352,185346,1,2,3:0:0:0:
286,352,185516,6,0,B|238:326|238:326|184:333,1,108,4|8,3:2|0:0,0:0:0:0:
136,307,186024,2,0,P|133:253|132:199,2,108,2|2|4,3:2|3:2|3:2,0:0:0:0:
222,242,187041,2,0,L|298:248,1,54,2|10,3:2|0:0,0:0:0:0:
329,249,187380,2,0,P|356:203|292:113,1,162,4|6,3:2|3:0,0:0:0:0:
208,160,188227,5,4,3:2:0:0:
120,96,188566,1,10,0:0:0:0:
169,0,188905,1,10,0:0:0:0:
276,12,189244,1,10,0:0:0:0:
307,115,189583,2,0,P|371:134|419:123,1,108,10|10,0:0|0:0,0:0:0:0:
503,181,190261,2,0,P|509:246|485:290,1,108,10|10,0:0|0:0,0:0:0:0:
393,326,190939,5,10,0:2:0:0:
307,259,191278,1,10,0:0:0:0:
218,320,191617,1,10,0:0:0:0:
137,248,191956,1,10,0:0:0:0:
137,248,192125,2,0,B|87:210|36:225|36:225|12:279|30:336,2,216,4|2|8,3:2|3:0|0:0,0:0:0:0:
172,289,193651,6,0,P|226:289|280:292,1,108,4|10,3:2|0:0,0:0:0:0:
353,371,194329,2,0,P|406:371|460:368,1,108,10|10,0:0|0:0,0:0:0:0:
509,271,195007,1,10,0:0:0:0:
426,201,195346,1,10,0:0:0:0:
325,239,195685,1,4,3:0:0:0:
239,172,196024,1,8,0:0:0:0:
266,67,196363,6,0,B|304:75|341:45|341:45|389:40|416:76,2,162,4|2|0,3:2|3:2|0:0,0:0:0:0:
225,31,197549,2,0,P|171:31|117:34,2,108,4|2|2,3:2|3:2|3:2,0:0:0:0:
478,126,199075,6,0,P|487:189|438:242,1,108,4|8,3:2|0:0,0:0:0:0:
402,313,199753,2,0,B|386:352|386:352|414:380,2,81,0|0|0,3:0|3:0|3:0,0:0:0:0:
362,275,200431,2,0,B|300:279|300:279|276:302|276:302|206:306,1,162,0|8,3:0|0:0,0:0:0:0:
163,333,201109,1,0,3:0:0:0:
75,269,201448,1,8,0:0:0:0:
150,192,201787,6,0,P|150:138|153:84,1,108,4|8,3:2|0:0,0:0:0:0:
65,19,202465,2,0,B|26:3|26:3|-2:31,2,81,0|0|0,3:0|0:0|0:0,0:0:0:0:
112,45,203143,2,0,B|203:31|166:89|290:71,1,162,0|4,3:0|3:0,0:0:0:0:
300,116,203821,1,4,3:0:0:0:
392,59,204160,1,0,0:0:0:0:
487,108,204498,6,0,P|512:166|439:232,2,162,4|2|4,3:2|3:2|3:2,0:0:0:0:
331,156,206024,1,2,3:2:0:0:
277,62,206363,1,2,3:2:0:0:
189,124,206702,1,8,0:0:0:0:
43,52,207210,6,0,B|10:76|15:124|15:124|45:161|37:199,2,162,4|4|4,3:2|3:2|3:2,0:0:0:0:
189,124,208736,2,0,B|242:134|242:134|291:113,1,108,4|2,3:2|3:2,0:0:0:0:
