osu file format v14

[General]
AudioFilename: audio.mp3
AudioLeadIn: 0
PreviewTime: 46193
Countdown: 0
SampleSet: Soft
StackLeniency: 0.4
Mode: 0
LetterboxInBreaks: 0
WidescreenStoryboard: 0

[Editor]
Bookmarks: 1109,3820,9244,20092,22803,28227,36363,44498,47210,68905,77041,90600,101447,112295,122464,124498,125854,126363,126871,127210,127719,128227,128566,131278,131956,133312,136702,144837,150261,161109,166532,171956,174498,177380,188227,192125,195515,198566,199075,204498,207210,209075
DistanceSpacing: 0.6
BeatDivisor: 4
GridSize: 32
TimelineZoom: 2.6

[Metadata]
Title:Harmonia
TitleUnicode:Harmonia
Artist:ATSUMI UEDA
ArtistUnicode:ATSUMI UEDA
Creator:Creamy Candy
Version:penfifteen's Easy
Source:pop'n music ラピストリア
Tags:agai132 [Mad] realy0_ DeppyForce xHappy- p_kung penfifteen Xenon Xehn long version full PON Daichi Watanabe japanese video game female vocals BeatStream popn Lapistoria 22 Power Of Nature konami bemani ポップンミュジック Nostalgia ノスタルジア
BeatmapID:2189445
BeatmapSetID:1028168

[Difficulty]
HPDrainRate:2
CircleSize:2.7
OverallDifficulty:2
ApproachRate:3
SliderMultiplier:0.84
SliderTickRate:1

[Events]
//Background and Video events
0,0,"harmonia.png",0,0
//Break Periods
2,166532,170516
//Storyboard Layer 0 (Background)
//Storyboard Layer 1 (Fail)
//Storyboard Layer 2 (Pass)
//Storyboard Layer 3 (Foreground)
//Storyboard Layer 4 (Overlay)
//Storyboard Sound Samples

[TimingPoints]
1109,338.983050847458,4,2,1,68,1,0
3820,-100,4,2,1,68,0,1
5939,-100,4,2,1,38,0,1
6024,-100,4,2,1,68,0,1
8142,-100,4,2,1,38,0,1
8227,-100,4,2,1,68,0,1
11193,-100,4,2,1,38,0,1
11278,-100,4,2,1,68,0,1
11447,-100,4,2,1,38,0,1
11617,-100,4,2,1,53,0,1
11702,-100,4,2,1,68,0,1
12125,-100,4,2,1,48,0,1
12210,-100,4,2,1,63,0,1
12295,-100,4,2,1,68,0,1
14414,-100,4,2,1,31,0,1
14498,-100,4,2,1,68,0,1
14668,-100,4,2,1,68,0,0
16532,-100,4,2,1,38,0,0
16617,-100,4,2,1,48,0,0
16702,-100,4,2,1,68,0,0
19244,-100,4,2,1,43,0,0
19414,-100,4,2,1,68,0,0
20092,-100,4,2,3,68,0,0
20261,-100,4,2,1,38,0,0
20346,-100,4,2,1,43,0,0
20431,-100,4,2,1,68,0,0
20515,-100,4,2,1,48,0,0
20600,-100,4,2,2,68,0,0
20770,-100,4,2,1,68,0,0
21109,-100,4,2,3,68,0,0
21278,-100,4,2,1,38,0,0
21363,-100,4,2,1,43,0,0
21447,-100,4,2,1,68,0,0
21786,-100,4,2,1,55,0,0
21956,-100,4,2,1,68,0,0
22125,-100,4,2,2,46,0,0
22464,-100,4,2,1,68,0,0
22803,-100,4,2,2,55,0,0
23990,-100,4,2,1,55,0,0
24329,-100,4,2,2,55,0,0
25007,-100,4,2,2,28,0,0
25092,-100,4,2,2,37,0,0
25176,-100,4,2,2,55,0,0
26702,-100,4,2,1,55,0,0
28227,-100,4,2,2,55,0,0
28397,-100,4,2,2,34,0,0
28736,-100,4,2,2,56,0,0
29414,-100,4,2,1,55,0,0
30261,-100,4,2,1,35,0,0
30431,-100,4,2,1,28,0,0
30515,-100,4,2,1,50,0,0
30600,-100,4,2,1,58,0,0
30770,-100,4,2,1,55,0,0
31617,-100,4,2,1,42,0,0
31956,-100,4,2,1,52,0,0
32295,-100,4,2,1,58,0,0
32634,-100,4,2,1,68,0,0
32973,-100,4,2,2,68,0,0
33481,-100,4,2,1,68,0,0
34329,-100,4,2,2,68,0,0
34498,-100,4,2,1,68,0,0
35007,-100,4,2,1,38,0,0
35176,-100,4,2,1,58,0,0
35346,-100,4,2,1,68,0,0
36702,-100,4,2,2,58,0,0
36871,-100,4,2,2,34,0,0
37041,-100,4,2,2,58,0,0
37210,-100,4,2,2,48,0,0
37380,-100,4,2,2,58,0,0
38566,-100,4,2,2,45,0,0
38736,-100,4,2,2,58,0,0
39922,-100,4,2,2,48,0,0
40092,-100,4,2,2,58,0,0
40939,-100,4,2,2,48,0,0
41109,-100,4,2,2,58,0,0
41278,-100,4,2,1,38,0,0
41363,-100,4,2,1,48,0,0
41447,-100,4,2,1,63,0,0
42295,-100,4,2,3,48,0,0
42464,-100,4,2,3,68,0,0
42634,-100,4,2,1,68,0,0
43990,-100,4,2,1,48,0,0
44075,-100,4,2,1,68,0,0
44668,-100,4,2,1,33,0,0
44753,-100,4,2,1,38,0,0
44837,-100,4,2,1,58,0,0
44922,-100,4,2,1,68,0,0
45685,-100,4,2,1,33,0,0
45770,-100,4,2,1,53,0,0
45854,-100,4,2,1,68,0,0
47210,-100,4,2,1,68,0,1
49329,-100,4,2,1,28,0,1
49414,-100,4,2,1,68,0,1
54583,-100,4,2,1,38,0,1
54668,-100,4,2,1,68,0,1
54837,-100,4,2,1,38,0,1
54922,-100,4,2,1,48,0,1
55007,-100,4,2,1,68,0,1
55515,-100,4,2,1,38,0,1
55600,-100,4,2,1,48,0,1
55685,-100,4,2,1,58,0,1
55854,-100,4,2,1,68,0,1
60176,-100,4,2,1,38,0,1
60261,-100,4,2,1,68,0,1
61956,-100,4,2,3,68,0,1
62295,-100,4,2,1,68,0,1
65431,-100,4,2,1,38,0,1
65515,-100,4,2,1,68,0,1
65685,-100,4,2,1,38,0,1
65770,-100,4,2,1,48,0,1
65854,-100,4,2,1,68,0,1
66363,-100,4,2,1,38,0,1
66532,-100,4,2,1,68,0,1
67380,-100,4,2,2,68,0,1
67719,-100,4,2,1,68,0,1
68651,-100,4,2,1,28,0,1
68736,-100,4,2,1,68,0,1
68905,-100,4,2,1,68,0,0
73481,-100,4,2,1,42,0,0
73651,-100,4,2,1,68,0,0
73820,-100,4,2,1,48,0,0
73905,-100,4,2,1,50,0,0
73990,-100,4,2,1,68,0,0
74498,-100,4,2,1,40,0,0
74668,-100,4,2,1,68,0,0
75515,-100,4,2,1,37,0,0
75600,-100,4,2,1,41,0,0
75685,-100,4,2,1,68,0,0
76363,-100,4,2,2,46,0,0
76702,-100,4,2,1,68,0,0
77041,-100,4,2,1,65,0,0
77380,-100,4,2,1,55,0,0
78058,-100,4,2,2,55,0,0
78227,-100,4,2,1,55,0,0
79244,-100,4,2,1,25,0,0
79329,-100,4,2,1,45,0,0
79414,-100,4,2,1,47,0,0
79583,-100,4,2,1,45,0,0
79753,-100,4,2,2,55,0,0
80092,-100,4,2,1,55,0,0
80770,-100,4,2,2,53,0,0
80939,-100,4,2,1,55,0,0
82464,-100,4,2,2,55,0,0
82549,-100,4,2,2,35,0,0
82719,-100,4,2,2,42,0,0
82803,-100,4,2,2,55,0,0
83651,-100,4,2,1,55,0,0
84329,-100,4,2,1,45,0,0
84498,-100,4,2,1,55,0,0
84668,-100,4,2,1,27,0,0
84753,-100,4,2,1,31,0,0
84837,-100,4,2,1,55,0,0
85854,-100,4,2,1,35,0,0
86193,-100,4,2,1,45,0,0
86363,-100,4,2,1,55,0,0
86532,-100,4,2,1,59,0,0
86871,-100,4,2,1,63,0,0
87210,-100,4,2,2,63,0,0
87719,-100,4,2,1,63,0,0
88227,-100,4,2,3,63,0,0
88566,-100,4,2,2,63,0,0
88736,-100,4,2,1,63,0,0
89244,-100,4,2,1,48,0,0
89414,-100,4,2,1,63,0,0
89583,-100,4,2,1,55,0,0
90939,-100,4,2,2,58,0,0
91109,-100,4,2,2,35,0,0
91278,-100,4,2,2,58,0,0
91447,-100,4,2,2,48,0,0
91617,-100,4,2,2,58,0,0
92464,-100,4,2,2,38,0,0
92634,-100,4,2,2,58,0,0
92803,-100,4,2,2,50,0,0
92973,-100,4,2,2,58,0,0
93481,-100,4,2,2,40,0,0
93651,-100,4,2,2,58,0,0
93820,-100,4,2,2,38,0,0
93990,-100,4,2,2,58,0,0
94159,-100,4,2,2,46,0,0
94329,-100,4,2,2,42,0,0
94498,-100,4,2,1,58,0,0
94668,-100,4,2,2,58,0,0
95515,-100,4,2,2,32,0,0
95600,-100,4,2,2,41,0,0
95685,-100,4,2,2,58,0,0
96024,-100,4,2,3,58,0,0
96193,-100,4,2,2,58,0,0
97041,-100,4,2,3,58,0,0
98905,-100,4,2,3,31,0,0
98990,-100,4,2,3,39,0,0
99075,-100,4,2,1,58,0,0
99159,-100,4,2,1,68,0,0
99753,-100,4,2,2,68,0,0
99922,-100,4,2,1,38,0,0
100007,-100,4,2,1,58,0,0
100092,-100,4,2,1,68,0,0
101447,-100,4,2,1,68,0,1
103566,-100,4,2,1,41,0,1
103651,-100,4,2,1,68,0,1
109075,-100,4,2,1,42,0,1
109244,-100,4,2,1,68,0,1
109753,-100,4,2,1,38,0,1
109837,-100,4,2,1,44,0,1
109922,-100,4,2,1,68,0,1
111447,-100,4,2,1,48,0,1
111532,-100,4,2,1,52,0,1
111617,-100,4,2,1,68,0,1
114414,-100,4,2,1,41,0,1
114498,-100,4,2,1,68,0,1
118312,-100,4,2,1,48,0,1
118397,-100,4,2,1,68,0,1
119922,-100,4,2,1,43,0,1
120092,-100,4,2,1,68,0,1
120600,-100,4,2,1,32,0,1
120685,-100,4,2,1,45,0,1
120770,-100,4,2,1,63,0,1
122295,-100,4,2,1,28,0,1
122464,-100,4,2,1,48,0,1
122803,-100,4,2,1,58,0,1
123142,-100,4,2,1,68,0,1
123990,-100,4,2,3,68,0,1
124498,-100,4,2,1,68,0,0
125346,-100,4,2,1,37,0,0
125431,-100,4,2,1,47,0,0
125515,-100,4,2,1,68,0,0
125600,-100,4,2,1,35,0,0
125685,-100,4,2,1,55,0,0
125770,-100,4,2,1,68,0,0
125854,-100,4,2,1,73,0,0
131278,-100,4,2,3,68,0,0
131617,-100,4,2,3,62,0,0
131786,-100,4,2,3,47,0,0
131956,-100,4,2,3,61,0,0
132125,-100,4,2,3,40,0,0
132295,-100,4,2,3,56,0,0
132464,-100,4,2,3,42,0,0
132634,-100,4,2,3,57,0,0
132803,-100,4,2,3,39,0,0
132973,-100,4,2,3,56,0,0
133142,-100,4,2,3,38,0,0
133312,-100,4,2,3,66,0,0
133481,-100,4,2,1,39,0,0
133566,-100,4,2,1,52,0,0
133651,-100,4,2,1,68,0,0
134159,-100,4,2,1,48,0,0
134244,-100,4,2,1,58,0,0
134329,-100,4,2,1,68,0,0
136702,-100,4,2,3,68,0,0
136871,-100,4,2,2,68,0,0
137719,-100,4,2,3,68,0,0
137888,-100,4,2,1,68,0,0
139414,-100,4,2,1,56,0,0
140007,-100,4,2,1,36,0,0
140092,-100,4,2,1,56,0,0
141532,-100,4,2,1,35,0,0
141617,-100,4,2,1,56,0,0
142634,-100,4,2,1,34,0,0
142719,-100,4,2,1,55,0,0
142803,-100,4,2,1,58,0,0
145431,-100,4,2,1,44,0,0
145515,-100,4,2,1,58,0,0
146956,-100,4,2,1,32,0,0
147041,-100,4,2,1,58,0,0
148058,-100,4,2,1,31,0,0
148142,-100,4,2,1,39,0,0
148227,-100,4,2,1,58,0,0
148736,-100,4,2,2,58,0,0
149075,-100,4,2,1,58,0,0
149244,-100,4,2,3,58,0,0
149583,-100,4,2,1,58,0,0
149837,-100,4,2,1,45,0,0
149922,-100,4,2,1,58,0,0
150770,-100,4,2,2,58,0,0
150939,-100,4,2,1,58,0,0
151956,-100,4,2,3,57,0,0
152295,-100,4,2,3,58,0,0
152464,-100,4,2,3,32,0,0
152549,-100,4,2,3,42,0,0
152634,-100,4,2,3,58,0,0
152803,-100,4,2,1,58,0,0
154159,-100,4,2,2,58,0,0
154498,-100,4,2,1,58,0,0
155176,-100,4,2,1,36,0,0
155261,-100,4,2,1,42,0,0
155346,-100,4,2,1,68,0,0
155685,-100,4,2,2,58,0,0
155854,-100,4,2,1,47,0,0
156024,-100,4,2,1,58,0,0
156193,-100,4,2,3,58,0,0
156363,-100,4,2,1,58,0,0
156702,-100,4,2,3,58,0,0
158397,-100,4,2,2,58,0,0
158736,-100,4,2,3,58,0,0
159075,-100,4,2,3,33,0,0
159244,-100,4,2,3,68,0,0
159414,-100,4,2,3,61,0,0
160600,-100,4,2,3,35,0,0
160685,-100,4,2,3,44,0,0
160770,-100,4,2,3,58,0,0
162125,-100,4,2,1,58,0,0
163312,-100,4,2,1,36,0,0
163397,-100,4,2,1,40,0,0
163481,-100,4,2,1,68,0,0
163990,-100,4,2,1,34,0,0
164075,-100,4,2,1,42,0,0
164159,-100,4,2,1,68,0,0
164583,-100,4,2,1,38,0,0
164668,-100,4,2,1,68,0,0
165007,-100,4,2,1,34,0,0
165092,-100,4,2,1,43,0,0
165176,-100,4,2,1,68,0,0
166532,-100,4,2,4,63,0,0
167041,-100,4,2,1,33,0,0
171278,-100,4,2,2,46,0,0
171617,-100,4,2,2,55,0,0
171786,-100,4,2,1,61,0,0
171956,-100,4,2,2,51,0,0
174159,-100,4,2,1,51,0,0
174329,-100,4,2,2,51,0,0
174922,-100,4,2,2,57,0,0
175007,-100,4,2,2,66,0,0
175176,-100,4,2,1,68,0,0
176109,-100,4,2,1,28,0,0
176193,-100,4,2,1,68,0,0
176532,-100,4,2,1,32,0,0
176617,-100,4,2,1,53,0,0
176702,-100,4,2,1,68,0,0
176871,-100,4,2,1,50,0,0
177041,-100,4,2,1,54,0,0
177210,-100,4,2,1,57,0,0
177295,-100,4,2,1,67,0,0
177380,-100,4,2,1,68,0,1
179498,-100,4,2,1,49,0,1
179583,-100,4,2,1,68,0,1
181956,-100,4,2,2,68,0,1
182973,-100,4,2,1,68,0,1
183312,-100,4,2,3,68,0,1
183397,-100,4,2,3,49,0,1
183481,-100,4,2,3,68,0,1
184753,-100,4,2,3,38,0,1
184837,-100,4,2,3,68,0,1
185007,-100,4,2,1,68,0,1
187210,-100,4,2,2,68,0,1
187380,-100,4,2,3,68,0,1
187719,-100,4,2,1,68,0,1
187973,-100,4,2,1,41,0,1
188058,-100,4,2,1,68,0,1
188397,-100,4,2,1,48,0,1
188566,-100,4,2,1,68,0,1
190431,-100,4,2,1,39,0,1
190515,-100,4,2,1,68,0,1
195515,-100,4,2,1,42,0,1
195600,-100,4,2,1,38,0,1
195685,-100,4,2,1,68,0,1
195854,-100,4,2,1,31,0,1
195939,-100,4,2,1,48,0,1
196024,-100,4,2,1,68,0,1
196532,-100,4,2,1,48,0,1
196617,-100,4,2,1,58,0,1
196702,-100,4,2,1,68,0,1
197549,-100,4,2,2,68,0,1
197888,-100,4,2,1,68,0,1
199075,-100,4,2,1,68,0,0
200939,-100,4,2,1,39,0,0
201024,-100,4,2,1,47,0,0
201109,-100,4,2,1,68,0,0
203651,-100,4,2,1,45,0,0
203820,-100,4,2,1,68,0,0
203990,-100,4,2,1,54,0,0
204075,-100,4,2,1,34,0,0
204159,-100,4,2,1,58,0,0
204329,-100,4,2,1,68,0,0
206786,-100,4,2,1,48,0,0
207041,-100,4,2,1,68,0,0
207125,-100,4,2,1,48,0,0
207210,-100,4,2,1,68,0,0
207380,-100,4,2,1,53,0,0
207464,-100,4,2,1,58,0,0
207549,-100,4,2,1,68,0,0
207973,-100,4,2,1,40,0,0
208058,-100,4,2,1,68,0,0
208397,-100,4,2,1,43,0,0
208481,-100,4,2,1,56,0,0
208566,-100,4,2,1,36,0,0
208651,-100,4,2,1,68,0,0
208736,-100,4,2,2,68,0,0
208905,-100,4,2,2,48,0,0
209075,-100,4,2,1,68,0,0

[Colours]
Combo1 : 200,130,247
Combo2 : 226,188,137
Combo3 : 0,221,193
Combo4 : 247,145,203

[HitObjects]
512,73,1109,6,0,B|514:119|497:159|497:159|496:201|514:229|514:229|517:281|496:317,1,252,4|4,3:2|3:2,0:0:0:0:
375,355,2634,2,0,L|274:342,1,84,4|2,3:2|3:2,0:0:0:0:
172,382,3481,1,2,3:0:0:0:
89,372,3820,6,0,P|113:314|104:253,1,126,4|2,3:2|0:0,0:0:0:0:
40,197,4668,1,2,3:2:0:0:
95,133,5007,2,0,L|187:117,2,84,2|2|2,3:2|3:2|3:2,0:0:0:0:
30,78,6024,2,0,P|40:37|66:4,1,84,2|2,3:2|3:2,0:0:0:0:
188,29,6871,6,0,P|244:60|266:119,1,126,8|2,0:0|0:0,0:0:0:0:
223,188,7719,2,0,L|246:311,1,126,2|8,0:0|0:0,0:0:0:0:
314,361,8566,1,2,3:0:0:0:
394,336,8905,1,8,3:2:0:0:
433,261,9244,6,0,L|445:124,1,126,4|2,3:2|0:0,0:0:0:0:
416,55,10092,1,2,3:2:0:0:
350,111,10431,2,0,P|310:123|268:118,1,84,2|2,3:2|3:2,0:0:0:0:
209,58,11109,2,0,P|169:45|127:50,1,84,2|8,3:2|0:0,0:0:0:0:
75,116,11786,6,0,L|100:253,1,126,8|8,0:0|0:0,0:0:0:0:
93,281,12464,1,2,3:2:0:0:
169,316,12803,1,2,3:2:0:0:
236,267,13142,2,0,P|279:263|317:280,1,84,4|0,3:2|3:0,0:0:0:0:
351,353,13820,2,0,P|393:308|392:246,1,126,0|6,0:0|3:0,0:0:0:0:
328,191,14668,6,0,B|341:81|341:81|308:35,1,168,4|0,3:2|3:0,0:0:0:0:
227,60,15685,1,8,0:0:0:0:
155,15,16024,2,0,P|75:13|19:85,1,168,0|0,3:0|3:0,0:0:0:0:
30,159,17041,1,8,0:0:0:0:
101,207,17380,6,0,L|116:378,1,168,4|0,3:2|3:0,0:0:0:0:
198,357,18397,1,8,0:0:0:0:
235,281,18736,2,0,P|278:276|319:295,1,84,0|8,3:0|0:0,0:0:0:0:
367,357,19414,2,0,P|408:352|443:330,1,84,4|8,3:0|3:2,0:0:0:0:
491,259,20092,6,0,B|454:223|452:172|474:132|474:132|463:65|463:65|437:26,1,252,4|4,3:2|3:2,0:0:0:0:
332,96,21617,1,4,3:2:0:0:
332,96,21956,1,10,0:0:0:0:
115,36,22803,6,0,P|134:117|137:201,1,168,4|8,3:2|0:0,0:0:0:0:
63,304,23990,2,0,P|167:288|265:318,1,210,2|8,3:2|0:0,0:0:0:0:
337,361,25176,1,8,0:0:0:0:
414,327,25515,6,0,P|436:291|438:250,1,84,2|0,3:2|3:0,0:0:0:0:
398,175,26193,1,8,0:0:0:0:
275,196,26702,2,0,P|233:196|195:179,1,84,2|0,3:2|3:0,0:0:0:0:
151,108,27380,1,0,0:0:0:0:
151,108,27719,1,0,0:0:0:0:
233,13,28227,6,0,P|327:13|402:35,1,168,2|8,3:2|0:0,0:0:0:0:
462,141,29414,2,0,P|356:136|250:176,1,210,2|8,3:2|0:0,0:0:0:0:
219,245,30600,1,8,0:0:0:0:
136,260,30939,6,0,L|54:222,1,84,4|2,3:2|3:0,0:0:0:0:
95,148,31617,2,0,L|86:61,1,84,8|8,0:0|0:0,0:0:0:0:
171,56,32295,2,0,L|241:4,1,84,8|8,0:0|0:0,0:0:0:0:
298,65,32973,6,0,P|383:95|433:86,1,126,4|4,3:2|3:2,0:0:0:0:
481,144,33820,2,0,L|488:238,1,84,0|0,3:0|0:0,0:0:0:0:
444,300,34498,2,0,B|398:335|344:345|286:319|286:319|204:332|204:332|156:285|85:293,1,378,4|8,3:2|0:0,0:0:0:0:
24,237,36363,6,0,P|15:196|20:154,1,84,4|10,3:2|0:0,0:0:0:0:
89,106,37041,1,2,3:2:0:0:
180,192,37549,2,0,L|363:179,1,168,0|2,0:0|0:0,0:0:0:0:
379,57,38736,1,8,0:0:0:0:
296,42,39075,6,0,P|254:48|220:71,1,84,2|8,3:2|0:0,0:0:0:0:
149,31,39753,2,0,L|24:42,2,126,2|0|8,3:2|0:0|0:0,0:0:0:0:
221,73,41109,2,0,P|230:113|218:152,1,84,2|8,3:2|0:0,0:0:0:0:
165,217,41786,6,0,P|108:216|40:250,1,126,4|2,3:2|3:2,0:0:0:0:
131,337,42803,2,0,L|315:319,1,168,12|8,0:0|0:0,0:0:0:0:
369,275,43820,1,4,3:0:0:0:
406,200,44159,1,8,0:0:0:0:
399,116,44498,6,0,B|362:13|362:13|297:60|228:60,1,252,4|4,3:2|3:2,0:0:0:0:
107,29,46024,2,0,L|99:154,1,126,4|2,3:2|3:2,0:0:0:0:
57,230,46871,1,2,3:0:0:0:
117,294,47210,6,0,P|175:320|237:316,1,126,4|2,3:2|3:2,0:0:0:0:
295,256,48058,1,2,3:2:0:0:
366,302,48397,2,0,P|385:339|386:380,2,84,2|2|2,3:2|3:2|3:2,0:0:0:0:
371,217,49414,2,0,L|380:133,1,84,2|2,3:2|0:0,0:0:0:0:
492,78,50261,6,0,P|458:26|403:0,1,126,8|2,0:0|0:0,0:0:0:0:
319,7,51109,2,0,P|260:66|202:70,1,126,2|8,0:0|0:0,0:0:0:0:
148,29,51956,1,2,3:0:0:0:
76,75,52295,1,8,3:2:0:0:
96,156,52634,6,0,L|78:288,1,126,4|2,3:2|3:2,0:0:0:0:
151,323,53481,1,2,3:2:0:0:
209,262,53820,2,0,L|290:243,1,84,2|2,0:0|3:2,0:0:0:0:
348,305,54498,2,0,L|429:323,1,84,2|8,3:2|0:0,0:0:0:0:
487,263,55176,6,0,P|498:198|480:141,1,126,2|8,3:0|0:0,0:0:0:0:
449,112,55854,1,2,3:2:0:0:
373,149,56193,1,2,3:2:0:0:
313,88,56532,2,0,L|229:78,1,84,4|0,3:2|3:0,0:0:0:0:
160,30,57210,2,0,P|144:91|187:152,1,126,0|6,0:0|3:0,0:0:0:0:
253,168,58058,6,0,L|280:306,1,126,4|2,3:2|3:2,0:0:0:0:
240,365,58905,1,2,3:2:0:0:
156,372,59244,2,0,P|116:358|85:330,1,84,2|2,0:0|3:2,0:0:0:0:
73,246,59922,2,0,P|109:220|131:188,2,84,2|2|2,0:0|0:0|0:0,0:0:0:0:
55,120,61109,6,0,P|111:87|181:95,1,126,8|2,0:0|0:0,0:0:0:0:
233,145,61956,1,4,3:2:0:0:
311,175,62295,1,0,3:0:0:0:
392,156,62634,2,0,L|419:286,1,126,4|8,3:2|0:0,0:0:0:0:
383,355,63481,6,0,P|322:362|264:324,1,126,4|2,3:2|3:2,0:0:0:0:
243,249,64329,1,2,3:2:0:0:
166,214,64668,2,0,L|54:240,1,84,2|2,3:2|3:2,0:0:0:0:
16,182,65346,2,0,P|10:141|22:101,1,84,2|8,3:2|0:0,0:0:0:0:
101,71,66024,6,0,L|237:84,1,126,2|8,3:0|0:0,0:0:0:0:
258,110,66702,1,2,3:2:0:0:
338,85,67041,1,2,3:2:0:0:
409,126,67380,2,0,L|426:216,1,84,4|0,3:2|3:0,0:0:0:0:
495,255,68058,2,0,P|446:291|385:284,1,126,0|6,0:0|3:0,0:0:0:0:
308,248,68905,6,0,B|203:239|203:239|159:285,1,168,4|0,3:2|3:0,0:0:0:0:
107,350,69922,1,8,0:0:0:0:
31,309,70261,2,0,P|6:231|41:157,1,168,0|0,3:0|3:0,0:0:0:0:
120,126,71278,1,8,0:0:0:0:
187,175,71617,6,0,L|354:163,1,168,4|0,3:2|3:0,0:0:0:0:
434,190,72634,1,8,0:0:0:0:
493,131,72973,2,0,P|492:89|473:52,1,84,0|8,3:0|0:0,0:0:0:0:
393,26,73651,2,0,P|356:46|315:48,1,84,4|8,3:0|3:2,0:0:0:0:
231,35,74329,6,0,B|223:184|223:184|285:189|312:228,1,252,4|4,3:2|3:2,0:0:0:0:
354,346,75854,1,4,3:2:0:0:
354,346,76193,1,10,0:0:0:0:
150,293,77041,6,0,P|66:271|7:216,1,168,4|8,3:2|0:0,0:0:0:0:
121,161,78227,2,0,P|223:140|308:80,1,210,2|8,3:2|0:0,0:0:0:0:
389,62,79414,1,2,0:0:0:0:
454,114,79753,6,0,L|447:210,1,84,2|2,3:2|3:2,0:0:0:0:
387,256,80431,1,8,0:0:0:0:
272,202,80939,2,0,P|231:195|190:203,1,84,2|0,3:2|3:0,0:0:0:0:
124,149,81617,1,0,0:0:0:0:
124,149,81956,1,0,0:0:0:0:
5,191,82464,6,0,P|-6:273|1:357,1,168,2|10,3:2|0:0,0:0:0:0:
114,301,83651,2,0,P|208:260|314:270,1,210,2|8,3:2|0:0,0:0:0:0:
341,348,84837,1,8,0:0:0:0:
424,363,85176,6,0,P|473:344|496:319,1,84,4|2,3:2|3:0,0:0:0:0:
487,237,85854,2,0,P|495:185|484:152,1,84,8|8,0:0|0:0,0:0:0:0:
409,119,86532,2,0,P|368:86|334:78,1,84,8|8,0:0|0:0,0:0:0:0:
262,116,87210,6,0,L|124:130,1,126,4|4,3:2|3:2,0:0:0:0:
64,171,88058,2,0,P|85:206|94:247,1,84,0|2,3:0|3:0,0:0:0:0:
57,323,88736,6,0,B|119:343|178:348|178:348|247:320|291:312|291:312|348:344|421:340,1,378,4|8,3:2|0:0,0:0:0:0:
444,259,90600,6,0,L|430:174,1,84,4|10,3:2|0:0,0:0:0:0:
444,93,91278,1,2,3:2:0:0:
340,21,91786,2,0,P|269:82|185:84,1,168,0|2,0:0|0:0,0:0:0:0:
86,20,92973,1,8,0:0:0:0:
14,64,93312,6,0,P|19:107|29:158,1,84,0|8,3:0|0:0,0:0:0:0:
66,221,93990,2,0,P|69:287|54:356,2,126,2|0|8,3:2|0:0|0:0,0:0:0:0:
133,170,95346,2,0,L|227:156,1,84,2|8,3:2|0:0,0:0:0:0:
267,224,96024,6,0,P|264:290|279:359,1,126,4|4,3:2|3:2,0:0:0:0:
403,368,97041,2,0,P|410:272|434:198,1,168,12|8,0:0|0:0,0:0:0:0:
503,159,98058,1,4,3:0:0:0:
493,75,98397,1,8,0:0:0:0:
415,42,98736,6,0,B|386:47|350:50|350:50|302:38|256:43|256:43|225:68|163:68,1,252,4|4,3:2|3:2,0:0:0:0:
50,26,100261,2,0,L|37:163,1,126,4|2,3:2|3:2,0:0:0:0:
58,235,101108,1,2,3:0:0:0:
48,320,101447,6,0,P|108:348|171:345,1,126,4|2,3:2|3:2,0:0:0:0:
212,275,102295,1,2,3:2:0:0:
292,250,102634,2,0,P|329:267|356:299,2,84,2|2|2,3:2|3:2|3:2,0:0:0:0:
231,191,103651,2,0,L|225:107,1,84,2|2,3:2|0:0,0:0:0:0:
342,62,104498,6,0,L|467:52,1,126,8|2,0:0|0:0,0:0:0:0:
507,125,105346,2,0,P|514:190|483:243,1,126,2|8,0:0|0:0,0:0:0:0:
409,277,106193,1,2,3:0:0:0:
330,246,106532,1,8,3:2:0:0:
255,283,106871,6,0,L|124:312,1,126,4|2,3:2|3:2,0:0:0:0:
69,366,107719,1,2,3:2:0:0:
6,309,108058,2,0,P|2:268|18:225,1,84,2|2,0:0|3:2,0:0:0:0:
81,175,108736,2,0,L|73:83,1,84,2|8,3:2|0:0,0:0:0:0:
134,33,109414,6,0,L|259:41,1,126,8|8,0:0|0:0,0:0:0:0:
280,79,110092,1,2,3:2:0:0:
247,156,110431,1,2,3:2:0:0:
312,211,110770,2,0,L|427:196,1,84,4|0,3:2|3:0,0:0:0:0:
428,122,111447,2,0,P|472:164|475:228,1,126,8|6,0:0|3:0,0:0:0:0:
413,284,112295,6,0,L|288:300,1,126,4|2,3:2|3:2,0:0:0:0:
232,237,113142,1,2,3:2:0:0:
168,291,113481,2,0,P|129:305|87:297,1,84,2|2,0:0|3:2,0:0:0:0:
35,232,114159,2,0,L|28:136,2,84,2|2|2,0:0|0:0|0:0,0:0:0:0:
140,162,115346,6,0,P|206:136|264:141,1,126,8|2,0:0|0:0,0:0:0:0:
324,193,116193,1,4,3:2:0:0:
276,262,116532,1,0,3:0:0:0:
329,326,116871,2,0,P|395:352|453:347,1,126,4|2,3:2|3:0,0:0:0:0:
491,275,117719,6,0,L|498:149,1,126,4|0,3:2|0:0,0:0:0:0:
450,79,118566,1,2,3:2:0:0:
377,124,118905,2,0,P|336:134|296:123,1,84,2|2,3:2|3:2,0:0:0:0:
234,66,119583,2,0,L|150:78,1,84,2|8,3:2|0:0,0:0:0:0:
80,124,120261,6,0,P|101:206|97:253,1,126,2|8,3:0|0:0,0:0:0:0:
73,280,120939,1,2,3:2:0:0:
120,349,121278,1,2,3:2:0:0:
197,317,121617,6,0,L|322:301,1,126,4|2,3:2|3:0,0:0:0:0:
402,327,122464,2,0,L|503:337,1,84,0|8,3:2|3:2,0:0:0:0:
508,254,123142,2,0,P|480:193|473:116,1,126,8|8,3:2|0:0,0:0:0:0:
487,52,123990,1,12,0:0:0:0:
363,78,124498,6,0,B|300:76|300:76|244:63|244:63|191:79|191:79|117:57,1,252,4|8,3:2|0:0,0:0:0:0:
35,75,125854,6,0,P|26:136|43:196,1,126,4|2,3:2|0:0,0:0:0:0:
115,241,126702,1,2,0:0:0:0:
175,182,127041,2,0,P|214:165|256:164,1,84,2|2,0:0|0:0,0:0:0:0:
321,217,127719,2,0,P|381:246|442:240,1,126,2|8,0:0|0:0,0:0:0:0:
499,182,128566,6,0,P|507:110|463:26,1,168,0|0,3:0|3:0,0:0:0:0:
381,10,129583,1,8,0:0:0:0:
317,65,129922,6,0,P|279:83|237:85,1,84,0|8,3:0|0:0,0:0:0:0:
166,39,130600,1,0,3:0:0:0:
83,52,130938,1,8,0:0:0:0:
30,119,131278,6,0,L|44:211,1,84,4|10,3:2|0:0,0:0:0:0:
106,256,131956,2,0,L|198:242,1,84,2|10,3:2|0:0,0:0:0:0:
243,180,132634,2,0,L|229:88,2,84,2|10|4,3:2|0:0|3:0,0:0:0:0:
261,304,133820,6,0,B|350:292|350:292|400:232,1,168,2|2,3:0|3:2,0:0:0:0:
406,147,134837,1,2,3:2:0:0:
336,100,135176,6,0,P|274:111|216:90,1,126,4|10,3:2|0:0,0:0:0:0:
147,40,136024,2,0,L|60:48,1,84,10|2,0:0|3:0,0:0:0:0:
12,114,136702,6,0,P|50:164|55:226,1,126,4|12,3:2|0:0,0:0:0:0:
28,348,137719,2,0,P|82:319|144:324,1,126,12|12,0:0|0:0,0:0:0:0:
262,369,138736,2,0,L|252:285,1,84,8|6,0:0|3:0,0:0:0:0:
284,208,139414,6,0,P|326:210|365:195,1,84,4|8,3:2|0:0,0:0:0:0:
411,124,140092,2,0,L|421:-1,2,126,0|2|8,3:0|0:0|0:0,0:0:0:0:
451,197,141447,2,0,L|461:283,1,84,0|8,3:0|0:0,0:0:0:0:
413,349,142125,6,0,P|351:347|321:333,1,84,0|8,3:0|0:0,0:0:0:0:
266,284,142803,2,0,P|204:286|174:300,1,84,0|8,3:0|0:0,0:0:0:0:
124,353,143481,2,0,L|-1:366,1,126,0|2,3:0|0:0,0:0:0:0:
13,240,144498,1,8,0:0:0:0:
67,175,144837,6,0,P|104:156|146:151,1,84,4|8,3:2|0:0,0:0:0:0:
216,198,145515,2,0,L|353:183,2,126,0|2|8,3:0|0:0|0:0,0:0:0:0:
146,151,146871,2,0,L|160:64,1,84,0|8,3:0|0:0,0:0:0:0:
229,21,147549,6,0,P|284:51|347:50,1,126,0|2,3:0|0:0,0:0:0:0:
422,12,148397,1,2,3:2:0:0:
489,61,148736,2,0,L|500:145,1,84,6|0,3:2|3:0,0:0:0:0:
455,215,149414,2,0,L|444:299,1,84,0|8,0:0|0:0,0:0:0:0:
324,339,150261,6,0,P|271:305|208:302,1,126,4|4,3:2|3:2,0:0:0:0:
138,347,151109,1,2,0:0:0:0:
63,309,151447,2,0,L|47:173,1,126,2|12,3:2|0:0,0:0:0:0:
83,106,152295,1,4,3:0:0:0:
164,202,152803,6,0,P|246:208|318:167,1,168,4|4,3:2|3:2,0:0:0:0:
348,87,153820,1,0,3:0:0:0:
378,8,154159,2,0,P|419:0|460:7,1,84,4|2,3:2|3:2,0:0:0:0:
485,87,154837,2,0,P|507:122|500:211,1,126,2|8,0:0|0:0,0:0:0:0:
439,258,155685,6,0,L|305:246,1,126,4|2,3:2|3:2,0:0:0:0:
194,288,156702,1,4,3:2:0:0:
114,141,157380,2,0,P|67:145|21:169,2,84,8|8|8,0:0|0:0|0:0,0:0:0:0:
191,175,158397,6,0,L|318:143,1,126,4|0,3:2|3:0,0:0:0:0:
407,60,159414,1,4,3:2:0:0:
484,209,160092,2,0,P|487:256|470:305,2,84,8|4|8,0:0|3:0|0:0,0:0:0:0:
402,188,161109,6,0,P|354:229|293:244,1,126,4|2,3:2|3:2,0:0:0:0:
205,155,162125,2,0,P|119:126|39:140,1,168,4|8,3:2|0:0,0:0:0:0:
11,215,163142,2,0,L|20:300,1,84,4|8,3:0|0:0,0:0:0:0:
71,368,163820,6,0,B|124:376|171:350|171:350|236:355|236:355|282:342|311:320,1,252,4|4,3:2|3:2,0:0:0:0:
347,199,165346,2,0,L|342:115,1,84,4|2,3:2|3:2,0:0:0:0:
195,52,171956,6,0,P|251:79|314:76,1,126,4|0,3:2|0:0,0:0:0:0:
387,34,172803,1,0,0:0:0:0:
459,78,173142,2,0,P|475:116|477:158,1,84,0|0,0:0|0:0,0:0:0:0:
407,205,173820,2,0,P|384:239|375:280,1,84,0|2,0:0|3:2,0:0:0:0:
379,365,174498,6,0,L|250:351,1,126,4|8,3:2|0:0,0:0:0:0:
215,369,175176,1,2,3:2:0:0:
131,366,175515,1,2,3:2:0:0:
61,318,175854,2,0,P|59:276|74:236,1,84,4|8,3:2|0:0,0:0:0:0:
156,254,176532,2,0,P|148:194|101:155,1,126,8|8,0:0|0:0,0:0:0:0:
17,173,177380,6,0,L|5:47,1,126,4|2,3:2|3:2,0:0:0:0:
82,14,178227,1,2,3:2:0:0:
158,54,178566,2,0,P|199:62|239:50,1,84,2|2,0:0|3:2,0:0:0:0:
318,22,179244,2,0,L|401:28,2,84,2|2|2,0:0|0:0|0:0,0:0:0:0:
399,125,180431,6,0,P|433:174|443:245,1,126,8|2,0:0|0:0,0:0:0:0:
392,309,181278,1,4,3:2:0:0:
315,274,181617,1,0,3:0:0:0:
250,327,181956,2,0,L|122:338,1,126,4|8,3:2|0:0,0:0:0:0:
67,275,182803,6,0,P|75:212|107:159,1,126,4|2,3:2|3:2,0:0:0:0:
183,124,183651,1,2,3:2:0:0:
259,162,183990,2,0,L|343:152,1,84,2|2,3:2|3:2,0:0:0:0:
421,176,184668,2,0,P|438:215|441:259,1,84,2|8,3:2|0:0,0:0:0:0:
392,326,185346,6,0,P|336:301|269:307,1,126,2|8,3:0|0:0,0:0:0:0:
247,339,186024,1,2,3:2:0:0:
166,313,186363,1,2,3:2:0:0:
125,239,186702,2,0,L|134:153,1,84,4|2,3:2|3:2,0:0:0:0:
69,101,187380,2,0,P|121:69|181:83,1,126,4|6,3:2|3:0,0:0:0:0:
235,147,188227,6,0,L|409:165,1,168,4|10,3:2|0:0,0:0:0:0:
456,228,189244,1,10,0:0:0:0:
421,304,189583,2,0,L|337:311,1,84,10|10,0:0|0:0,0:0:0:0:
258,280,190261,1,10,0:0:0:0:
195,335,190600,1,10,0:0:0:0:
127,285,190939,6,0,L|143:128,1,126,10|0,0:2|0:0,0:0:0:0:
192,93,191786,1,0,3:0:0:0:
264,137,192125,2,0,L|348:125,2,84,4|8|2,3:2|3:0|3:0,0:0:0:0:
254,263,193312,1,8,0:0:0:0:
188,315,193651,6,0,L|29:304,1,126,4|0,3:2|0:0,0:0:0:0:
25,230,194498,1,0,3:0:0:0:
85,171,194837,2,0,L|102:72,1,84,0|0,3:0|0:0,0:0:0:0:
166,38,195515,2,0,P|228:26|289:42,1,126,0|8,3:0|0:0,0:0:0:0:
348,100,196363,6,0,B|341:184|341:184|385:222,1,126,4|2,3:2|3:2,0:0:0:0:
454,193,197210,1,2,3:2:0:0:
504,126,197549,2,0,L|511:42,2,84,4|2|2,3:2|3:2|3:2,0:0:0:0:
481,335,199075,6,0,B|402:361|402:361|331:314,1,168,4|0,3:2|3:0,0:0:0:0:
293,239,200092,1,8,0:0:0:0:
225,290,200431,2,0,P|142:291|63:237,1,168,0|0,3:0|3:0,0:0:0:0:
33,173,201447,1,8,0:0:0:0:
72,99,201786,6,0,L|249:77,1,168,4|0,3:2|3:0,0:0:0:0:
315,44,202803,1,8,0:0:0:0:
368,108,203142,2,0,P|374:149|361:188,1,84,0|8,3:0|0:0,0:0:0:0:
297,243,203820,2,0,P|283:282|290:323,1,84,4|8,3:0|3:2,0:0:0:0:
348,383,204498,6,0,B|416:369|416:369|472:370,2,126,4|2|4,3:2|3:2|3:2,0:0:0:0:
417,277,206024,2,0,L|426:163,1,84,2|2,3:2|3:2,0:0:0:0:
356,87,206871,1,8,0:0:0:0:
278,122,207210,6,0,B|237:137|195:130|195:130|151:111|113:110|113:110|71:125|32:127,1,252,4|4,3:2|3:2,0:0:0:0:
80,244,208736,1,4,3:2:0:0:
80,244,209075,1,2,3:2:0:0:
