osu file format v14

[General]
AudioFilename: audio.mp3
AudioLeadIn: 0
PreviewTime: 46193
Countdown: 0
SampleSet: Soft
StackLeniency: 0.4
Mode: 0
LetterboxInBreaks: 0
WidescreenStoryboard: 0

[Editor]
Bookmarks: 1109,3820,14668,22803,36363,47210,58058,68905,77041,90600,101447,112295,124498,131278,136702,139414,150261,161109,166532,177380,188227,193651,199075,204498,209075
DistanceSpacing: 0.6
BeatDivisor: 4
GridSize: 16
TimelineZoom: 2.7

[Metadata]
Title:Harmonia
TitleUnicode:Harmonia
Artist:ATSUMI UEDA
ArtistUnicode:ATSUMI UEDA
Creator:Creamy Candy
Version:Xenon's Insane
Source:pop'n music ラピストリア
Tags:agai132 [Mad] realy0_ DeppyForce xHappy- p_kung penfifteen Xenon Xehn long version full PON Daichi Watanabe japanese video game female vocals BeatStream popn Lapistoria 22 Power Of Nature konami bemani ポップンミュジック Nostalgia ノスタルジア
BeatmapID:2155867
BeatmapSetID:1028168

[Difficulty]
HPDrainRate:5
CircleSize:4.2
OverallDifficulty:8
ApproachRate:9
SliderMultiplier:1
SliderTickRate:1

[Events]
//Background and Video events
0,0,"harmonia.png",0,0
//Break Periods
2,166732,171356
//Storyboard Layer 0 (Background)
//Storyboard Layer 1 (Fail)
//Storyboard Layer 2 (Pass)
//Storyboard Layer 3 (Foreground)
//Storyboard Layer 4 (Overlay)
//Storyboard Sound Samples

[TimingPoints]
1109,338.983050847458,4,2,1,68,1,0
1109,-58.8235294117647,4,2,1,68,0,0
1278,-100,4,2,1,38,0,0
1363,-100,4,2,1,48,0,0
1447,-58.8235294117647,4,2,1,63,0,0
1532,-100,4,2,1,68,0,0
1617,-58.8235294117647,4,2,2,68,0,0
1786,-100,4,2,1,58,0,0
2125,-100,4,2,1,68,0,0
2295,-58.8235294117647,4,2,1,43,0,0
2380,-100,4,2,1,58,0,0
2464,-100,4,2,1,68,0,0
2634,-100,4,2,2,68,0,0
2973,-100,4,2,1,68,0,0
3820,-54.054054054054,4,2,1,68,0,1
5685,-43.4782608695652,4,2,1,68,0,1
5939,-43.4782608695652,4,2,1,38,0,1
6024,-43.4782608695652,4,2,1,68,0,1
6871,-54.054054054054,4,2,1,68,0,1
8142,-54.054054054054,4,2,1,38,0,1
8227,-54.054054054054,4,2,1,68,0,1
11193,-54.054054054054,4,2,1,38,0,1
11278,-54.054054054054,4,2,1,68,0,1
11447,-54.054054054054,4,2,1,38,0,1
11617,-54.054054054054,4,2,1,53,0,1
11702,-54.054054054054,4,2,1,68,0,1
12125,-54.054054054054,4,2,1,48,0,1
12210,-54.054054054054,4,2,1,63,0,1
12295,-54.054054054054,4,2,1,68,0,1
12464,-45.4545454545455,4,2,1,68,0,1
13142,-50,4,2,1,68,0,1
13651,-54.054054054054,4,2,1,68,0,1
14414,-54.054054054054,4,2,1,31,0,1
14498,-54.054054054054,4,2,1,68,0,1
14668,-54.054054054054,4,2,1,68,0,0
16532,-54.054054054054,4,2,1,38,0,0
16617,-54.054054054054,4,2,1,48,0,0
16702,-54.054054054054,4,2,1,68,0,0
19244,-54.054054054054,4,2,1,43,0,0
19414,-54.054054054054,4,2,1,68,0,0
20092,-54.054054054054,4,2,3,68,0,0
20261,-54.054054054054,4,2,1,38,0,0
20346,-54.054054054054,4,2,1,43,0,0
20431,-54.054054054054,4,2,1,68,0,0
20515,-54.054054054054,4,2,1,48,0,0
20600,-54.054054054054,4,2,2,68,0,0
20770,-54.054054054054,4,2,1,68,0,0
21109,-54.054054054054,4,2,3,68,0,0
21278,-54.054054054054,4,2,1,38,0,0
21363,-54.054054054054,4,2,1,43,0,0
21447,-54.054054054054,4,2,1,68,0,0
21786,-54.054054054054,4,2,1,55,0,0
21956,-54.054054054054,4,2,1,68,0,0
22125,-54.054054054054,4,2,2,46,0,0
22464,-54.054054054054,4,2,1,68,0,0
22803,-76.9230769230769,4,2,2,55,0,0
23990,-55.5555555555556,4,2,1,55,0,0
24329,-55.5555555555556,4,2,2,55,0,0
24498,-76.9230769230769,4,2,2,55,0,0
25007,-76.9230769230769,4,2,2,28,0,0
25092,-76.9230769230769,4,2,2,37,0,0
25176,-76.9230769230769,4,2,2,55,0,0
26702,-54.054054054054,4,2,1,55,0,0
27380,-47.6190476190476,4,2,1,55,0,0
28227,-76.9230769230769,4,2,2,55,0,0
28397,-76.9230769230769,4,2,2,34,0,0
28736,-76.9230769230769,4,2,2,56,0,0
29414,-55.5555555555556,4,2,1,55,0,0
29922,-76.9230769230769,4,2,1,55,0,0
30261,-76.9230769230769,4,2,1,35,0,0
30431,-76.9230769230769,4,2,1,28,0,0
30515,-76.9230769230769,4,2,1,50,0,0
30600,-76.9230769230769,4,2,1,58,0,0
30770,-76.9230769230769,4,2,1,55,0,0
30939,-54.054054054054,4,2,1,55,0,0
31278,-68.9655172413793,4,2,1,55,0,0
31617,-68.9655172413793,4,2,1,42,0,0
31956,-68.9655172413793,4,2,1,52,0,0
32295,-68.9655172413793,4,2,1,58,0,0
32634,-68.9655172413793,4,2,1,68,0,0
32973,-68.9655172413793,4,2,2,68,0,0
33142,-54.054054054054,4,2,2,68,0,0
33481,-54.054054054054,4,2,1,68,0,0
34329,-54.054054054054,4,2,2,68,0,0
34498,-54.054054054054,4,2,1,68,0,0
35007,-54.054054054054,4,2,1,38,0,0
35176,-54.054054054054,4,2,1,58,0,0
35346,-54.054054054054,4,2,1,68,0,0
36363,-64.5161290322581,4,2,1,68,0,0
36702,-64.5161290322581,4,2,2,58,0,0
36871,-64.5161290322581,4,2,2,34,0,0
37041,-64.5161290322581,4,2,2,58,0,0
37210,-64.5161290322581,4,2,2,48,0,0
37380,-64.5161290322581,4,2,2,58,0,0
38566,-64.5161290322581,4,2,2,45,0,0
38736,-64.5161290322581,4,2,2,58,0,0
39922,-64.5161290322581,4,2,2,48,0,0
40092,-64.5161290322581,4,2,2,58,0,0
40939,-64.5161290322581,4,2,2,48,0,0
41109,-64.5161290322581,4,2,2,58,0,0
41278,-64.5161290322581,4,2,1,38,0,0
41363,-64.5161290322581,4,2,1,48,0,0
41447,-64.5161290322581,4,2,1,63,0,0
41786,-58.8235294117647,4,2,1,63,0,0
42295,-58.8235294117647,4,2,3,48,0,0
42464,-58.8235294117647,4,2,3,68,0,0
42634,-58.8235294117647,4,2,1,68,0,0
42803,-48.780487804878,4,2,1,68,0,0
43651,-58.8235294117647,4,2,1,68,0,0
43990,-58.8235294117647,4,2,1,48,0,0
44075,-58.8235294117647,4,2,1,68,0,0
44498,-54.054054054054,4,2,1,68,0,0
44668,-54.054054054054,4,2,1,33,0,0
44753,-54.054054054054,4,2,1,38,0,0
44837,-54.054054054054,4,2,1,58,0,0
44922,-54.054054054054,4,2,1,68,0,0
45685,-54.054054054054,4,2,1,33,0,0
45770,-54.054054054054,4,2,1,53,0,0
45854,-54.054054054054,4,2,1,68,0,0
47210,-54.054054054054,4,2,1,68,0,1
49075,-43.4782608695652,4,2,1,68,0,1
49329,-43.4782608695652,4,2,1,28,0,1
49414,-43.4782608695652,4,2,1,68,0,1
49583,-54.054054054054,4,2,1,68,0,1
54583,-54.054054054054,4,2,1,38,0,1
54668,-54.054054054054,4,2,1,68,0,1
54837,-54.054054054054,4,2,1,38,0,1
54922,-54.054054054054,4,2,1,48,0,1
55007,-54.054054054054,4,2,1,68,0,1
55515,-54.054054054054,4,2,1,38,0,1
55600,-54.054054054054,4,2,1,48,0,1
55685,-54.054054054054,4,2,1,58,0,1
55854,-45.4545454545455,4,2,1,68,0,1
58058,-54.054054054054,4,2,1,68,0,1
59922,-47.6190476190476,4,2,1,68,0,1
60176,-47.6190476190476,4,2,1,38,0,1
60261,-47.6190476190476,4,2,1,68,0,1
60600,-41.6666666666667,4,2,1,68,0,1
61617,-47.6190476190476,4,2,1,68,0,1
61956,-47.6190476190476,4,2,3,68,0,1
62295,-47.6190476190476,4,2,1,68,0,1
62634,-54.054054054054,4,2,1,68,0,1
65431,-54.054054054054,4,2,1,38,0,1
65515,-54.054054054054,4,2,1,68,0,1
65685,-54.054054054054,4,2,1,38,0,1
65770,-54.054054054054,4,2,1,48,0,1
65854,-54.054054054054,4,2,1,68,0,1
66363,-54.054054054054,4,2,1,38,0,1
66532,-54.054054054054,4,2,1,68,0,1
66702,-45.4545454545455,4,2,1,68,0,1
67380,-41.6666666666667,4,2,2,68,0,1
67719,-41.6666666666667,4,2,1,68,0,1
68651,-41.6666666666667,4,2,1,28,0,1
68736,-41.6666666666667,4,2,1,68,0,1
68905,-54.054054054054,4,2,1,68,0,0
73481,-54.054054054054,4,2,1,42,0,0
73651,-54.054054054054,4,2,1,68,0,0
73820,-54.054054054054,4,2,1,48,0,0
73905,-54.054054054054,4,2,1,50,0,0
73990,-54.054054054054,4,2,1,68,0,0
74498,-54.054054054054,4,2,1,40,0,0
74668,-54.054054054054,4,2,1,68,0,0
75515,-54.054054054054,4,2,1,37,0,0
75600,-54.054054054054,4,2,1,41,0,0
75685,-54.054054054054,4,2,1,68,0,0
76363,-54.054054054054,4,2,2,46,0,0
76702,-54.054054054054,4,2,1,68,0,0
77041,-76.9230769230769,4,2,1,65,0,0
77380,-76.9230769230769,4,2,1,55,0,0
78058,-76.9230769230769,4,2,2,55,0,0
78227,-76.9230769230769,4,2,1,55,0,0
78228,-55.5555555555556,4,2,1,55,0,0
78736,-76.9230769230769,4,2,1,55,0,0
79244,-76.9230769230769,4,2,1,25,0,0
79329,-76.9230769230769,4,2,1,45,0,0
79414,-76.9230769230769,4,2,1,47,0,0
79583,-76.9230769230769,4,2,1,45,0,0
79753,-76.9230769230769,4,2,2,55,0,0
80092,-76.9230769230769,4,2,1,55,0,0
80770,-76.9230769230769,4,2,2,53,0,0
80940,-76.9230769230769,4,2,1,55,0,0
81617,-47.6190476190476,4,2,1,55,0,0
82464,-76.9230769230769,4,2,2,55,0,0
82549,-76.9230769230769,4,2,2,35,0,0
82719,-76.9230769230769,4,2,2,42,0,0
82803,-76.9230769230769,4,2,2,55,0,0
83652,-55.5555555555556,4,2,1,55,0,0
84160,-76.9230769230769,4,2,1,55,0,0
84329,-76.9230769230769,4,2,1,45,0,0
84498,-76.9230769230769,4,2,1,55,0,0
84668,-76.9230769230769,4,2,1,27,0,0
84753,-76.9230769230769,4,2,1,31,0,0
84837,-76.9230769230769,4,2,1,55,0,0
85177,-54.054054054054,4,2,1,55,0,0
85516,-68.9655172413793,4,2,1,55,0,0
85854,-68.9655172413793,4,2,1,35,0,0
86193,-68.9655172413793,4,2,1,45,0,0
86363,-68.9655172413793,4,2,1,55,0,0
86532,-68.9655172413793,4,2,1,59,0,0
86871,-68.9655172413793,4,2,1,63,0,0
87210,-68.9655172413793,4,2,2,63,0,0
87380,-54.054054054054,4,2,2,63,0,0
87719,-54.054054054054,4,2,1,63,0,0
88227,-54.054054054054,4,2,3,63,0,0
88566,-54.054054054054,4,2,2,63,0,0
88736,-54.054054054054,4,2,1,63,0,0
89244,-54.054054054054,4,2,1,48,0,0
89414,-54.054054054054,4,2,1,63,0,0
89583,-54.054054054054,4,2,1,55,0,0
90600,-64.5161290322581,4,2,1,55,0,0
90939,-64.5161290322581,4,2,2,58,0,0
91109,-64.5161290322581,4,2,2,35,0,0
91278,-64.5161290322581,4,2,2,58,0,0
91447,-64.5161290322581,4,2,2,48,0,0
91617,-64.5161290322581,4,2,2,58,0,0
92464,-64.5161290322581,4,2,2,38,0,0
92634,-64.5161290322581,4,2,2,58,0,0
92803,-64.5161290322581,4,2,2,50,0,0
92973,-64.5161290322581,4,2,2,58,0,0
93481,-64.5161290322581,4,2,2,40,0,0
93651,-64.5161290322581,4,2,2,58,0,0
93820,-64.5161290322581,4,2,2,38,0,0
93990,-64.5161290322581,4,2,2,58,0,0
94159,-64.5161290322581,4,2,2,46,0,0
94329,-64.5161290322581,4,2,2,42,0,0
94498,-64.5161290322581,4,2,1,58,0,0
94668,-64.5161290322581,4,2,2,58,0,0
95515,-64.5161290322581,4,2,2,32,0,0
95600,-64.5161290322581,4,2,2,41,0,0
95685,-64.5161290322581,4,2,2,58,0,0
96024,-58.8235294117647,4,2,3,58,0,0
96193,-58.8235294117647,4,2,2,58,0,0
97041,-48.780487804878,4,2,3,58,0,0
97888,-58.8235294117647,4,2,3,58,0,0
98736,-54.054054054054,4,2,3,58,0,0
98905,-54.054054054054,4,2,3,31,0,0
98990,-54.054054054054,4,2,3,39,0,0
99075,-54.054054054054,4,2,1,58,0,0
99159,-54.054054054054,4,2,1,68,0,0
99753,-54.054054054054,4,2,2,68,0,0
99922,-54.054054054054,4,2,1,38,0,0
100007,-54.054054054054,4,2,1,58,0,0
100092,-54.054054054054,4,2,1,68,0,0
101447,-54.054054054054,4,2,1,68,0,1
103312,-40.8163265306122,4,2,1,68,0,1
103566,-40.8163265306122,4,2,1,41,0,1
103651,-40.8163265306122,4,2,1,68,0,1
103820,-54.054054054054,4,2,1,68,0,1
109075,-54.054054054054,4,2,1,42,0,1
109244,-54.054054054054,4,2,1,68,0,1
109753,-54.054054054054,4,2,1,38,0,1
109837,-54.054054054054,4,2,1,44,0,1
109922,-54.054054054054,4,2,1,68,0,1
110091,-45.4545454545455,4,2,1,68,0,1
111447,-45.4545454545455,4,2,1,48,0,1
111532,-45.4545454545455,4,2,1,52,0,1
111617,-45.4545454545455,4,2,1,68,0,1
112295,-54.054054054054,4,2,1,68,0,1
114159,-47.6190476190476,4,2,1,68,0,1
114414,-47.6190476190476,4,2,1,41,0,1
114498,-47.6190476190476,4,2,1,68,0,1
114837,-41.6666666666667,4,2,1,68,0,1
115854,-47.6190476190476,4,2,1,68,0,1
116871,-54.054054054054,4,2,1,68,0,1
118312,-54.054054054054,4,2,1,48,0,1
118397,-54.054054054054,4,2,1,68,0,1
119922,-54.054054054054,4,2,1,43,0,1
120092,-54.054054054054,4,2,1,68,0,1
120600,-54.054054054054,4,2,1,32,0,1
120685,-54.054054054054,4,2,1,45,0,1
120770,-54.054054054054,4,2,1,63,0,1
120939,-45.4545454545455,4,2,1,63,0,1
121617,-41.6666666666667,4,2,1,63,0,1
122295,-41.6666666666667,4,2,1,28,0,1
122464,-41.6666666666667,4,2,1,48,0,1
122803,-41.6666666666667,4,2,1,58,0,1
123142,-41.6666666666667,4,2,1,68,0,1
123990,-50,4,2,3,68,0,1
124498,-47.6190476190476,4,2,1,68,0,0
125346,-47.6190476190476,4,2,1,37,0,0
125431,-47.6190476190476,4,2,1,47,0,0
125515,-47.6190476190476,4,2,1,68,0,0
125600,-47.6190476190476,4,2,1,35,0,0
125685,-47.6190476190476,4,2,1,55,0,0
125770,-47.6190476190476,4,2,1,68,0,0
125854,-64.5161290322581,4,2,36,73,0,0
126024,-64.5161290322581,4,2,26,65,0,0
126109,-64.5161290322581,4,2,36,68,0,0
126193,-64.5161290322581,4,2,56,70,0,0
126278,-64.5161290322581,4,2,46,70,0,0
126363,-64.5161290322581,4,2,29,73,0,0
126532,-64.5161290322581,4,2,1,73,0,0
126702,-64.5161290322581,4,2,65,73,0,0
126786,-64.5161290322581,4,2,75,73,0,0
126871,-64.5161290322581,4,2,26,73,0,0
126956,-64.5161290322581,4,2,36,73,0,0
127041,-64.5161290322581,4,2,78,73,0,0
127210,-64.5161290322581,4,2,1,73,0,0
127380,-64.5161290322581,4,2,65,73,0,0
127464,-64.5161290322581,4,2,75,73,0,0
127549,-64.5161290322581,4,2,26,73,0,0
127634,-64.5161290322581,4,2,36,73,0,0
127719,-64.5161290322581,4,2,75,73,0,0
127973,-64.5161290322581,4,2,65,73,0,0
128058,-64.5161290322581,4,2,55,73,0,0
128142,-64.5161290322581,4,2,1,73,0,0
128227,-64.5161290322581,4,2,75,73,0,0
128397,-64.5161290322581,4,2,36,73,0,0
128481,-64.5161290322581,4,2,36,20,0,0
128566,-64.5161290322581,4,2,37,73,0,0
128679,-64.5161290322581,4,2,66,73,0,0
128736,-64.5161290322581,4,2,56,73,0,0
128820,-64.5161290322581,4,2,1,73,0,0
128849,-64.5161290322581,4,2,36,73,0,0
128905,-64.5161290322581,4,2,1,73,0,0
129018,-64.5161290322581,4,2,36,73,0,0
129075,-64.5161290322581,4,2,1,73,0,0
129159,-64.5161290322581,4,2,27,73,0,0
129244,-64.5161290322581,4,2,1,73,0,0
129357,-64.5161290322581,4,2,76,73,0,0
129414,-64.5161290322581,4,2,66,73,0,0
129583,-64.5161290322581,4,2,56,73,0,0
129668,-64.5161290322581,4,2,36,73,0,0
129753,-64.5161290322581,4,2,26,73,0,0
129922,-64.5161290322581,4,2,35,73,0,0
130035,-64.5161290322581,4,2,75,73,0,0
130092,-64.5161290322581,4,2,1,73,0,0
130205,-64.5161290322581,4,2,55,73,0,0
130431,-64.5161290322581,4,2,65,73,0,0
130600,-64.5161290322581,4,2,1,73,0,0
130713,-64.5161290322581,4,2,75,73,0,0
130939,-64.5161290322581,4,2,66,73,0,0
131109,-64.5161290322581,4,2,76,73,0,0
131193,-64.5161290322581,4,2,1,34,0,0
131278,-54.054054054054,4,2,3,68,0,0
131617,-54.054054054054,4,2,3,62,0,0
131786,-54.054054054054,4,2,3,47,0,0
131956,-54.054054054054,4,2,3,61,0,0
132125,-54.054054054054,4,2,3,40,0,0
132295,-54.054054054054,4,2,3,56,0,0
132464,-54.054054054054,4,2,3,42,0,0
132634,-54.054054054054,4,2,3,57,0,0
132803,-54.054054054054,4,2,3,39,0,0
132973,-43.4782608695652,4,2,3,56,0,0
133142,-43.4782608695652,4,2,3,38,0,0
133312,-43.4782608695652,4,2,3,66,0,0
133481,-43.4782608695652,4,2,1,39,0,0
133566,-43.4782608695652,4,2,1,52,0,0
133651,-43.4782608695652,4,2,1,68,0,0
133990,-54.054054054054,4,2,1,68,0,0
134159,-54.054054054054,4,2,1,48,0,0
134244,-54.054054054054,4,2,1,58,0,0
134329,-54.054054054054,4,2,1,68,0,0
134498,-43.4782608695652,4,2,1,68,0,0
135176,-48.780487804878,4,2,1,68,0,0
136702,-54.054054054054,4,2,3,68,0,0
136871,-54.054054054054,4,2,2,68,0,0
137719,-54.054054054054,4,2,3,68,0,0
137888,-54.054054054054,4,2,1,68,0,0
139414,-64.5161290322581,4,2,1,56,0,0
140007,-64.5161290322581,4,2,1,36,0,0
140092,-64.5161290322581,4,2,1,56,0,0
141532,-64.5161290322581,4,2,1,35,0,0
141617,-64.5161290322581,4,2,1,56,0,0
142634,-64.5161290322581,4,2,1,34,0,0
142719,-64.5161290322581,4,2,1,55,0,0
142803,-64.5161290322581,4,2,1,58,0,0
145431,-64.5161290322581,4,2,1,44,0,0
145515,-64.5161290322581,4,2,1,58,0,0
146956,-64.5161290322581,4,2,1,32,0,0
147041,-64.5161290322581,4,2,1,58,0,0
148058,-64.5161290322581,4,2,1,31,0,0
148142,-64.5161290322581,4,2,1,39,0,0
148227,-64.5161290322581,4,2,1,58,0,0
148736,-64.5161290322581,4,2,2,58,0,0
149075,-64.5161290322581,4,2,1,58,0,0
149244,-64.5161290322581,4,2,3,58,0,0
149583,-64.5161290322581,4,2,1,58,0,0
149837,-64.5161290322581,4,2,1,45,0,0
149922,-64.5161290322581,4,2,1,58,0,0
150261,-57.1428571428571,4,2,1,58,0,0
150770,-57.1428571428571,4,2,2,58,0,0
150939,-57.1428571428571,4,2,1,58,0,0
151956,-57.1428571428571,4,2,3,57,0,0
152295,-57.1428571428571,4,2,3,58,0,0
152464,-57.1428571428571,4,2,3,32,0,0
152549,-57.1428571428571,4,2,3,42,0,0
152634,-57.1428571428571,4,2,3,58,0,0
152803,-57.1428571428571,4,2,1,58,0,0
154159,-57.1428571428571,4,2,2,58,0,0
154498,-57.1428571428571,4,2,1,58,0,0
155176,-57.1428571428571,4,2,1,36,0,0
155261,-57.1428571428571,4,2,1,42,0,0
155346,-57.1428571428571,4,2,1,68,0,0
155685,-57.1428571428571,4,2,2,58,0,0
155854,-57.1428571428571,4,2,1,47,0,0
156024,-57.1428571428571,4,2,1,58,0,0
156193,-57.1428571428571,4,2,3,58,0,0
156363,-57.1428571428571,4,2,1,58,0,0
156702,-86.9565217391304,4,2,3,58,0,0
157210,-57.1428571428571,4,2,3,58,0,0
158397,-57.1428571428571,4,2,2,58,0,0
158736,-57.1428571428571,4,2,3,58,0,0
159075,-57.1428571428571,4,2,3,33,0,0
159244,-57.1428571428571,4,2,3,68,0,0
159414,-86.9565217391304,4,2,3,61,0,0
159922,-57.1428571428571,4,2,3,61,0,0
160600,-57.1428571428571,4,2,3,35,0,0
160685,-57.1428571428571,4,2,3,44,0,0
160770,-57.1428571428571,4,2,3,58,0,0
162125,-47.6190476190476,4,2,1,58,0,0
162803,-57.1428571428571,4,2,1,58,0,0
163312,-57.1428571428571,4,2,1,36,0,0
163397,-57.1428571428571,4,2,1,40,0,0
163481,-57.1428571428571,4,2,1,68,0,0
163820,-54.054054054054,4,2,1,68,0,0
163990,-54.054054054054,4,2,1,34,0,0
164075,-54.054054054054,4,2,1,42,0,0
164159,-54.054054054054,4,2,1,68,0,0
164583,-54.054054054054,4,2,1,38,0,0
164668,-54.054054054054,4,2,1,68,0,0
165007,-54.054054054054,4,2,1,34,0,0
165092,-54.054054054054,4,2,1,43,0,0
165176,-54.054054054054,4,2,1,68,0,0
166532,-54.054054054054,4,2,4,63,0,0
167041,-54.054054054054,4,2,1,33,0,0
171278,-54.054054054054,4,2,2,46,0,0
171617,-54.054054054054,4,2,2,55,0,0
171786,-54.054054054054,4,2,1,61,0,0
171956,-71.4285714285714,4,2,2,51,0,0
174159,-71.4285714285714,4,2,1,51,0,0
174329,-71.4285714285714,4,2,2,51,0,0
174498,-54.054054054054,4,2,2,51,0,0
174922,-54.054054054054,4,2,2,57,0,0
175007,-54.054054054054,4,2,2,66,0,0
175176,-46.5116279069767,4,2,1,68,0,0
175854,-54.054054054054,4,2,1,68,0,0
176109,-54.054054054054,4,2,1,28,0,0
176193,-54.054054054054,4,2,1,68,0,0
176532,-54.054054054054,4,2,1,32,0,0
176617,-54.054054054054,4,2,1,53,0,0
176702,-54.054054054054,4,2,1,68,0,0
176871,-54.054054054054,4,2,1,50,0,0
177041,-54.054054054054,4,2,1,54,0,0
177210,-54.054054054054,4,2,1,57,0,0
177295,-54.054054054054,4,2,1,67,0,0
177380,-51.2820512820513,4,2,1,68,0,1
179244,-45.4545454545455,4,2,1,68,0,1
179498,-45.4545454545455,4,2,1,49,0,1
179583,-45.4545454545455,4,2,1,68,0,1
179922,-40,4,2,1,68,0,1
180939,-45.4545454545455,4,2,1,68,0,1
181956,-51.2820512820513,4,2,2,68,0,1
182973,-51.2820512820513,4,2,1,68,0,1
183312,-51.2820512820513,4,2,3,68,0,1
183397,-51.2820512820513,4,2,3,49,0,1
183481,-51.2820512820513,4,2,3,68,0,1
184753,-51.2820512820513,4,2,3,38,0,1
184837,-51.2820512820513,4,2,3,68,0,1
185007,-51.2820512820513,4,2,1,68,0,1
186024,-44.4444444444445,4,2,1,68,0,1
186702,-40,4,2,1,68,0,1
187210,-40,4,2,2,68,0,1
187380,-51.2820512820513,4,2,3,68,0,1
187719,-51.2820512820513,4,2,1,68,0,1
187973,-51.2820512820513,4,2,1,41,0,1
188058,-51.2820512820513,4,2,1,68,0,1
188397,-51.2820512820513,4,2,1,48,0,1
188566,-51.2820512820513,4,2,1,68,0,1
190431,-51.2820512820513,4,2,1,39,0,1
190515,-51.2820512820513,4,2,1,68,0,1
195515,-51.2820512820513,4,2,1,42,0,1
195600,-51.2820512820513,4,2,1,38,0,1
195685,-51.2820512820513,4,2,1,68,0,1
195854,-51.2820512820513,4,2,1,31,0,1
195939,-51.2820512820513,4,2,1,48,0,1
196024,-51.2820512820513,4,2,1,68,0,1
196532,-51.2820512820513,4,2,1,48,0,1
196617,-51.2820512820513,4,2,1,58,0,1
196702,-51.2820512820513,4,2,1,68,0,1
197549,-45.4545454545455,4,2,2,68,0,1
197888,-51.2820512820513,4,2,1,68,0,1
199075,-54.054054054054,4,2,1,68,0,0
200939,-54.054054054054,4,2,1,39,0,0
201024,-54.054054054054,4,2,1,47,0,0
201109,-54.054054054054,4,2,1,68,0,0
203651,-54.054054054054,4,2,1,45,0,0
203820,-54.054054054054,4,2,1,68,0,0
203990,-54.054054054054,4,2,1,54,0,0
204075,-54.054054054054,4,2,1,34,0,0
204159,-54.054054054054,4,2,1,58,0,0
204329,-54.054054054054,4,2,1,68,0,0
206786,-54.054054054054,4,2,1,48,0,0
207041,-54.054054054054,4,2,1,68,0,0
207125,-54.054054054054,4,2,1,48,0,0
207210,-54.054054054054,4,2,1,68,0,0
207380,-54.054054054054,4,2,1,53,0,0
207464,-54.054054054054,4,2,1,58,0,0
207549,-54.054054054054,4,2,1,68,0,0
207973,-54.054054054054,4,2,1,40,0,0
208058,-54.054054054054,4,2,1,68,0,0
208397,-54.054054054054,4,2,1,43,0,0
208481,-54.054054054054,4,2,1,56,0,0
208566,-54.054054054054,4,2,1,36,0,0
208651,-54.054054054054,4,2,1,68,0,0
208736,-54.054054054054,4,2,2,68,0,0
208905,-54.054054054054,4,2,2,48,0,0
209075,-54.054054054054,4,2,1,68,0,0

[Colours]
Combo1 : 200,130,247
Combo2 : 226,188,137
Combo3 : 0,221,193
Combo4 : 247,145,203

[HitObjects]
81,110,1109,6,0,P|121:102|154:127,1,85.0000016212464,4|8,3:2|0:0,0:0:0:0:
167,145,1363,1,8,0:0:0:0:
167,145,1447,2,0,L|159:208,1,42.5000008106232,8|8,0:0|0:0,0:0:0:0:
251,277,1617,6,0,L|239:181,1,85.0000016212464,4|4,3:2|3:0,0:0:0:0:
250,180,1871,1,4,3:0:0:0:
250,180,1956,1,2,3:0:0:0:
370,196,2125,5,4,3:2:0:0:
316,136,2295,2,0,L|323:72,2,42.5000008106232,8|8|2,0:0|0:0|3:0,0:0:0:0:
441,159,2634,5,4,3:2:0:0:
417,259,2803,1,0,0:0:0:0:
393,359,2973,5,2,3:2:0:0:
344,295,3142,1,0,0:0:0:0:
336,302,3481,5,2,3:0:0:0:
223,146,3820,5,4,3:2:0:0:
107,163,3990,1,2,0:0:0:0:
229,135,4159,1,8,0:0:0:0:
318,55,4329,6,0,L|294:245,1,184.999999294281,2|2,0:0|3:2,0:0:0:0:
351,297,4837,1,8,0:0:0:0:
221,213,5007,2,0,B|116:199|158:282|54:268,1,184.999999294281,2|2,3:2|3:2,0:0:0:0:
116,342,5515,1,8,0:0:0:0:
280,266,5685,6,0,B|308:309|308:309|432:294|432:294|450:245,1,230.000004386902,2|2,3:2|3:2,0:0:0:0:
495,99,6193,1,8,0:0:0:0:
395,187,6363,1,2,3:2:0:0:
470,171,6532,1,0,3:0:0:0:
479,178,6871,5,8,0:0:0:0:
365,115,7041,1,2,0:0:0:0:
275,201,7210,1,0,3:0:0:0:
308,274,7380,6,0,L|294:376,1,92.4999996471405,2|8,0:0|0:0,0:0:0:0:
286,123,7719,1,2,0:0:0:0:
224,69,7888,2,0,P|138:77|113:161,1,184.999999294281,0|8,3:0|0:0,0:0:0:0:
192,180,8397,1,2,0:0:0:0:
47,209,8566,5,2,3:0:0:0:
60,287,8736,2,0,L|52:350,1,46.2499998235703,8|8,0:0|0:0,0:0:0:0:
206,334,8905,5,8,3:2:0:0:
250,267,9075,1,8,0:0:0:0:
248,251,9159,1,8,0:0:0:0:
246,236,9244,5,4,3:2:0:0:
348,144,9414,1,2,0:0:0:0:
440,246,9583,1,8,0:0:0:0:
403,316,9753,6,0,L|426:132,1,184.999999294281,2|2,0:0|3:2,0:0:0:0:
371,74,10261,1,8,0:0:0:0:
218,120,10431,2,0,P|285:112|330:223,1,184.999999294281,2|2,3:2|3:2,0:0:0:0:
260,227,10939,1,8,0:0:0:0:
416,168,11109,5,2,3:2:0:0:
479,215,11278,1,4,3:0:0:0:
356,277,11447,5,8,0:0:0:0:
346,260,11532,1,8,0:0:0:0:
361,230,11617,1,8,0:0:0:0:
336,203,11702,1,8,0:0:0:0:
336,203,11786,1,8,0:0:0:0:
278,61,11956,6,0,L|264:172,1,92.4999996471405,4|8,3:2|0:0,0:0:0:0:
260,167,12210,1,8,0:0:0:0:
260,167,12295,1,8,0:0:0:0:
202,40,12464,6,0,B|152:17|152:17|109:51,1,110.000003356934,2|0,3:2|0:0,0:0:0:0:
350,135,12803,6,0,B|399:112|399:112|442:146,1,110.000003356934,2|0,3:2|0:0,0:0:0:0:
285,290,13142,6,0,B|273:194|273:194|276:190|276:190|264:91,1,200,4|0,3:2|3:0,0:0:0:0:
202,40,13651,1,10,0:0:0:0:
105,109,13820,1,0,0:0:0:0:
28,86,13990,1,4,3:0:0:0:
30,70,14074,1,0,0:0:0:0:
32,55,14159,2,0,L|39:-8,1,46.2499998235703,4|4,3:0|3:0,0:0:0:0:
186,119,14329,2,0,P|236:112|269:162,1,92.4999996471405,6|6,3:0|3:0,0:0:0:0:
387,113,14668,6,0,P|302:128|284:213,1,184.999999294281,4|8,3:2|0:0,0:0:0:0:
348,304,15177,1,0,0:0:0:0:
346,288,15261,1,0,0:0:0:0:
344,273,15346,2,0,B|362:231|362:231|458:242,2,138.749999470711,0|0|0,3:0|3:0|3:0,0:0:0:0:
155,263,16024,5,0,3:0:0:0:
270,309,16193,1,0,0:0:0:0:
230,239,16363,1,8,0:0:0:0:
195,333,16532,1,0,0:0:0:0:
294,192,16702,5,0,3:0:0:0:
269,84,16871,1,0,3:0:0:0:
319,22,17041,1,8,0:0:0:0:
334,24,17126,1,8,0:0:0:0:
350,26,17210,1,2,3:0:0:0:
197,55,17380,6,0,B|92:41|134:124|30:110,1,184.999999294281,4|8,3:2|0:0,0:0:0:0:
107,181,17888,1,0,0:0:0:0:
105,197,17972,1,0,0:0:0:0:
103,212,18057,2,0,B|121:254|121:254|217:243,2,138.749999470711,0|0|0,3:0|3:0|3:0,0:0:0:0:
38,384,18736,6,0,B|61:328|61:328|189:342,1,184.999999294281,0|8,3:0|0:0,0:0:0:0:
264,352,19244,1,4,3:0:0:0:
431,384,19414,5,4,3:0:0:0:
303,282,19583,1,8,0:0:0:0:
382,181,19753,5,8,3:2:0:0:
380,197,19837,1,8,0:0:0:0:
378,213,19922,1,2,3:0:0:0:
376,229,20007,1,2,3:0:0:0:
374,245,20092,6,0,P|418:217|456:232,1,92.4999996471405,4|8,3:2|0:0,0:0:0:0:
467,246,20346,1,8,0:0:0:0:
467,246,20431,2,0,L|457:325,1,46.2499998235703,8|8,0:0|0:0,0:0:0:0:
324,309,20600,6,0,P|280:281|242:296,1,92.4999996471405,4|4,3:2|3:0,0:0:0:0:
232,308,20854,1,4,3:0:0:0:
232,308,20939,1,2,3:0:0:0:
304,206,21109,6,0,L|292:114,1,92.4999996471405,4|8,3:2|0:0,0:0:0:0:
283,104,21363,1,8,0:0:0:0:
283,104,21448,2,0,L|292:24,1,46.2499998235703,8|8,0:0|0:0,0:0:0:0:
353,14,21617,5,4,3:2:0:0:
219,28,21786,1,0,0:0:0:0:
85,42,21956,5,10,0:0:0:0:
118,323,22803,6,0,L|133:195,1,97.4999955368044,4|0,3:2|0:0,0:0:0:0:
124,214,23142,2,0,P|155:218|181:200,1,64.9999970245363,2|0,3:2|0:0,0:0:0:0:
259,299,23481,2,0,P|227:302|201:284,2,64.9999970245363,8|0|2,0:0|0:0|0:0,0:0:0:0:
327,190,23990,6,0,B|334:254|334:254|332:258|332:258|340:323,1,134.999995880127,2|0,3:2|0:0,0:0:0:0:
334,336,24329,1,0,3:0:0:0:
411,251,24498,2,0,P|442:247|468:265,1,64.9999970245363,0|0,3:0|0:0,0:0:0:0:
403,171,24837,6,0,L|412:91,1,64.9999970245363,8|8,0:0|0:0,0:0:0:0:
405,97,25092,1,8,0:0:0:0:
405,97,25176,1,8,0:0:0:0:
307,38,25346,1,8,0:0:0:0:
245,89,25515,6,0,L|256:185,1,97.4999955368044,2|0,3:2|0:0,0:0:0:0:
248,196,25854,2,0,P|222:177|190:181,1,64.9999970245363,0|0,3:0|0:0,0:0:0:0:
126,134,26193,2,0,P|96:144|81:172,1,64.9999970245363,8|0,0:0|0:0,0:0:0:0:
132,235,26532,1,2,0:0:0:0:
251,105,26702,6,0,P|337:114|364:207,1,184.999999294281,2|0,3:2|3:0,0:0:0:0:
289,215,27210,1,0,3:0:0:0:
453,179,27380,6,0,P|469:145|465:182,1,104.999996795654,10|0,0:0|0:0,0:0:0:0:
369,42,27719,6,0,P|367:4|382:39,1,104.999996795654,10|0,0:0|0:0,0:0:0:0:
512,255,28227,6,0,L|384:270,1,97.4999955368044,2|2,3:2|0:0,0:0:0:0:
407,275,28566,2,0,P|381:256|349:260,1,64.9999970245363,2|2,3:2|0:0,0:0:0:0:
255,344,28905,2,0,P|280:325|312:329,2,64.9999970245363,8|0|0,0:0|0:0|0:0,0:0:0:0:
294,206,29414,6,0,B|287:142|287:142|289:138|289:138|281:73,1,134.999995880127,2|0,3:2|0:0,0:0:0:0:
287,60,29753,1,0,3:0:0:0:
366,132,29922,2,0,P|397:128|423:146,1,64.9999970245363,0|10,3:0|0:0,0:0:0:0:
512,232,30261,2,0,L|447:224,1,64.9999970245363,8|8,0:0|0:0,0:0:0:0:
440,237,30515,1,8,0:0:0:0:
440,237,30600,1,8,0:0:0:0:
352,262,30770,1,8,0:0:0:0:
232,295,30939,6,0,P|199:240|139:263,1,138.749999470711,4|0,3:2|0:0,0:0:0:0:
131,273,31278,2,0,L|121:193,1,72.5000022125245,2|0,3:0|0:0,0:0:0:0:
200,81,31617,5,8,0:0:0:0:
189,161,31786,1,8,0:0:0:0:
189,74,31956,1,8,0:0:0:0:
200,168,32125,1,8,0:0:0:0:
255,26,32295,5,8,0:0:0:0:
397,81,32464,1,8,0:0:0:0:
342,223,32634,1,8,0:0:0:0:
200,168,32803,1,8,0:0:0:0:
260,114,32973,5,4,3:2:0:0:
278,276,33142,2,0,L|264:387,1,92.4999996471405,4|8,3:2|0:0,0:0:0:0:
356,313,33481,2,0,B|412:290|412:290|398:162,1,184.999999294281,4|0,3:2|3:0,0:0:0:0:
331,122,33990,5,10,0:0:0:0:
214,227,34159,2,0,L|103:213,1,92.4999996471405,0|2,0:0|0:0,0:0:0:0:
15,123,34498,2,0,P|100:136|110:222,1,184.999999294281,4|8,3:2|0:0,0:0:0:0:
190,129,35007,5,8,0:0:0:0:
177,103,35092,1,8,0:0:0:0:
192,76,35176,1,8,0:0:0:0:
173,45,35261,1,8,0:0:0:0:
173,45,35346,2,0,L|182:-34,1,46.2499998235703,8|4,3:0|3:0,0:0:0:0:
266,110,35515,5,8,0:0:0:0:
268,126,35599,1,8,0:0:0:0:
270,141,35685,2,0,P|313:129|346:159,1,92.4999996471405,2|0,3:0|3:0,0:0:0:0:
347,178,35939,1,0,3:0:0:0:
347,178,36024,1,8,0:0:0:0:
71,320,36363,6,0,B|123:293|123:293|165:334,1,116.250000886917,4|0,3:2|0:0,0:0:0:0:
171,343,36702,2,0,P|203:322|239:333,1,77.5000005912781,10|2,0:0|0:0,0:0:0:0:
335,253,37041,1,2,3:2:0:0:
317,330,37210,1,2,0:0:0:0:
413,273,37380,1,8,0:0:0:0:
395,196,37549,1,0,0:0:0:0:
508,131,37719,6,0,L|333:109,1,155.000001182556,2|8,3:2|0:0,0:0:0:0:
234,28,38227,2,0,B|280:53|280:53|269:154,1,155.000001182556,2|2,0:0|0:0,0:0:0:0:
161,246,38736,1,8,0:0:0:0:
192,173,38905,1,0,0:0:0:0:
313,223,39075,5,2,3:2:0:0:
325,220,39414,1,8,0:0:0:0:
294,293,39583,1,2,0:0:0:0:
154,270,39753,2,0,P|185:249|221:259,1,77.5000005912781,2|2,3:2|0:0,0:0:0:0:
329,356,40092,1,10,0:0:0:0:
298,283,40261,1,0,0:0:0:0:
249,165,40431,6,0,L|95:184,1,155.000001182556,0|8,3:0|0:0,0:0:0:0:
77,262,40939,1,2,0:0:0:0:
28,139,41109,5,2,3:2:0:0:
100,106,41278,1,8,0:0:0:0:
113,80,41363,1,8,0:0:0:0:
98,53,41447,1,8,0:0:0:0:
117,22,41532,1,8,0:0:0:0:
117,22,41617,1,2,3:0:0:0:
253,122,41786,6,0,B|212:108|212:108|177:132,1,85.0000016212464,4|0,3:2|0:0,0:0:0:0:
224,196,42125,1,8,0:0:0:0:
308,64,42295,2,0,L|477:85,1,170.000003242493,2|0,3:2|3:0,0:0:0:0:
254,3,42803,2,0,B|138:-12|184:79|69:63,1,205.000003128052,12|0,0:0|0:0,0:0:0:0:
11,119,43312,1,0,3:0:0:0:
106,226,43481,5,8,0:0:0:0:
51,285,43651,2,0,L|62:380,1,85.0000016212464,0|4,3:0|3:0,0:0:0:0:
181,262,43990,5,8,0:0:0:0:
183,246,44074,1,8,0:0:0:0:
185,231,44159,2,0,L|192:167,1,42.5000008106232,8|8,0:0|0:0,0:0:0:0:
200,113,44329,1,2,3:0:0:0:
57,52,44498,6,0,P|101:80|139:65,1,92.4999996471405,4|8,3:2|0:0,0:0:0:0:
150,51,44752,1,8,0:0:0:0:
150,51,44837,2,0,L|140:-28,1,46.2499998235703,8|8,0:0|0:0,0:0:0:0:
21,183,45006,6,0,P|65:155|103:170,1,92.4999996471405,0|8,3:2|0:0,0:0:0:0:
113,182,45260,1,8,0:0:0:0:
113,182,45345,1,4,3:0:0:0:
255,254,45515,6,0,L|163:242,1,92.4999996471405,4|8,3:2|0:0,0:0:0:0:
156,256,45770,1,8,0:0:0:0:
156,256,45854,2,0,L|161:301,1,46.2499998235703,2|8,3:0|0:0,0:0:0:0:
319,205,46024,5,4,3:2:0:0:
305,127,46193,1,0,0:0:0:0:
380,23,46363,5,2,3:2:0:0:
447,68,46532,2,0,L|263:44,1,184.999999294281,8|2,0:0|3:0,0:0:0:0:
95,285,47210,5,4,3:2:0:0:
243,250,47379,1,2,0:0:0:0:
208,102,47549,1,8,0:0:0:0:
264,44,47719,2,0,L|448:68,1,184.999999294281,2|2,3:2|3:2,0:0:0:0:
508,15,48227,1,8,0:0:0:0:
431,169,48397,6,0,B|468:143|468:143|513:158,1,92.4999996471405,2|0,3:2|3:0,0:0:0:0:
299,270,48736,2,0,B|261:244|261:244|216:259,1,92.4999996471405,2|8,3:2|0:0,0:0:0:0:
355,112,49075,6,0,B|345:190|345:190|384:249|384:249|375:328,1,230.000004386902,2|2,3:2|3:2,0:0:0:0:
241,384,49583,1,8,0:0:0:0:
182,329,49753,1,2,0:0:0:0:
80,378,49922,1,0,3:0:0:0:
71,371,50261,5,8,0:0:0:0:
172,250,50431,1,2,0:0:0:0:
298,330,50600,1,0,3:0:0:0:
366,287,50770,6,0,L|379:175,1,92.4999996471405,2|8,0:0|0:0,0:0:0:0:
309,55,51109,1,2,0:0:0:0:
385,76,51278,2,0,P|318:86|317:209,1,184.999999294281,0|8,3:0|0:0,0:0:0:0:
376,195,51786,1,2,0:0:0:0:
210,154,51956,5,2,3:0:0:0:
156,212,52125,2,0,L|162:267,1,46.2499998235703,8|8,0:0|0:0,0:0:0:0:
17,144,52295,5,8,3:2:0:0:
87,67,52464,1,8,0:0:0:0:
85,82,52549,1,8,0:0:0:0:
83,98,52634,5,4,3:2:0:0:
204,146,52803,1,2,0:0:0:0:
325,194,52973,1,8,0:0:0:0:
284,126,53142,2,0,L|308:310,1,184.999999294281,2|2,3:2|3:2,0:0:0:0:
247,362,53651,1,8,0:0:0:0:
379,247,53820,6,0,L|474:258,1,92.4999996471405,2|0,0:0|3:0,0:0:0:0:
212,200,54159,2,0,L|116:211,1,92.4999996471405,2|8,3:2|0:0,0:0:0:0:
273,110,54498,1,2,3:2:0:0:
271,125,54583,1,8,0:0:0:0:
269,141,54668,1,4,3:0:0:0:
201,74,54837,5,8,0:0:0:0:
191,57,54922,1,8,0:0:0:0:
206,27,55007,1,8,0:0:0:0:
181,0,55092,1,8,0:0:0:0:
181,0,55176,1,2,3:0:0:0:
137,128,55346,6,0,L|26:114,1,92.4999996471405,4|8,3:2|0:0,0:0:0:0:
36,126,55600,1,8,0:0:0:0:
36,126,55685,1,8,0:0:0:0:
149,207,55854,6,0,B|201:200|201:200|203:202|203:202|258:195,1,110.000003356934,2|0,3:2|0:0,0:0:0:0:
374,287,56193,6,0,B|321:280|321:280|319:282|319:282|264:275,1,110.000003356934,2|0,3:2|0:0,0:0:0:0:
338,128,56532,6,0,B|365:81|313:29|313:29|249:67|265:119,1,220.000006713867,4|0,3:2|3:0,0:0:0:0:
192,252,57041,1,12,0:0:0:0:
208,330,57210,1,0,0:0:0:0:
124,207,57380,5,6,3:0:0:0:
118,187,57464,1,0,0:0:0:0:
133,149,57549,1,4,3:0:0:0:
117,112,57634,1,4,3:0:0:0:
117,112,57719,1,6,3:0:0:0:
168,50,57888,1,0,3:0:0:0:
298,118,58058,6,0,L|409:104,1,92.4999996471405,4|2,3:2|0:0,0:0:0:0:
280,196,58397,1,8,0:0:0:0:
357,218,58566,2,0,B|252:204|294:287|190:273,1,184.999999294281,2|2,3:2|3:2,0:0:0:0:
135,214,59075,1,8,0:0:0:0:
149,362,59244,6,0,P|188:350|228:383,1,92.4999996471405,2|0,0:0|3:0,0:0:0:0:
127,223,59583,2,0,P|87:211|47:244,1,92.4999996471405,2|8,3:2|0:0,0:0:0:0:
221,65,59922,6,0,B|208:168|208:168|211:172|211:172|199:273,1,209.999993591309,2|2,0:0|0:0,0:0:0:0:
361,376,60431,1,8,0:0:0:0:
293,175,60600,6,0,B|358:166|372:98|372:98|402:161|468:153,1,239.999992675781,2|2,0:0|0:0,0:0:0:0:
387,220,61109,1,8,0:0:0:0:
400,298,61278,1,2,0:0:0:0:
237,377,61447,5,0,3:0:0:0:
138,195,61617,2,0,B|189:182|189:182|227:218,1,104.999996795654,2|8,0:0|0:0,0:0:0:0:
45,300,61956,6,0,B|57:199|57:199|54:195|54:195|67:92,1,209.999993591309,4|0,3:2|3:0,0:0:0:0:
132,46,62464,1,8,0:0:0:0:
249,129,62634,2,0,B|312:120|312:120|360:152|360:152|424:145,1,184.999999294281,4|8,3:2|0:0,0:0:0:0:
438,161,63058,1,8,0:0:0:0:
438,161,63142,1,8,0:0:0:0:
292,201,63312,1,8,0:0:0:0:
290,216,63397,1,8,0:0:0:0:
288,232,63481,5,4,3:2:0:0:
389,354,63651,1,2,0:0:0:0:
254,302,63820,1,8,0:0:0:0:
194,355,63990,2,0,P|108:336|95:250,1,184.999999294281,2|2,3:2|3:2,0:0:0:0:
49,185,64498,1,8,0:0:0:0:
177,111,64668,6,0,L|165:15,1,92.4999996471405,2|0,3:2|3:0,0:0:0:0:
328,160,65007,2,0,L|316:251,1,92.4999996471405,2|8,3:2|0:0,0:0:0:0:
129,179,65346,5,2,3:2:0:0:
255,80,65515,2,0,P|299:88|334:61,1,92.4999996471405,4|8,3:0|0:0,0:0:0:0:
351,51,65770,1,8,0:0:0:0:
351,51,65854,2,0,L|396:56,1,46.2499998235703,8|8,0:0|0:0,0:0:0:0:
473,66,66024,1,2,3:0:0:0:
367,217,66193,6,0,B|350:173|350:173|379:136,1,92.4999996471405,4|8,3:2|0:0,0:0:0:0:
440,186,66532,1,8,0:0:0:0:
299,107,66702,6,0,B|247:100|247:100|245:102|245:102|190:95,1,110.000003356934,2|0,3:2|0:0,0:0:0:0:
320,302,67041,6,0,B|373:295|373:295|375:297|375:297|428:290,1,110.000003356934,2|0,3:2|0:0,0:0:0:0:
169,272,67380,6,0,B|148:225|148:225|196:176|196:176|256:212|256:212|246:261,1,239.999992675781,4|0,3:2|3:0,0:0:0:0:
391,373,67888,1,10,0:0:0:0:
367,297,68058,1,0,0:0:0:0:
328,175,68227,5,8,3:0:0:0:
383,116,68397,1,4,3:0:0:0:
385,100,68482,1,4,3:0:0:0:
387,85,68566,1,6,3:0:0:0:
249,165,68736,1,2,3:0:0:0:
173,137,68905,6,0,P|256:114|266:28,1,184.999999294281,4|8,3:2|0:0,0:0:0:0:
118,80,69414,1,0,0:0:0:0:
102,78,69498,1,0,0:0:0:0:
87,76,69583,2,0,L|98:171,1,92.4999996471405,0|0,3:0|0:0,0:0:0:0:
110,178,69837,2,0,L|98:273,1,92.4999996471405,0|0,3:0|0:0,0:0:0:0:
87,280,70092,1,0,3:0:0:0:
194,373,70261,5,0,3:0:0:0:
173,295,70431,1,0,0:0:0:0:
116,352,70600,1,8,0:0:0:0:
251,316,70769,1,0,0:0:0:0:
386,280,70939,5,0,3:0:0:0:
232,240,71109,1,0,3:0:0:0:
279,176,71278,1,8,0:0:0:0:
277,161,71363,1,8,0:0:0:0:
275,145,71447,1,2,3:0:0:0:
421,121,71617,6,0,B|316:135|358:52|254:66,1,184.999999294281,4|8,3:2|0:0,0:0:0:0:
92,136,72125,1,0,0:0:0:0:
108,134,72209,1,0,0:0:0:0:
123,132,72295,2,0,L|250:147,1,92.4999996471405,0|0,3:0|0:0,0:0:0:0:
227,139,72549,2,0,P|215:178|248:218,1,92.4999996471405,0|0,3:0|0:0,0:0:0:0:
256,221,72803,1,0,3:0:0:0:
355,346,72973,6,0,B|332:290|332:290|204:304,1,184.999999294281,0|8,3:0|0:0,0:0:0:0:
129,314,73481,1,4,3:0:0:0:
0,384,73651,5,4,3:0:0:0:
69,259,73820,1,8,0:0:0:0:
8,159,73990,5,8,3:2:0:0:
6,143,74074,1,8,0:0:0:0:
4,127,74159,1,2,3:0:0:0:
2,111,74244,1,0,0:0:0:0:
0,95,74329,6,0,P|44:123|82:108,1,92.4999996471405,4|8,3:2|0:0,0:0:0:0:
93,94,74583,1,8,0:0:0:0:
93,94,74668,2,0,L|83:15,1,46.2499998235703,8|8,0:0|0:0,0:0:0:0:
95,203,74837,6,0,P|139:175|177:190,1,92.4999996471405,4|8,3:2|3:0,0:0:0:0:
187,202,75091,1,4,3:0:0:0:
187,202,75176,1,2,3:0:0:0:
279,264,75346,6,0,L|267:172,1,92.4999996471405,4|8,3:2|0:0,0:0:0:0:
258,162,75600,1,8,0:0:0:0:
258,162,75685,2,0,L|267:82,1,46.2499998235703,8|8,0:0|0:0,0:0:0:0:
328,72,75854,5,4,3:2:0:0:
183,128,76023,1,0,0:0:0:0:
70,171,76193,5,10,0:0:0:0:
449,230,77041,6,0,L|434:358,1,97.4999955368044,4|0,3:2|0:0,0:0:0:0:
443,339,77380,2,0,P|412:335|386:353,1,64.9999970245363,2|0,3:2|0:0,0:0:0:0:
287,264,77719,2,0,P|319:261|345:279,2,64.9999970245363,8|0|2,0:0|0:0|0:0,0:0:0:0:
376,201,78228,6,0,B|369:137|369:137|371:133|371:133|363:68,1,134.999995880127,2|0,3:2|0:0,0:0:0:0:
369,55,78567,1,0,3:0:0:0:
239,12,78736,2,0,P|264:30|296:26,1,64.9999970245363,0|0,3:0|0:0,0:0:0:0:
168,48,79075,6,0,L|159:128,1,64.9999970245363,8|8,0:0|0:0,0:0:0:0:
171,129,79330,1,8,0:0:0:0:
171,129,79414,1,2,0:0:0:0:
246,230,79584,1,0,0:0:0:0:
297,168,79753,6,0,L|393:179,1,97.4999955368044,2|0,3:2|0:0,0:0:0:0:
404,171,80092,2,0,P|385:145|389:113,1,64.9999970245363,2|0,3:2|0:0,0:0:0:0:
342,49,80431,2,0,P|352:19|380:4,1,64.9999970245363,8|0,0:0|0:0,0:0:0:0:
443,55,80770,1,2,0:0:0:0:
304,123,80939,6,0,B|229:113|259:171|186:161,1,129.999994049073,2|0,3:2|3:0,0:0:0:0:
126,109,81448,1,0,3:0:0:0:
188,240,81617,6,0,B|175:290|175:290|179:237,1,104.999996795654,10|0,0:0|0:0,0:0:0:0:
56,151,81956,6,0,B|43:100|43:100|47:154,1,104.999996795654,10|0,0:0|0:0,0:0:0:0:
279,356,82464,6,0,L|264:228,1,97.4999955368044,2|2,3:2|0:0,0:0:0:0:
276,251,82804,2,0,P|302:270|334:266,1,64.9999970245363,2|0,3:2|0:0,0:0:0:0:
428,182,83143,2,0,P|403:201|371:197,2,64.9999970245363,10|0|0,0:0|0:0|0:0,0:0:0:0:
297,174,83652,6,0,B|290:110|290:110|292:106|292:106|284:41,1,134.999995880127,2|0,3:2|0:0,0:0:0:0:
290,28,83991,1,0,3:0:0:0:
212,104,84160,2,0,P|181:108|155:90,1,64.9999970245363,0|2,3:0|0:0,0:0:0:0:
219,185,84498,2,0,L|211:250,1,64.9999970245363,8|8,0:0|0:0,0:0:0:0:
221,265,84753,1,8,0:0:0:0:
221,265,84838,1,8,0:0:0:0:
313,246,85008,1,8,0:0:0:0:
427,225,85177,6,0,P|372:192|395:132,1,138.749999470711,4|0,3:2|0:0,0:0:0:0:
405,124,85516,2,0,L|325:114,1,72.5000022125245,2|0,3:0|0:0,0:0:0:0:
147,72,85854,5,8,0:0:0:0:
207,19,86024,1,8,0:0:0:0:
276,59,86193,1,8,0:0:0:0:
259,137,86363,1,8,0:0:0:0:
139,81,86532,5,8,0:0:0:0:
48,177,86702,1,8,0:0:0:0:
111,293,86871,1,8,0:0:0:0:
240,268,87041,1,8,0:0:0:0:
168,233,87211,5,4,3:2:0:0:
312,303,87380,2,0,L|403:291,1,92.4999996471405,4|8,3:2|0:0,0:0:0:0:
484,370,87719,2,0,B|428:347|428:347|442:219,1,184.999999294281,4|0,3:2|3:0,0:0:0:0:
455,211,88142,1,0,0:0:0:0:
455,211,88228,5,12,0:0:0:0:
367,80,88397,2,0,L|378:171,1,92.4999996471405,2|2,3:0|3:2,0:0:0:0:
194,305,88736,2,0,B|297:318|255:236|360:250,1,184.999999294281,4|8,3:2|0:0,0:0:0:0:
212,224,89245,5,8,0:0:0:0:
225,198,89330,1,8,0:0:0:0:
210,171,89414,1,8,0:0:0:0:
229,140,89499,1,8,0:0:0:0:
229,140,89583,2,8,L|308:131,2,61.666666431427,8|8|8,3:0|0:0|0:0,0:0:0:0:
168,89,89923,6,0,P|125:77|92:107,1,92.4999996471405,8|0,0:0|3:0,0:0:0:0:
93,125,90177,1,0,3:0:0:0:
93,125,90262,1,8,0:0:0:0:
396,136,90600,6,0,B|344:163|344:163|302:122,1,116.250000886917,4|0,3:2|0:0,0:0:0:0:
296,113,90939,2,0,P|264:134|228:123,1,77.5000005912781,10|2,0:0|0:0,0:0:0:0:
132,203,91278,1,2,3:2:0:0:
150,126,91447,1,2,0:0:0:0:
55,71,91617,1,8,0:0:0:0:
73,148,91786,1,0,0:0:0:0:
210,184,91956,6,0,L|188:359,1,155.000001182556,2|8,3:2|0:0,0:0:0:0:
67,384,92464,2,0,B|113:359|113:359|102:258,1,155.000001182556,2|2,0:0|0:0,0:0:0:0:
17,149,92973,1,8,0:0:0:0:
90,180,93142,1,0,0:0:0:0:
199,106,93312,6,0,B|286:94|250:164|340:152,1,155.000001182556,0|8,3:0|0:0,0:0:0:0:
395,95,93820,1,2,0:0:0:0:
482,184,93990,2,0,P|451:163|415:173,1,77.5000005912781,2|2,3:2|0:0,0:0:0:0:
337,305,94329,1,10,0:0:0:0:
357,228,94498,1,0,0:0:0:0:
426,332,94668,6,0,L|272:351,1,155.000001182556,2|8,3:2|0:0,0:0:0:0:
207,304,95176,1,2,0:0:0:0:
78,366,95346,5,2,3:2:0:0:
20,310,95515,1,8,0:0:0:0:
26,286,95600,1,8,0:0:0:0:
11,254,95684,1,8,0:0:0:0:
29,225,95769,1,8,0:0:0:0:
29,225,95854,1,2,3:0:0:0:
172,193,96024,6,0,B|131:207|131:207|96:183,1,85.0000016212464,4|0,3:2|0:0,0:0:0:0:
143,119,96362,1,8,0:0:0:0:
244,230,96532,2,0,B|293:254|293:254|280:369,1,170.000003242493,4|0,3:2|3:0,0:0:0:0:
240,151,97041,2,0,B|356:166|310:75|425:91,1,205.000003128052,12|0,0:0|0:0,0:0:0:0:
483,35,97549,1,0,3:0:0:0:
447,167,97718,5,8,0:0:0:0:
504,224,97888,2,0,L|494:308,1,85.0000016212464,0|4,3:0|3:0,0:0:0:0:
424,384,98227,5,8,0:0:0:0:
422,368,98311,1,8,0:0:0:0:
420,353,98396,2,0,L|413:289,1,42.5000008106232,8|8,0:0|0:0,0:0:0:0:
405,235,98566,1,2,3:0:0:0:
237,199,98736,6,0,P|281:171|319:186,1,92.4999996471405,4|8,3:2|0:0,0:0:0:0:
330,200,98989,1,8,0:0:0:0:
330,200,99074,2,0,L|320:279,1,46.2499998235703,8|8,0:0|0:0,0:0:0:0:
228,105,99244,6,0,P|184:77|146:92,1,92.4999996471405,4|8,3:2|0:0,0:0:0:0:
136,104,99497,1,8,0:0:0:0:
136,104,99582,1,4,3:0:0:0:
260,24,99752,6,0,L|352:12,1,92.4999996471405,4|8,3:2|0:0,0:0:0:0:
359,26,100007,1,8,0:0:0:0:
359,26,100091,2,0,L|354:71,1,46.2499998235703,2|8,3:0|0:0,0:0:0:0:
411,130,100261,5,4,3:2:0:0:
425,208,100430,1,0,0:0:0:0:
350,312,100600,5,2,3:2:0:0:
283,267,100770,2,0,L|467:291,1,184.999999294281,8|2,0:0|3:0,0:0:0:0:
159,355,101447,5,4,3:2:0:0:
124,207,101616,1,2,0:0:0:0:
46,227,101786,1,8,0:0:0:0:
237,335,101956,2,0,L|261:151,1,184.999999294281,2|2,3:2|3:2,0:0:0:0:
207,92,102464,1,8,0:0:0:0:
336,185,102634,6,0,B|381:170|381:170|418:196,1,92.4999996471405,2|0,3:2|3:0,0:0:0:0:
332,13,102973,2,0,B|287:-2|287:-2|249:24,1,92.4999996471405,2|8,3:2|0:0,0:0:0:0:
480,53,103312,6,0,B|509:114|509:114|412:102|412:102|408:97|408:97|330:88,1,245.000002336502,2|2,3:2|3:2,0:0:0:0:
259,203,103820,1,8,0:0:0:0:
180,187,103990,1,2,0:0:0:0:
72,164,104159,1,0,3:0:0:0:
79,172,104498,5,8,0:0:0:0:
234,129,104668,1,2,0:0:0:0:
207,54,104837,1,0,3:0:0:0:
306,168,105007,6,0,L|295:259,1,92.4999996471405,2|8,0:0|0:0,0:0:0:0:
160,338,105346,1,2,0:0:0:0:
235,313,105515,2,0,P|160:293|162:175,1,184.999999294281,0|8,3:0|0:0,0:0:0:0:
224,186,106024,1,2,0:0:0:0:
316,64,106193,5,2,3:0:0:0:
376,117,106363,1,8,0:0:0:0:
374,132,106448,1,8,0:0:0:0:
372,148,106532,1,8,3:2:0:0:
310,225,106702,5,8,0:0:0:0:
308,210,106786,1,8,0:0:0:0:
306,194,106871,1,4,3:2:0:0:
180,236,107040,1,2,0:0:0:0:
102,254,107210,1,8,0:0:0:0:
250,282,107380,2,0,L|434:306,1,184.999999294281,2|2,3:2|3:2,0:0:0:0:
499,259,107888,1,8,0:0:0:0:
447,124,108057,6,0,L|457:32,1,92.4999996471405,2|0,0:0|3:0,0:0:0:0:
259,113,108397,2,0,L|269:204,1,92.4999996471405,2|8,3:2|0:0,0:0:0:0:
373,148,108735,1,2,3:2:0:0:
358,146,108820,1,0,0:0:0:0:
342,144,108905,1,4,3:0:0:0:
190,75,109074,5,8,0:0:0:0:
200,58,109159,1,8,0:0:0:0:
185,28,109244,1,8,0:0:0:0:
210,1,109329,1,8,0:0:0:0:
210,1,109413,1,8,0:0:0:0:
124,118,109583,6,0,P|81:106|46:135,1,92.4999996471405,4|8,3:2|0:0,0:0:0:0:
49,149,109837,1,8,0:0:0:0:
49,149,109922,1,8,0:0:0:0:
177,183,110091,6,0,B|232:190|232:190|234:188|234:188|286:195,1,110.000003356934,2|0,3:2|0:0,0:0:0:0:
457,70,110430,6,0,B|404:77|404:77|402:75|402:75|347:82,1,110.000003356934,2|0,3:2|0:0,0:0:0:0:
364,242,110770,6,0,B|348:192|412:154|412:154|464:206|437:253,1,220.000006713867,4|0,3:2|3:0,0:0:0:0:
307,352,111278,1,12,0:0:0:0:
291,274,111447,1,8,0:0:0:0:
211,182,111617,5,6,3:0:0:0:
217,162,111701,1,0,0:0:0:0:
202,124,111786,1,4,3:0:0:0:
218,87,111871,1,4,3:0:0:0:
218,87,111956,1,6,3:0:0:0:
167,25,112125,1,0,3:0:0:0:
72,189,112295,5,4,3:2:0:0:
142,226,112465,2,0,L|153:318,1,92.4999996471405,2|8,0:0|0:0,0:0:0:0:
197,166,112803,2,0,B|302:180|260:97|364:111,1,184.999999294281,2|2,3:2|3:2,0:0:0:0:
419,169,113312,1,8,0:0:0:0:
405,22,113481,6,0,P|366:34|326:1,1,92.4999996471405,2|0,0:0|3:0,0:0:0:0:
427,161,113820,2,0,P|467:173|507:140,1,92.4999996471405,2|8,3:2|0:0,0:0:0:0:
331,320,114159,6,0,B|344:217|344:217|341:213|341:213|353:112,1,209.999993591309,2|2,0:0|0:0,0:0:0:0:
208,0,114668,1,8,0:0:0:0:
262,202,114837,6,0,B|240:145|176:153|176:153|17:172,1,239.999992675781,2|2,0:0|0:0,0:0:0:0:
134,5,115346,1,8,0:0:0:0:
121,83,115515,1,2,0:0:0:0:
95,239,115684,5,0,3:0:0:0:
237,277,115854,2,0,B|186:264|186:264|148:300,1,104.999996795654,2|8,0:0|0:0,0:0:0:0:
306,381,116193,6,0,B|318:280|318:280|315:276|315:276|328:173,1,209.999993591309,4|0,3:2|3:0,0:0:0:0:
393,127,116701,1,8,0:0:0:0:
242,229,116871,2,0,B|179:238|179:238|131:206|131:206|67:213,1,184.999999294281,4|4,3:2|3:0,0:0:0:0:
59,201,117295,1,2,3:0:0:0:
59,201,117379,1,2,3:0:0:0:
200,156,117549,1,8,0:0:0:0:
202,141,117634,1,8,0:0:0:0:
204,126,117718,5,4,3:2:0:0:
102,4,117888,1,2,0:0:0:0:
237,56,118057,1,8,0:0:0:0:
299,5,118227,1,0,0:0:0:0:
315,7,118311,1,8,0:0:0:0:
330,9,118397,2,0,B|367:-17|367:-17|409:0,1,92.4999996471405,0|2,3:0|3:2,0:0:0:0:
377,72,118735,1,8,0:0:0:0:
437,222,118905,6,0,L|449:318,1,92.4999996471405,2|0,3:2|3:0,0:0:0:0:
286,173,119244,2,0,L|298:82,1,92.4999996471405,2|8,3:2|0:0,0:0:0:0:
459,145,119583,5,2,3:2:0:0:
359,253,119752,2,0,P|315:245|280:272,1,92.4999996471405,4|8,3:0|0:0,0:0:0:0:
263,282,120007,1,8,0:0:0:0:
263,282,120091,2,0,L|218:277,1,46.2499998235703,8|8,0:0|0:0,0:0:0:0:
141,267,120261,1,2,3:0:0:0:
53,361,120430,6,0,B|88:333|88:333|132:350,1,92.4999996471405,4|8,3:2|0:0,0:0:0:0:
144,364,120685,1,8,0:0:0:0:
144,364,120770,1,8,0:0:0:0:
189,203,120939,6,0,B|244:210|244:210|246:208|246:208|298:215,1,110.000003356934,2|0,3:2|0:0,0:0:0:0:
120,0,121278,6,0,B|67:7|67:7|65:5|65:5|12:12,1,110.000003356934,2|0,3:2|0:0,0:0:0:0:
265,35,121617,6,0,B|286:82|286:82|238:131|238:131|178:95|178:95|188:46,1,239.999992675781,4|0,3:2|3:0,0:0:0:0:
157,178,122125,1,2,3:0:0:0:
81,202,122295,1,4,3:0:0:0:
0,306,122464,5,0,3:2:0:0:
69,348,122634,1,8,0:0:0:0:
71,363,122719,1,0,0:0:0:0:
73,379,122803,1,8,3:2:0:0:
193,318,122973,1,8,0:0:0:0:
267,352,123142,5,8,3:2:0:0:
119,284,123312,5,8,0:0:0:0:
241,179,123481,5,8,3:2:0:0:
389,247,123651,5,8,0:0:0:0:
315,215,123820,1,0,3:0:0:0:
181,231,123990,6,0,B|68:246|113:157|1:172,1,200,12|0,0:0|0:0,0:0:0:0:
96,103,124498,6,0,L|200:90,1,104.999996795654,4|8,3:2|3:0,0:0:0:0:
216,103,124753,1,0,3:0:0:0:
216,103,124837,1,2,0:0:0:0:
372,295,125176,5,0,3:0:0:0:
356,288,125261,1,0,0:0:0:0:
344,295,125346,1,8,3:0:0:0:
303,282,125431,5,8,0:0:0:0:
263,311,125515,1,8,0:0:0:0:
235,297,125600,1,8,0:0:0:0:
235,297,125685,2,0,L|244:376,1,52.4999983978272,8|8,3:2|0:0,0:0:0:0:
105,229,125854,6,0,B|142:216|142:216|173:238,1,77.5000005912781,12|2,0:2|0:2,0:0:0:0:
130,306,126193,1,8,0:0:0:0:
250,217,126363,2,0,P|323:209|347:139,1,155.000001182556,2|4,0:0|0:0,0:0:0:0:
357,129,126786,1,0,0:0:0:0:
357,129,126871,1,8,0:0:0:0:
484,93,127041,6,0,B|396:104|431:35|344:47,1,155.000001182556,10|4,0:0|0:0,0:0:0:0:
337,35,127464,1,0,0:0:0:0:
336,35,127549,1,8,0:0:0:0:
263,0,127719,1,6,0:0:0:0:
167,108,127888,1,8,0:3:0:0:
169,123,127972,1,0,0:0:0:0:
171,138,128058,2,0,L|181:224,1,77.5000005912781,4|4,0:0|0:3,0:0:0:0:
125,321,128397,1,2,0:0:0:0:
255,241,128566,6,0,P|306:223|346:286,1,129.16666765213,8|0,0:3|0:0,0:0:0:0:
339,285,128905,2,0,L|418:275,1,77.5000005912781,8|2,0:0|0:0,0:0:0:0:
425,265,129159,1,0,0:0:0:0:
425,265,129244,2,0,B|462:252|462:252|493:274,1,77.5000005912781,0|2,3:0|0:0,0:0:0:0:
389,191,129583,1,8,0:0:0:0:
391,176,129668,1,0,0:0:0:0:
393,161,129752,1,2,0:0:0:0:
343,259,129922,6,0,B|256:247|291:316|203:304,1,155.000001182556,8|10,0:3|0:0,0:0:0:0:
79,244,130431,1,6,0:0:0:0:
9,284,130601,1,0,3:0:0:0:
11,299,130685,1,0,0:0:0:0:
13,314,130770,5,12,0:0:0:0:
147,155,130939,1,8,0:0:0:0:
217,195,131109,1,8,0:0:0:0:
215,210,131193,1,8,0:0:0:0:
213,225,131278,5,4,3:2:0:0:
244,211,131362,1,0,0:0:0:0:
278,215,131447,1,0,0:0:0:0:
305,235,131532,1,0,0:0:0:0:
319,267,131617,2,0,L|364:261,3,46.2499998235703,10|0|2|0,0:0|0:0|0:0|0:0,0:0:0:0:
423,313,131956,5,2,3:2:0:0:
439,282,132040,1,0,0:0:0:0:
441,248,132125,1,2,0:0:0:0:
427,216,132210,1,0,0:0:0:0:
402,194,132295,6,0,L|407:148,1,46.2499998235703,10|0,0:0|0:0,0:0:0:0:
471,99,132464,2,0,L|465:53,1,46.2499998235703,2|0,0:0|0:0,0:0:0:0:
345,100,132634,6,0,L|281:92,1,46.2499998235703,2|0,3:2|0:0,0:0:0:0:
309,17,132803,2,0,L|354:22,1,46.2499998235703,2|0,0:0|0:0,0:0:0:0:
239,148,132973,2,0,P|213:136|185:141,1,57.5000010967255,10|0,0:0|0:0,0:0:0:0:
128,87,133142,1,2,0:0:0:0:
126,72,133226,1,0,0:0:0:0:
124,57,133311,1,4,3:0:0:0:
42,178,133481,5,8,0:0:0:0:
45,196,133566,1,8,0:0:0:0:
30,219,133651,1,8,0:0:0:0:
43,259,133736,1,8,0:0:0:0:
43,259,133820,1,2,3:0:0:0:
177,334,133990,6,0,P|133:306|95:321,1,92.4999996471405,4|8,3:2|0:0,0:0:0:0:
85,333,134244,1,8,0:0:0:0:
85,333,134329,1,8,0:0:0:0:
179,234,134498,6,0,B|142:189|142:189|167:137,1,115.000002193451,2|0,3:2|0:0,0:0:0:0:
323,114,134837,2,0,B|359:158|359:158|334:210,1,115.000002193451,2|0,3:2|0:0,0:0:0:0:
239,73,135176,6,0,L|266:295,1,205.000003128052,4|0,3:2|3:0,0:0:0:0:
257,293,135600,1,0,0:0:0:0:
257,293,135685,1,10,0:0:0:0:
324,336,135854,1,0,3:0:0:0:
477,193,136024,5,10,0:0:0:0:
392,380,136193,1,4,3:0:0:0:
396,300,136363,1,2,3:0:0:0:
400,220,136532,1,0,3:0:0:0:
277,155,136702,6,0,L|265:59,1,92.4999996471405,4|0,3:2|3:0,0:0:0:0:
315,0,137040,1,0,3:0:0:0:
193,97,137210,1,12,0:0:0:0:
124,55,137380,1,0,3:0:0:0:
51,89,137549,1,0,3:0:0:0:
200,174,137719,6,0,L|188:269,1,92.4999996471405,12|0,0:0|3:0,0:0:0:0:
238,329,138057,1,0,3:0:0:0:
416,266,138227,2,0,P|355:274|350:406,1,184.999999294281,12|0,0:0|3:0,0:0:0:0:
492,287,138736,5,8,0:0:0:0:
476,210,138905,1,0,3:0:0:0:
451,95,139075,1,6,3:0:0:0:
459,101,139414,6,0,P|417:44|353:76,1,155.000001182556,4|8,3:2|0:0,0:0:0:0:
273,177,139922,1,2,0:0:0:0:
275,162,140006,1,8,0:0:0:0:
277,147,140092,2,0,B|364:135|329:204|416:192,1,155.000001182556,0|8,3:0|0:0,0:0:0:0:
512,286,140600,2,0,P|482:263|444:269,1,77.5000005912781,2|0,0:0|3:0,0:0:0:0:
339,358,140939,5,2,0:0:0:0:
278,305,141109,2,0,L|87:281,1,155.000001182556,8|0,0:0|3:0,0:0:0:0:
60,335,141617,1,2,0:0:0:0:
146,211,141786,1,8,0:0:0:0:
92,151,141956,6,0,P|23:136|20:58,1,155.000001182556,2|2,0:0|0:0,0:0:0:0:
166,25,142464,2,0,L|154:120,1,77.5000005912781,8|10,0:0|0:0,0:0:0:0:
169,116,142719,1,8,0:0:0:0:
169,116,142803,1,0,3:0:0:0:
235,161,142973,1,2,0:0:0:0:
342,104,143142,1,8,0:0:0:0:
297,36,143312,6,0,L|316:189,1,155.000001182556,2|2,0:0|0:0,0:0:0:0:
416,295,143820,1,8,0:0:0:0:
460,227,143990,2,0,B|429:205|429:205|392:217,1,77.5000005912781,2|0,0:0|3:0,0:0:0:0:
512,166,144329,1,8,0:0:0:0:
510,151,144413,1,8,0:0:0:0:
508,136,144498,1,8,0:0:0:0:
443,89,144668,1,8,0:0:0:0:
445,74,144752,1,8,0:0:0:0:
447,59,144837,6,0,P|374:63|352:133,1,155.000001182556,4|8,3:2|0:0,0:0:0:0:
438,229,145345,1,2,0:0:0:0:
436,214,145431,1,8,0:0:0:0:
434,199,145515,2,0,B|347:187|382:256|295:244,1,155.000001182556,0|8,3:0|0:0,0:0:0:0:
244,359,146024,2,0,P|221:329|226:291,1,77.5000005912781,2|0,0:0|3:0,0:0:0:0:
305,164,146362,5,2,0:0:0:0:
243,112,146532,2,0,L|52:136,1,155.000001182556,8|0,0:0|3:0,0:0:0:0:
77,123,146956,1,8,0:0:0:0:
77,123,147040,1,2,0:0:0:0:
0,216,147209,1,8,0:0:0:0:
54,276,147380,6,0,P|123:291|126:369,1,155.000001182556,2|2,0:0|0:0,0:0:0:0:
211,281,147888,2,0,L|222:185,1,77.5000005912781,8|2,0:0|0:0,0:0:0:0:
213,190,148142,1,8,0:0:0:0:
213,190,148227,1,0,3:0:0:0:
277,336,148397,2,0,P|307:312|344:317,1,77.5000005912781,2|8,3:2|0:0,0:0:0:0:
452,213,148736,6,0,L|299:232,1,155.000001182556,6|0,3:2|3:0,0:0:0:0:
199,139,149244,2,0,P|236:134|266:157,1,77.5000005912781,12|0,0:0|0:0,0:0:0:0:
262,304,149583,5,2,3:0:0:0:
132,332,149753,1,8,0:0:0:0:
2,360,149922,1,8,0:0:0:0:
58,303,150092,1,8,0:0:0:0:
60,288,150177,1,8,0:0:0:0:
62,272,150261,6,0,P|68:189|146:164,1,175.00000166893,4|8,3:2|0:0,0:0:0:0:
271,75,150770,2,0,B|222:99|222:99|238:226,1,175.00000166893,4|2,3:2|0:0,0:0:0:0:
304,265,151278,1,8,0:0:0:0:
181,364,151447,2,0,P|147:337|102:346,1,87.500000834465,2|0,3:2|0:0,0:0:0:0:
0,257,151786,5,2,3:2:0:0:
50,147,151956,2,0,L|28:320,1,175.00000166893,12|4,0:0|3:0,0:0:0:0:
127,258,152464,1,8,0:0:0:0:
125,243,152548,1,8,0:0:0:0:
123,228,152633,1,8,0:0:0:0:
250,322,152803,6,0,B|348:335|309:257|407:270,1,175.00000166893,4|2,3:2|3:2,0:0:0:0:
466,325,153312,1,8,0:0:0:0:
512,170,153481,2,0,P|430:181|414:261,1,175.00000166893,4|0,3:2|3:0,0:0:0:0:
353,147,153990,1,8,0:0:0:0:
490,85,154159,6,0,L|316:63,1,175.00000166893,4|2,3:2|3:2,0:0:0:0:
255,116,154668,1,8,0:0:0:0:
154,28,154837,2,0,P|112:20|78:46,1,87.500000834465,2|0,0:0|3:0,0:0:0:0:
175,106,155176,5,8,0:0:0:0:
149,139,155261,1,8,0:0:0:0:
165,168,155346,1,8,0:0:0:0:
155,187,155431,1,8,0:0:0:0:
155,187,155515,1,2,3:0:0:0:
310,226,155685,6,0,B|350:304|350:304|291:369,1,175.00000166893,4|8,3:2|0:0,0:0:0:0:
212,361,156193,2,0,B|172:284|172:284|230:218,1,175.00000166893,2|0,3:2|3:0,0:0:0:0:
204,144,156702,6,0,B|190:119|216:93|216:93|249:112|241:139,1,115.000002193451,4|0,3:2|0:0,0:0:0:0:
304,249,157210,5,0,3:0:0:0:
367,199,157380,2,0,L|494:214,1,87.500000834465,8|0,0:0|3:0,0:0:0:0:
512,66,157719,1,8,0:0:0:0:
435,90,157888,1,0,3:0:0:0:
316,42,158058,1,8,0:0:0:0:
301,44,158143,1,8,0:0:0:0:
286,46,158227,1,2,3:0:0:0:
390,156,158397,6,0,P|316:199|311:283,1,175.00000166893,4|8,3:2|0:0,0:0:0:0:
140,304,158905,2,0,P|113:224|32:200,1,175.00000166893,0|2,3:0|0:0,0:0:0:0:
192,168,159414,6,0,B|184:195|215:214|215:214|243:188|229:163,1,115.000002193451,4|0,3:2|0:0,0:0:0:0:
294,32,159922,5,0,3:0:0:0:
357,82,160092,2,0,L|484:67,1,87.500000834465,8|0,0:0|3:0,0:0:0:0:
512,192,160431,1,4,3:0:0:0:
449,242,160600,5,8,0:0:0:0:
437,283,160685,1,8,0:0:0:0:
461,310,160770,1,8,0:0:0:0:
456,343,160854,1,8,0:0:0:0:
456,343,160939,1,2,3:0:0:0:
376,204,161109,6,0,P|342:178|304:194,1,87.500000834465,4|0,3:2|3:0,0:0:0:0:
332,268,161447,1,8,0:0:0:0:
244,362,161617,2,0,B|144:375|184:296|86:309,1,175.00000166893,2|0,3:2|3:0,0:0:0:0:
7,128,162125,2,0,P|85:121|110:243,1,209.999993591309,4|0,3:2|0:0,0:0:0:0:
41,245,162634,1,0,3:0:0:0:
201,139,162803,5,8,0:0:0:0:
276,167,162973,1,0,3:0:0:0:
248,242,163142,1,4,3:0:0:0:
343,118,163312,5,8,0:0:0:0:
318,83,163397,1,8,0:0:0:0:
336,55,163482,1,8,0:0:0:0:
327,36,163567,1,8,0:0:0:0:
327,36,163651,1,2,3:0:0:0:
215,116,163820,6,0,P|171:88|133:103,1,92.4999996471405,4|8,3:2|0:0,0:0:0:0:
127,119,164074,1,8,0:0:0:0:
127,119,164159,2,0,L|137:198,1,46.2499998235703,8|8,0:0|0:0,0:0:0:0:
117,251,164329,5,0,3:2:0:0:
18,280,164498,1,4,3:0:0:0:
121,238,164668,1,4,3:0:0:0:
189,288,164837,6,0,L|281:300,1,92.4999996471405,4|8,3:2|0:0,0:0:0:0:
297,290,165091,1,8,0:0:0:0:
297,290,165176,2,0,L|288:210,1,46.2499998235703,8|8,0:0|0:0,0:0:0:0:
424,199,165346,5,4,3:2:0:0:
345,183,165515,1,0,0:0:0:0:
230,159,165685,5,2,3:2:0:0:
230,159,166532,5,4,3:2:0:0:
215,159,171956,6,0,B|213:127|169:111|169:111|121:116|113:146,1,139.999995727539,4|2,3:2|3:2,0:0:0:0:
231,271,172634,2,0,B|258:285|294:254|294:254|314:211|292:188,1,139.999995727539,2|2,3:2|3:2,0:0:0:0:
125,229,173312,2,0,B|98:245|107:292|107:292|134:330|165:323,1,139.999995727539,2|2,3:2|3:2,0:0:0:0:
215,159,173990,2,0,B|213:127|169:111|169:111|121:116|113:146,1,139.999995727539,2|2,3:2|3:2,0:0:0:0:
244,57,174498,6,0,L|466:29,1,184.999999294281,4|8,3:2|0:0,0:0:0:0:
439,24,174922,1,8,0:0:0:0:
438,24,175007,1,8,0:0:0:0:
326,128,175176,6,0,B|381:135|381:135|383:133|383:133|431:139,1,107.50000164032,2|0,3:2|0:0,0:0:0:0:
236,50,175515,6,0,B|181:57|181:57|179:55|179:55|130:61,1,107.50000164032,2|0,3:2|0:0,0:0:0:0:
165,189,175854,6,0,P|192:140|226:228,1,184.999999294281,4|8,3:2|0:0,0:0:0:0:
134,339,176363,5,8,3:2:0:0:
68,293,176532,1,8,0:0:0:0:
70,278,176617,1,8,0:0:0:0:
72,262,176702,2,0,L|85:150,1,92.4999996471405,0|8,3:0|0:0,0:0:0:0:
199,292,177041,5,8,0:0:0:0:
237,278,177125,1,8,0:0:0:0:
277,288,177210,1,8,0:0:0:0:
305,319,177295,1,8,0:0:0:0:
312,359,177380,5,4,3:2:0:0:
391,374,177549,1,2,0:0:0:0:
502,248,177719,1,8,0:0:0:0:
379,138,177888,2,0,B|432:163|432:163|415:306,1,195.000000743866,2|2,3:2|3:2,0:0:0:0:
349,342,178397,1,8,0:0:0:0:
204,307,178566,5,2,0:0:0:0:
284,297,178736,1,0,3:0:0:0:
262,139,178905,5,2,3:2:0:0:
182,149,179075,1,8,0:0:0:0:
84,239,179244,6,0,B|191:225|191:225|195:228|195:228|301:216,1,220.000006713867,2|2,0:0|0:0,0:0:0:0:
432,68,179753,1,8,0:0:0:0:
368,320,179922,6,0,B|321:289|321:289|337:153|337:153|390:134,1,250,2|2,0:0|0:0,0:0:0:0:
285,2,180431,1,8,0:0:0:0:
298,81,180600,1,2,0:0:0:0:
247,215,180770,5,0,3:0:0:0:
118,283,180939,2,0,P|166:263|202:301,1,110.000003356934,2|8,0:0|0:0,0:0:0:0:
412,258,181278,6,0,P|303:273|298:394,1,220.000006713867,4|0,3:2|3:0,0:0:0:0:
361,384,181786,1,8,0:0:0:0:
494,327,181956,2,0,B|439:299|439:299|457:157,1,195.000000743866,4|8,3:2|0:0,0:0:0:0:
448,154,182380,1,8,0:0:0:0:
448,154,182464,1,8,0:0:0:0:
358,18,182634,1,8,0:0:0:0:
360,34,182718,1,8,0:0:0:0:
362,49,182803,5,4,3:2:0:0:
507,101,182973,1,0,0:0:0:0:
369,126,183142,1,8,0:0:0:0:
317,188,183312,1,2,3:2:0:0:
302,186,183397,1,8,0:0:0:0:
286,184,183482,6,0,L|174:171,1,97.500000371933,0|2,0:0|3:2,0:0:0:0:
131,229,183820,1,8,0:0:0:0:
219,334,183990,5,2,3:2:0:0:
209,254,184160,1,0,0:0:0:0:
114,151,184329,5,2,3:2:0:0:
124,71,184499,1,8,0:0:0:0:
192,0,184668,1,2,3:2:0:0:
194,16,184752,1,8,0:0:0:0:
196,31,184837,6,0,P|242:22|279:51,1,97.500000371933,4|8,3:0|0:0,0:0:0:0:
293,68,185092,1,8,0:0:0:0:
293,68,185176,2,0,L|341:62,1,48.7500001859665,8|8,0:0|0:0,0:0:0:0:
419,55,185346,1,2,3:0:0:0:
300,174,185515,6,0,B|263:144|263:144|216:162,1,97.500000371933,4|8,3:2|0:0,0:0:0:0:
205,174,185770,1,8,0:0:0:0:
205,174,185855,1,8,0:0:0:0:
380,198,186024,6,0,B|387:145|387:145|385:143|385:143|392:88,1,112.500004291535,2|0,3:2|0:0,0:0:0:0:
148,232,186363,6,0,B|155:287|155:287|153:289|153:289|161:342,1,112.500004291535,2|0,3:2|0:0,0:0:0:0:
374,295,186702,6,0,B|324:242|258:226|209:253|207:368|269:363|327:344,1,250,4|2,3:2|3:2,0:0:0:0:
421,228,187210,1,10,0:0:0:0:
368,167,187380,2,0,P|301:170|257:60,1,195.000000743866,4|4,3:2|3:0,0:0:0:0:
247,52,187803,1,4,3:0:0:0:
247,52,187888,1,6,3:0:0:0:
192,180,188058,1,2,3:0:0:0:
176,182,188143,1,0,0:0:0:0:
160,184,188227,6,0,B|104:139|104:139|34:166,1,146.250000557899,4|0,3:2|0:0,0:0:0:0:
22,174,188566,5,10,0:0:0:0:
38,253,188736,1,0,0:0:0:0:
188,100,188905,5,10,0:0:0:0:
204,21,189075,1,0,3:0:0:0:
264,73,189244,5,10,0:0:0:0:
128,48,189414,1,0,3:0:0:0:
63,96,189583,6,0,L|76:207,1,97.500000371933,10|0,0:0|0:0,0:0:0:0:
236,351,189922,5,10,0:0:0:0:
261,217,190092,1,0,3:0:0:0:
371,145,190261,5,10,0:0:0:0:
347,68,190431,2,0,L|356:-11,1,48.7500001859665,0|0,3:0|3:0,0:0:0:0:
188,111,190600,5,10,0:0:0:0:
342,220,190770,1,0,3:0:0:0:
410,262,190939,6,0,L|521:249,1,97.500000371933,10|0,0:2|3:0,0:0:0:0:
303,372,191278,5,10,0:0:0:0:
351,212,191447,1,0,0:0:0:0:
191,164,191617,5,10,0:0:0:0:
143,324,191786,1,0,3:0:0:0:
330,136,191956,5,10,0:0:0:0:
186,0,192125,2,0,B|297:-14|252:73|362:58,1,195.000000743866,4|8,3:2|3:0,0:0:0:0:
505,6,192634,1,8,0:0:0:0:
479,82,192803,2,0,L|492:193,1,97.500000371933,2|2,3:0|3:0,0:0:0:0:
319,168,193142,5,8,0:0:0:0:
321,153,193227,1,8,0:0:0:0:
323,138,193311,1,8,0:0:0:0:
432,234,193481,1,8,0:0:0:0:
434,249,193565,1,8,0:0:0:0:
436,264,193651,6,0,L|449:375,1,97.500000371933,4|0,3:2|0:0,0:0:0:0:
206,322,193990,5,10,0:0:0:0:
353,238,194159,1,0,0:0:0:0:
326,92,194329,5,10,0:0:0:0:
307,170,194498,1,0,3:0:0:0:
364,316,194668,5,10,0:0:0:0:
181,245,194837,1,0,3:0:0:0:
110,284,195007,6,0,L|98:380,1,97.500000371933,10|0,0:0|0:0,0:0:0:0:
252,206,195346,5,10,0:0:0:0:
304,144,195515,1,0,3:0:0:0:
302,129,195600,1,8,3:0:0:0:
300,114,195684,1,4,3:0:0:0:
109,64,195854,5,8,0:0:0:0:
147,50,195939,1,8,0:0:0:0:
187,60,196023,1,8,0:0:0:0:
215,91,196108,1,8,0:0:0:0:
222,131,196193,1,2,3:0:0:0:
370,194,196363,5,4,3:2:0:0:
320,257,196532,1,8,0:0:0:0:
337,289,196617,1,8,0:0:0:0:
320,329,196702,1,8,0:0:0:0:
349,373,196786,1,8,0:0:0:0:
349,373,196871,2,0,P|319:353|268:378,1,97.500000371933,2|0,3:2|0:0,0:0:0:0:
113,335,197210,5,2,3:2:0:0:
189,363,197380,1,8,0:0:0:0:
313,273,197549,2,0,L|299:163,1,110.000003356934,4|0,3:2|0:0,0:0:0:0:
390,301,197888,6,0,B|435:282|435:282|475:310,1,97.500000371933,2|0,3:2|0:0,0:0:0:0:
226,230,198227,2,0,B|180:211|180:211|140:239,1,97.500000371933,2|0,3:2|0:0,0:0:0:0:
356,105,198566,5,8,0:0:0:0:
358,90,198650,1,8,0:0:0:0:
360,75,198735,1,8,3:0:0:0:
308,13,198904,1,2,3:0:0:0:
295,189,199075,6,0,P|380:197|405:280,1,184.999999294281,4|8,3:2|0:0,0:0:0:0:
241,249,199583,1,0,0:0:0:0:
225,251,199667,1,0,0:0:0:0:
210,253,199752,2,0,L|221:158,1,92.4999996471405,0|0,3:0|0:0,0:0:0:0:
233,151,200006,2,0,L|221:56,1,92.4999996471405,0|0,3:0|0:0,0:0:0:0:
210,49,200261,1,0,3:0:0:0:
309,165,200431,5,0,3:0:0:0:
360,103,200600,1,0,0:0:0:0:
339,241,200769,1,8,0:0:0:0:
199,219,200939,1,8,0:0:0:0:
159,284,201108,5,0,3:0:0:0:
274,196,201278,1,0,3:0:0:0:
216,145,201447,1,8,0:0:0:0:
218,130,201532,1,8,0:0:0:0:
220,114,201616,1,2,3:0:0:0:
73,91,201786,6,0,B|178:105|136:22|240:36,1,184.999999294281,4|8,3:2|0:0,0:0:0:0:
312,174,202294,1,0,0:0:0:0:
310,158,202380,1,0,0:0:0:0:
308,143,202464,2,0,L|323:16,1,92.4999996471405,0|0,3:0|0:0,0:0:0:0:
315,39,202718,2,0,P|354:51|394:18,1,92.4999996471405,0|0,3:0|0:0,0:0:0:0:
397,10,202972,1,0,3:0:0:0:
489,102,203142,6,0,P|427:106|399:222,1,184.999999294281,0|8,3:0|0:0,0:0:0:0:
468,217,203650,1,4,3:0:0:0:
350,278,203820,5,4,3:0:0:0:
386,346,203989,1,8,0:0:0:0:
256,380,204159,5,8,3:2:0:0:
240,378,204244,1,8,0:0:0:0:
224,376,204329,1,8,3:2:0:0:
208,374,204414,1,10,3:0:0:0:
192,372,204498,6,0,L|164:149,1,184.999999294281,4|8,3:2|0:0,0:0:0:0:
228,49,205007,1,2,3:2:0:0:
114,132,205176,1,8,3:0:0:0:
224,61,205346,1,8,0:0:0:0:
348,128,205515,5,4,3:2:0:0:
301,66,205685,1,0,0:0:0:0:
459,6,205854,5,8,0:0:0:0:
422,159,206024,2,0,B|456:130|456:130|500:147,1,92.4999996471405,2|0,3:2|0:0,0:0:0:0:
512,228,206363,2,0,B|477:256|477:256|433:239,1,92.4999996471405,2|0,3:2|0:0,0:0:0:0:
348,128,206702,5,8,0:0:0:0:
350,113,206787,1,8,0:0:0:0:
352,97,206871,1,8,0:0:0:0:
287,49,207041,1,8,0:0:0:0:
285,34,207126,1,8,0:0:0:0:
283,18,207210,6,0,P|239:-10|201:5,1,92.4999996471405,4|8,3:2|0:0,0:0:0:0:
194,16,207464,1,8,0:0:0:0:
194,16,207549,2,0,L|115:6,1,46.2499998235703,8|8,0:0|0:0,0:0:0:0:
101,73,207719,5,4,3:2:0:0:
0,108,207888,1,4,3:0:0:0:
92,64,208058,1,2,3:0:0:0:
206,129,208227,5,4,3:2:0:0:
152,186,208397,1,8,0:0:0:0:
166,222,208481,1,8,0:0:0:0:
157,236,208566,1,2,3:0:0:0:
172,273,208651,1,8,0:0:0:0:
172,273,208736,5,4,3:2:0:0:
271,291,208905,1,10,0:0:0:0:
439,321,209075,5,2,3:2:0:0:
