osu file format v14

[General]
AudioFilename: audio.mp3
AudioLeadIn: 0
PreviewTime: 46193
Countdown: 0
SampleSet: Soft
StackLeniency: 0.4
Mode: 0
LetterboxInBreaks: 0
WidescreenStoryboard: 0

[Editor]
Bookmarks: 1109,3820,9244,14668,20092,22803,28227,36363,44498,47210,68905,74329,77041,90600,101447,112295,122464,124498,131278,131956,133312,136702,144837,150261,161109,166532,171956,174498,177380,188227,192125,195515,198566,199075,204498,207210,209075
DistanceSpacing: 0.6
BeatDivisor: 4
GridSize: 8
TimelineZoom: 3.699999

[Metadata]
Title:Harmonia
TitleUnicode:Harmonia
Artist:ATSUMI UEDA
ArtistUnicode:ATSUMI UEDA
Creator:Creamy Candy
Version:Mad's Extra
Source:pop'n music ラピストリア
Tags:agai132 [Mad] realy0_ DeppyForce xHappy- p_kung penfifteen Xenon Xehn long version full PON Daichi Watanabe japanese video game female vocals BeatStream popn Lapistoria 22 Power Of Nature konami bemani ポップンミュジック Nostalgia ノスタルジア
BeatmapID:2189444
BeatmapSetID:1028168

[Difficulty]
HPDrainRate:5
CircleSize:4
OverallDifficulty:8.7
ApproachRate:9.2
SliderMultiplier:1.8
SliderTickRate:1

[Events]
//Background and Video events
0,0,"harmonia.png",0,0
//Break Periods
2,166732,171386
//Storyboard Layer 0 (Background)
//Storyboard Layer 1 (Fail)
//Storyboard Layer 2 (Pass)
//Storyboard Layer 3 (Foreground)
//Storyboard Layer 4 (Overlay)
//Storyboard Sound Samples

[TimingPoints]
1109,338.983050847458,4,2,1,68,1,0
1109,-83.3333333333333,4,2,1,68,0,0
1278,-100,4,2,1,38,0,0
1363,-100,4,2,1,48,0,0
1447,-100,4,2,1,63,0,0
1532,-100,4,2,1,68,0,0
1617,-83.3333333333333,4,2,2,68,0,0
1786,-100,4,2,1,58,0,0
2125,-66.6666666666667,4,2,1,68,0,0
2295,-66.6666666666667,4,2,1,43,0,0
2380,-66.6666666666667,4,2,1,58,0,0
2464,-66.6666666666667,4,2,1,68,0,0
2634,-83.3333333333333,4,2,2,68,0,0
2973,-133.333333333333,4,2,1,68,0,0
3820,-83.3333333333333,4,2,1,68,0,1
4329,-100,4,2,1,68,0,1
4583,-100,4,2,1,5,0,1
4668,-100,4,2,1,68,0,1
5685,-83.3333333333333,4,2,1,68,0,1
5939,-83.3333333333333,4,2,1,38,0,1
6024,-83.3333333333333,4,2,1,68,0,1
7041,-100,4,2,1,68,0,1
8142,-100,4,2,1,38,0,1
8227,-100,4,2,1,68,0,1
8905,-76.9230769230769,4,2,1,68,0,1
9244,-83.3333333333333,4,2,1,68,0,1
9753,-100,4,2,1,68,0,1
10007,-100,4,2,1,5,0,1
10092,-100,4,2,1,68,0,1
11109,-66.6666666666667,4,2,1,68,0,1
11193,-66.6666666666667,4,2,1,38,0,1
11278,-66.6666666666667,4,2,1,68,0,1
11447,-66.6666666666667,4,2,1,38,0,1
11617,-66.6666666666667,4,2,1,53,0,1
11702,-66.6666666666667,4,2,1,68,0,1
11786,-83.3333333333333,4,2,1,68,0,1
12041,-83.3333333333333,4,2,1,5,0,1
12125,-83.3333333333333,4,2,1,48,0,1
12210,-83.3333333333333,4,2,1,63,0,1
12295,-133.333333333333,4,2,1,68,0,1
12380,-133.333333333333,4,2,1,5,0,1
12464,-76.9230769230769,4,2,1,68,0,1
13142,-66.6666666666667,4,2,1,68,0,1
13397,-66.6666666666667,4,2,1,5,0,1
13481,-66.6666666666667,4,2,1,68,0,1
13651,-83.3333333333333,4,2,1,68,0,1
14414,-83.3333333333333,4,2,1,31,0,1
14498,-83.3333333333333,4,2,1,68,0,1
14668,-100,4,2,1,68,0,0
14922,-100,4,2,1,5,0,0
15007,-100,4,2,1,68,0,0
15346,-166.666666666667,4,2,1,68,0,0
15515,-166.666666666667,4,2,1,5,0,0
15600,-83.3333333333333,4,2,1,68,0,0
15770,-83.3333333333333,4,2,1,5,0,0
15854,-66.6666666666667,4,2,1,68,0,0
15939,-66.6666666666667,4,2,1,5,0,0
16024,-133.333333333333,4,2,1,68,0,0
16109,-133.333333333333,4,2,1,5,0,0
16193,-133.333333333333,4,2,1,68,0,0
16278,-133.333333333333,4,2,1,5,0,0
16363,-100,4,2,1,68,0,0
16447,-100,4,2,1,5,0,0
16532,-100,4,2,1,38,0,0
16617,-100,4,2,1,48,0,0
16702,-83.3333333333333,4,2,1,68,0,0
17380,-100,4,2,1,68,0,0
17634,-100,4,2,1,5,0,0
17719,-100,4,2,1,68,0,0
18058,-166.666666666667,4,2,1,68,0,0
18227,-166.666666666667,4,2,1,5,0,0
18312,-83.3333333333333,4,2,1,68,0,0
18481,-83.3333333333333,4,2,1,5,0,0
18566,-66.6666666666667,4,2,1,68,0,0
18651,-66.6666666666667,4,2,1,5,0,0
18736,-166.666666666667,4,2,1,68,0,0
18820,-166.666666666667,4,2,1,5,0,0
18905,-166.666666666667,4,2,1,68,0,0
18990,-166.666666666667,4,2,1,5,0,0
19075,-111.111111111111,4,2,1,68,0,0
19159,-111.111111111111,4,2,1,5,0,0
19244,-111.111111111111,4,2,1,43,0,0
19414,-83.3333333333333,4,2,1,68,0,0
20092,-83.3333333333333,4,2,3,68,0,0
20261,-83.3333333333333,4,2,1,38,0,0
20346,-83.3333333333333,4,2,1,43,0,0
20431,-83.3333333333333,4,2,1,68,0,0
20515,-83.3333333333333,4,2,1,48,0,0
20600,-83.3333333333333,4,2,2,68,0,0
20770,-83.3333333333333,4,2,1,68,0,0
21108,-66.6666666666667,4,2,1,68,0,0
21109,-66.6666666666667,4,2,3,68,0,0
21278,-66.6666666666667,4,2,1,38,0,0
21363,-66.6666666666667,4,2,1,43,0,0
21447,-66.6666666666667,4,2,1,68,0,0
21617,-83.3333333333333,4,2,1,68,0,0
21786,-83.3333333333333,4,2,1,55,0,0
21956,-133.333333333333,4,2,1,68,0,0
22125,-133.333333333333,4,2,2,46,0,0
22464,-133.333333333333,4,2,1,68,0,0
22803,-200,4,2,2,55,0,0
23990,-133.333333333333,4,2,1,55,0,0
24329,-133.333333333333,4,2,2,55,0,0
24837,-200,4,2,2,55,0,0
25007,-200,4,2,2,28,0,0
25092,-200,4,2,2,37,0,0
25176,-200,4,2,2,55,0,0
26702,-133.333333333333,4,2,1,55,0,0
28227,-200,4,2,2,55,0,0
28397,-200,4,2,2,34,0,0
28736,-200,4,2,2,56,0,0
29414,-133.333333333333,4,2,1,55,0,0
30261,-200,4,2,1,35,0,0
30431,-200,4,2,1,28,0,0
30515,-200,4,2,1,50,0,0
30600,-200,4,2,1,58,0,0
30770,-200,4,2,1,55,0,0
30939,-133.333333333333,4,2,1,55,0,0
31193,-133.333333333333,4,2,1,5,0,0
31278,-133.333333333333,4,2,1,55,0,0
31617,-133.333333333333,4,2,1,42,0,0
31956,-133.333333333333,4,2,1,52,0,0
32295,-133.333333333333,4,2,1,58,0,0
32634,-133.333333333333,4,2,1,68,0,0
32973,-57.1428571428571,4,2,2,68,0,0
33481,-66.6666666666667,4,2,1,68,0,0
34329,-66.6666666666667,4,2,2,68,0,0
34498,-100,4,2,1,68,0,0
34753,-100,4,2,1,5,0,0
34837,-100,4,2,1,68,0,0
35007,-100,4,2,1,38,0,0
35176,-100,4,2,1,58,0,0
35346,-100,4,2,1,68,0,0
36617,-100,4,2,1,5,0,0
36702,-133.333333333333,4,2,2,58,0,0
36871,-133.333333333333,4,2,2,34,0,0
37041,-133.333333333333,4,2,2,58,0,0
37210,-133.333333333333,4,2,2,48,0,0
37380,-133.333333333333,4,2,2,58,0,0
37973,-133.333333333333,4,2,2,5,0,0
38058,-133.333333333333,4,2,2,58,0,0
38566,-133.333333333333,4,2,2,45,0,0
38736,-133.333333333333,4,2,2,58,0,0
39922,-133.333333333333,4,2,2,48,0,0
40092,-133.333333333333,4,2,2,58,0,0
40685,-133.333333333333,4,2,2,5,0,0
40770,-133.333333333333,4,2,2,58,0,0
40939,-133.333333333333,4,2,2,48,0,0
41109,-133.333333333333,4,2,2,58,0,0
41278,-133.333333333333,4,2,1,38,0,0
41363,-133.333333333333,4,2,1,48,0,0
41447,-133.333333333333,4,2,1,63,0,0
41786,-100,4,2,1,63,0,0
42295,-90.9090909090909,4,2,3,48,0,0
42464,-90.9090909090909,4,2,3,68,0,0
42549,-90.9090909090909,4,2,3,5,0,0
42634,-90.9090909090909,4,2,1,68,0,0
42803,-83.3333333333333,4,2,1,68,0,0
43312,-90.9090909090909,4,2,1,68,0,0
43990,-90.9090909090909,4,2,1,48,0,0
44075,-90.9090909090909,4,2,1,68,0,0
44498,-83.3333333333333,4,2,1,68,0,0
44668,-83.3333333333333,4,2,1,33,0,0
44753,-83.3333333333333,4,2,1,38,0,0
44837,-83.3333333333333,4,2,1,58,0,0
44922,-83.3333333333333,4,2,1,68,0,0
45514,-66.6666666666667,4,2,1,68,0,0
45685,-66.6666666666667,4,2,1,33,0,0
45770,-66.6666666666667,4,2,1,53,0,0
45854,-66.6666666666667,4,2,1,68,0,0
46023,-83.3333333333333,4,2,1,68,0,0
46362,-133.333333333333,4,2,1,68,0,0
46871,-66.6666666666667,4,2,1,68,0,0
47125,-66.6666666666667,4,2,1,5,0,0
47210,-83.3333333333333,4,2,1,68,0,1
47719,-100,4,2,1,68,0,1
47973,-100,4,2,1,5,0,1
48058,-100,4,2,1,68,0,1
49075,-83.3333333333333,4,2,1,68,0,1
49329,-83.3333333333333,4,2,1,28,0,1
49414,-83.3333333333333,4,2,1,68,0,1
50431,-100,4,2,1,68,0,1
52295,-76.9230769230769,4,2,1,68,0,1
52634,-83.3333333333333,4,2,1,68,0,1
53142,-100,4,2,1,68,0,1
53397,-100,4,2,1,5,0,1
53481,-100,4,2,1,68,0,1
54499,-66.6666666666667,4,2,1,68,0,1
54583,-66.6666666666667,4,2,1,38,0,1
54668,-66.6666666666667,4,2,1,68,0,1
54837,-66.6666666666667,4,2,1,38,0,1
54922,-66.6666666666667,4,2,1,48,0,1
55007,-66.6666666666667,4,2,1,68,0,1
55176,-83.3333333333333,4,2,1,68,0,1
55261,-83.3333333333333,4,2,1,5,0,1
55346,-83.3333333333333,4,2,1,68,0,0
55515,-83.3333333333333,4,2,1,38,0,0
55600,-83.3333333333333,4,2,1,48,0,0
55685,-133.333333333333,4,2,1,58,0,0
55770,-133.333333333333,4,2,1,5,0,0
55854,-76.9230769230769,4,2,1,68,0,0
56532,-66.6666666666667,4,2,1,68,0,0
56786,-66.6666666666667,4,2,1,5,0,0
56871,-66.6666666666667,4,2,1,68,0,0
57041,-83.3333333333333,4,2,1,68,0,0
58058,-83.3333333333333,4,2,1,68,0,1
58566,-100,4,2,1,68,0,1
58820,-100,4,2,1,5,0,1
58905,-100,4,2,1,68,0,1
59922,-71.4285714285714,4,2,1,68,0,1
60176,-71.4285714285714,4,2,1,38,0,1
60261,-71.4285714285714,4,2,1,68,0,1
60600,-62.5,4,2,1,68,0,1
61109,-83.3333333333333,4,2,1,68,0,1
61956,-71.4285714285714,4,2,3,68,0,1
62210,-71.4285714285714,4,2,3,5,0,1
62295,-71.4285714285714,4,2,1,68,0,1
62634,-83.3333333333333,4,2,1,68,0,1
63142,-76.9230769230769,4,2,1,68,0,1
63481,-83.3333333333333,4,2,1,68,0,1
63990,-100,4,2,1,68,0,1
64244,-100,4,2,1,5,0,1
64329,-100,4,2,1,68,0,1
65346,-66.6666666666667,4,2,1,68,0,1
65431,-66.6666666666667,4,2,1,38,0,1
65515,-66.6666666666667,4,2,1,68,0,1
65685,-66.6666666666667,4,2,1,38,0,1
65770,-66.6666666666667,4,2,1,48,0,1
65854,-66.6666666666667,4,2,1,68,0,1
66023,-83.3333333333333,4,2,1,68,0,1
66109,-83.3333333333333,4,2,1,5,0,1
66193,-83.3333333333333,4,2,1,68,0,1
66363,-83.3333333333333,4,2,1,38,0,1
66447,-83.3333333333333,4,2,1,5,0,1
66532,-83.3333333333333,4,2,1,68,0,1
66702,-76.9230769230769,4,2,1,68,0,1
67380,-66.6666666666667,4,2,2,68,0,1
67719,-66.6666666666667,4,2,1,68,0,1
68058,-83.3333333333333,4,2,1,68,0,1
68651,-83.3333333333333,4,2,1,28,0,1
68736,-83.3333333333333,4,2,1,68,0,1
68905,-100,4,2,1,68,0,0
69159,-100,4,2,1,5,0,0
69244,-100,4,2,1,68,0,0
69583,-166.666666666667,4,2,1,68,0,0
69753,-166.666666666667,4,2,1,5,0,0
69837,-83.3333333333333,4,2,1,68,0,0
70007,-83.3333333333333,4,2,1,5,0,0
70091,-66.6666666666667,4,2,1,68,0,0
70176,-66.6666666666667,4,2,1,5,0,0
70261,-133.333333333333,4,2,1,68,0,0
70346,-133.333333333333,4,2,1,5,0,0
70431,-133.333333333333,4,2,1,68,0,0
70515,-133.333333333333,4,2,1,5,0,0
70600,-100,4,2,1,68,0,0
70685,-100,4,2,1,5,0,0
70770,-100,4,2,1,68,0,0
70939,-83.3333333333333,4,2,1,68,0,0
71617,-100,4,2,1,68,0,0
71871,-100,4,2,1,5,0,0
71956,-100,4,2,1,68,0,0
72295,-166.666666666667,4,2,1,68,0,0
72464,-166.666666666667,4,2,1,5,0,0
72549,-83.3333333333333,4,2,1,68,0,0
72719,-83.3333333333333,4,2,1,5,0,0
72803,-66.6666666666667,4,2,1,68,0,0
72888,-66.6666666666667,4,2,1,5,0,0
72973,-166.666666666667,4,2,1,68,0,0
73058,-166.666666666667,4,2,1,5,0,0
73142,-166.666666666667,4,2,1,68,0,0
73227,-166.666666666667,4,2,1,5,0,0
73312,-111.111111111111,4,2,1,68,0,0
73397,-111.111111111111,4,2,1,5,0,0
73481,-111.111111111111,4,2,1,42,0,0
73651,-83.3333333333333,4,2,1,68,0,0
73820,-83.3333333333333,4,2,1,48,0,0
73905,-83.3333333333333,4,2,1,50,0,0
73990,-83.3333333333333,4,2,1,68,0,0
74329,-83.3333333333333,4,2,1,68,0,0
74498,-83.3333333333333,4,2,1,40,0,0
74668,-83.3333333333333,4,2,1,68,0,0
75345,-66.6666666666667,4,2,1,68,0,0
75515,-66.6666666666667,4,2,1,37,0,0
75600,-66.6666666666667,4,2,1,41,0,0
75685,-66.6666666666667,4,2,1,68,0,0
75854,-83.3333333333333,4,2,1,68,0,0
76193,-83.3333333333333,4,2,1,68,0,0
76363,-83.3333333333333,4,2,2,46,0,0
76702,-83.3333333333333,4,2,1,68,0,0
77041,-166.666666666667,4,2,1,65,0,0
77380,-166.666666666667,4,2,1,55,0,0
78058,-166.666666666667,4,2,2,55,0,0
78227,-117.647058823529,4,2,1,55,0,0
79075,-166.666666666667,4,2,1,55,0,0
79244,-166.666666666667,4,2,1,25,0,0
79329,-166.666666666667,4,2,1,45,0,0
79414,-166.666666666667,4,2,1,47,0,0
79583,-166.666666666667,4,2,1,45,0,0
79753,-166.666666666667,4,2,2,55,0,0
80092,-166.666666666667,4,2,1,55,0,0
80770,-166.666666666667,4,2,2,53,0,0
80939,-117.647058823529,4,2,1,55,0,0
82464,-166.666666666667,4,2,2,55,0,0
82549,-166.666666666667,4,2,2,35,0,0
82719,-166.666666666667,4,2,2,42,0,0
82803,-166.666666666667,4,2,2,55,0,0
83651,-117.647058823529,4,2,1,55,0,0
84329,-117.647058823529,4,2,1,45,0,0
84498,-166.666666666667,4,2,1,55,0,0
84668,-166.666666666667,4,2,1,27,0,0
84753,-166.666666666667,4,2,1,31,0,0
84837,-166.666666666667,4,2,1,55,0,0
85176,-117.647058823529,4,2,1,55,0,0
85431,-117.647058823529,4,2,1,5,0,0
85515,-166.666666666667,4,2,1,55,0,0
85854,-166.666666666667,4,2,1,35,0,0
86193,-166.666666666667,4,2,1,45,0,0
86363,-166.666666666667,4,2,1,55,0,0
86532,-166.666666666667,4,2,1,59,0,0
86871,-166.666666666667,4,2,1,63,0,0
87210,-57.1428571428571,4,2,2,63,0,0
87719,-66.6666666666667,4,2,1,63,0,0
88227,-66.6666666666667,4,2,3,63,0,0
88566,-66.6666666666667,4,2,2,63,0,0
88736,-100,4,2,1,63,0,0
88990,-100,4,2,1,5,0,0
89075,-100,4,2,1,48,0,0
89244,-100,4,2,1,48,0,0
89414,-100,4,2,1,63,0,0
89583,-100,4,2,1,55,0,0
89922,-50,4,2,1,55,0,0
90600,-100,4,2,1,55,0,0
90854,-100,4,2,1,5,0,0
90939,-133.333333333333,4,2,2,58,0,0
91109,-133.333333333333,4,2,2,35,0,0
91278,-133.333333333333,4,2,2,58,0,0
91447,-133.333333333333,4,2,2,48,0,0
91617,-133.333333333333,4,2,2,58,0,0
92210,-133.333333333333,4,2,2,5,0,0
92295,-133.333333333333,4,2,2,58,0,0
92464,-133.333333333333,4,2,2,38,0,0
92634,-133.333333333333,4,2,2,58,0,0
92803,-133.333333333333,4,2,2,50,0,0
92973,-133.333333333333,4,2,2,58,0,0
93481,-133.333333333333,4,2,2,40,0,0
93566,-133.333333333333,4,2,2,5,0,0
93651,-133.333333333333,4,2,2,58,0,0
93820,-133.333333333333,4,2,2,38,0,0
93990,-133.333333333333,4,2,2,58,0,0
94159,-133.333333333333,4,2,2,46,0,0
94329,-133.333333333333,4,2,2,42,0,0
94498,-133.333333333333,4,2,1,58,0,0
94668,-133.333333333333,4,2,2,58,0,0
94922,-133.333333333333,4,2,2,5,0,0
95007,-133.333333333333,4,2,2,58,0,0
95515,-133.333333333333,4,2,2,32,0,0
95600,-133.333333333333,4,2,2,41,0,0
95685,-133.333333333333,4,2,2,58,0,0
96024,-100,4,2,3,58,0,0
96193,-100,4,2,2,58,0,0
96533,-90.9090909090909,4,2,2,58,0,0
96786,-90.9090909090909,4,2,2,5,0,0
96871,-90.9090909090909,4,2,2,58,0,0
97041,-83.3333333333333,4,2,3,58,0,0
97550,-90.9090909090909,4,2,3,58,0,0
98736,-83.3333333333333,4,2,3,58,0,0
98905,-83.3333333333333,4,2,3,31,0,0
98990,-83.3333333333333,4,2,3,39,0,0
99075,-83.3333333333333,4,2,1,58,0,0
99159,-83.3333333333333,4,2,1,68,0,0
99752,-66.6666666666667,4,2,1,68,0,0
99753,-66.6666666666667,4,2,2,68,0,0
99922,-66.6666666666667,4,2,1,38,0,0
100007,-66.6666666666667,4,2,1,58,0,0
100092,-66.6666666666667,4,2,1,68,0,0
100261,-83.3333333333333,4,2,1,68,0,0
100600,-133.333333333333,4,2,1,68,0,0
101109,-66.6666666666667,4,2,1,68,0,0
101363,-66.6666666666667,4,2,1,5,0,0
101447,-100,4,2,1,68,0,1
101956,-100,4,2,1,68,0,1
102210,-100,4,2,1,5,0,1
102295,-100,4,2,1,68,0,1
103312,-83.3333333333333,4,2,1,68,0,1
103566,-83.3333333333333,4,2,1,41,0,1
103651,-83.3333333333333,4,2,1,68,0,1
104668,-100,4,2,1,68,0,1
106532,-76.9230769230769,4,2,1,68,0,1
106871,-83.3333333333333,4,2,1,68,0,1
107379,-100,4,2,1,68,0,1
107634,-100,4,2,1,5,0,1
107719,-100,4,2,1,68,0,1
108736,-66.6666666666667,4,2,1,68,0,1
109075,-66.6666666666667,4,2,1,42,0,1
109244,-66.6666666666667,4,2,1,68,0,1
109413,-83.3333333333333,4,2,1,68,0,1
109498,-83.3333333333333,4,2,1,5,0,1
109583,-83.3333333333333,4,2,1,68,0,0
109753,-83.3333333333333,4,2,1,38,0,0
109837,-83.3333333333333,4,2,1,44,0,0
109922,-133.333333333333,4,2,1,68,0,0
110091,-76.9230769230769,4,2,1,68,0,0
110769,-66.6666666666667,4,2,1,68,0,0
111024,-66.6666666666667,4,2,1,5,0,0
111109,-66.6666666666667,4,2,1,68,0,0
111278,-83.3333333333333,4,2,1,68,0,0
111447,-83.3333333333333,4,2,1,48,0,0
111532,-83.3333333333333,4,2,1,52,0,0
111617,-83.3333333333333,4,2,1,68,0,0
112295,-100,4,2,1,68,0,1
112803,-100,4,2,1,68,0,1
113058,-100,4,2,1,5,0,1
113142,-100,4,2,1,68,0,1
114159,-71.4285714285714,4,2,1,68,0,1
114414,-71.4285714285714,4,2,1,41,0,1
114498,-71.4285714285714,4,2,1,68,0,1
114837,-62.5,4,2,1,68,0,1
115346,-83.3333333333333,4,2,1,68,0,1
116193,-71.4285714285714,4,2,1,68,0,1
116447,-71.4285714285714,4,2,1,5,0,1
116532,-71.4285714285714,4,2,1,68,0,1
116871,-83.3333333333333,4,2,1,68,0,1
117379,-76.9230769230769,4,2,1,68,0,1
117718,-83.3333333333333,4,2,1,68,0,1
118227,-100,4,2,1,68,0,1
118312,-100,4,2,1,48,0,1
118397,-100,4,2,1,68,0,1
119583,-66.6666666666667,4,2,1,68,0,1
119922,-66.6666666666667,4,2,1,43,0,1
120092,-66.6666666666667,4,2,1,68,0,1
120260,-83.3333333333333,4,2,1,68,0,1
120346,-83.3333333333333,4,2,1,5,0,1
120431,-83.3333333333333,4,2,1,68,0,1
120600,-83.3333333333333,4,2,1,32,0,1
120685,-83.3333333333333,4,2,1,45,0,1
120770,-133.333333333333,4,2,1,63,0,1
120854,-133.333333333333,4,2,1,5,0,1
120939,-76.9230769230769,4,2,1,63,0,1
121617,-66.6666666666667,4,2,1,63,0,1
122125,-100,4,2,1,63,0,1
122295,-100,4,2,1,28,0,1
122464,-100,4,2,1,48,0,1
122803,-100,4,2,1,58,0,1
123142,-100,4,2,1,68,0,1
123651,-133.333333333333,4,2,1,68,0,1
123990,-66.6666666666667,4,2,3,68,0,1
124498,-100,4,2,1,68,0,0
125176,-133.333333333333,4,2,1,68,0,0
125346,-133.333333333333,4,2,1,37,0,0
125431,-133.333333333333,4,2,1,47,0,0
125515,-83.3333333333333,4,2,1,68,0,0
125600,-83.3333333333333,4,2,1,35,0,0
125685,-83.3333333333333,4,2,1,55,0,0
125770,-83.3333333333333,4,2,1,68,0,0
125854,-125,4,2,36,73,0,0
126024,-125,4,2,26,65,0,0
126109,-125,4,2,36,68,0,0
126193,-125,4,2,56,70,0,0
126278,-125,4,2,46,70,0,0
126363,-125,4,2,29,73,0,0
126532,-125,4,2,1,73,0,0
126617,-125,4,2,1,5,0,0
126702,-125,4,2,65,73,0,0
126786,-125,4,2,75,73,0,0
126871,-125,4,2,26,73,0,0
126956,-125,4,2,36,73,0,0
127041,-100,4,2,78,73,0,0
127210,-100,4,2,1,73,0,0
127295,-100,4,2,1,5,0,0
127380,-100,4,2,65,73,0,0
127464,-100,4,2,75,73,0,0
127549,-100,4,2,26,73,0,0
127634,-100,4,2,36,73,0,0
127719,-100,4,2,75,73,0,0
127803,-100,4,2,75,5,0,0
127888,-100,4,2,75,73,0,0
127973,-100,4,2,65,73,0,0
128058,-100,4,2,55,73,0,0
128142,-100,4,2,1,73,0,0
128227,-100,4,2,75,73,0,0
128312,-100,4,2,75,5,0,0
128397,-100,4,2,36,73,0,0
128481,-100,4,2,36,20,0,0
128566,-80,4,2,37,73,0,0
128679,-80,4,2,66,73,0,0
128736,-80,4,2,56,73,0,0
128849,-80,4,2,36,73,0,0
128905,-80,4,2,1,73,0,0
129018,-80,4,2,36,73,0,0
129075,-80,4,2,1,73,0,0
129159,-80,4,2,27,73,0,0
129244,-80,4,2,1,73,0,0
129357,-80,4,2,76,73,0,0
129414,-80,4,2,66,73,0,0
129583,-80,4,2,56,73,0,0
129668,-80,4,2,36,73,0,0
129753,-80,4,2,26,73,0,0
129922,-80,4,2,35,73,0,0
130035,-80,4,2,75,73,0,0
130092,-80,4,2,1,73,0,0
130205,-80,4,2,55,73,0,0
130261,-66.6666666666667,4,2,55,73,0,0
130346,-66.6666666666667,4,2,55,5,0,0
130431,-66.6666666666667,4,2,65,73,0,0
130515,-57.1428571428571,4,2,65,73,0,0
130600,-57.1428571428571,4,2,1,73,0,0
130713,-57.1428571428571,4,2,75,73,0,0
130770,-50,4,2,75,73,0,0
130854,-50,4,2,1,19,0,0
130939,-50,4,2,66,90,0,0
131024,-50,4,2,66,19,0,0
131109,-50,4,2,76,90,0,0
131193,-50,4,2,1,34,0,0
131278,-66.6666666666667,4,2,3,68,0,1
131617,-66.6666666666667,4,2,3,62,0,1
131786,-66.6666666666667,4,2,3,47,0,1
131956,-57.1428571428571,4,2,3,61,0,1
132125,-57.1428571428571,4,2,3,40,0,1
132295,-57.1428571428571,4,2,3,56,0,1
132464,-57.1428571428571,4,2,3,42,0,1
132634,-57.1428571428571,4,2,3,57,0,1
132803,-57.1428571428571,4,2,3,39,0,1
132973,-57.1428571428571,4,2,3,56,0,1
133142,-66.6666666666667,4,2,3,38,0,1
133312,-66.6666666666667,4,2,3,66,0,1
133481,-66.6666666666667,4,2,1,39,0,1
133566,-66.6666666666667,4,2,1,52,0,1
133651,-66.6666666666667,4,2,1,68,0,1
133990,-62.5,4,2,1,68,0,1
134159,-62.5,4,2,1,48,0,1
134244,-62.5,4,2,1,58,0,1
134329,-76.9230769230769,4,2,1,68,0,1
134498,-71.4285714285714,4,2,1,68,0,1
135176,-62.5,4,2,1,68,0,1
135854,-66.6666666666667,4,2,1,68,0,1
136702,-100,4,2,3,68,0,0
136871,-100,4,2,2,68,0,0
137719,-100,4,2,3,68,0,0
137888,-100,4,2,1,68,0,0
138227,-76.9230769230769,4,2,1,68,0,0
138736,-71.4285714285714,4,2,1,68,0,0
138820,-71.4285714285714,4,2,1,5,0,0
138905,-71.4285714285714,4,2,1,68,0,0
139075,-66.6666666666667,4,2,1,68,0,0
139329,-66.6666666666667,4,2,1,5,0,0
139414,-100,4,2,1,56,0,0
140007,-100,4,2,1,36,0,0
140092,-100,4,2,1,56,0,0
141532,-100,4,2,1,35,0,0
141617,-100,4,2,1,56,0,0
142634,-100,4,2,1,34,0,0
142719,-100,4,2,1,55,0,0
142803,-100,4,2,1,58,0,0
144837,-83.3333333333333,4,2,1,58,0,0
145092,-83.3333333333333,4,2,1,5,0,0
145176,-83.3333333333333,4,2,1,58,0,0
145431,-83.3333333333333,4,2,1,44,0,0
145515,-100,4,2,1,58,0,0
146956,-100,4,2,1,32,0,0
147041,-100,4,2,1,58,0,0
148058,-100,4,2,1,31,0,0
148142,-100,4,2,1,39,0,0
148227,-100,4,2,1,58,0,0
148312,-100,4,2,1,5,0,0
148397,-76.9230769230769,4,2,1,58,0,0
148736,-66.6666666666667,4,2,2,58,0,0
148990,-66.6666666666667,4,2,2,5,0,0
149075,-66.6666666666667,4,2,1,58,0,0
149244,-66.6666666666667,4,2,3,58,0,0
149583,-66.6666666666667,4,2,1,58,0,0
149837,-66.6666666666667,4,2,1,45,0,0
149922,-66.6666666666667,4,2,1,58,0,0
150261,-57.1428571428571,4,2,1,58,0,0
150515,-57.1428571428571,4,2,1,5,0,0
150600,-57.1428571428571,4,2,1,58,0,0
150770,-57.1428571428571,4,2,2,58,0,0
150939,-57.1428571428571,4,2,1,58,0,0
151024,-57.1428571428571,4,2,1,5,0,0
151109,-100,4,2,1,58,0,0
151447,-57.1428571428571,4,2,1,58,0,0
151956,-57.1428571428571,4,2,3,57,0,0
152295,-100,4,2,3,58,0,0
152464,-100,4,2,3,32,0,0
152549,-100,4,2,3,42,0,0
152634,-100,4,2,3,58,0,0
152803,-57.1428571428571,4,2,1,58,0,0
153058,-57.1428571428571,4,2,1,5,0,0
153142,-100,4,2,1,58,0,0
153481,-57.1428571428571,4,2,1,58,0,0
153736,-57.1428571428571,4,2,1,5,0,0
153820,-57.1428571428571,4,2,1,58,0,0
154159,-57.1428571428571,4,2,2,58,0,0
154498,-57.1428571428571,4,2,1,58,0,0
155007,-83.3333333333333,4,2,1,58,0,0
155176,-83.3333333333333,4,2,1,36,0,0
155261,-83.3333333333333,4,2,1,42,0,0
155346,-83.3333333333333,4,2,1,68,0,0
155685,-100,4,2,2,58,0,0
155854,-100,4,2,1,47,0,0
156024,-100,4,2,1,58,0,0
156193,-90.9090909090909,4,2,3,58,0,0
156363,-90.9090909090909,4,2,1,58,0,0
156447,-90.9090909090909,4,2,1,5,0,0
156532,-90.9090909090909,4,2,1,58,0,0
156702,-83.3333333333333,4,2,3,58,0,0
157210,-125,4,2,3,58,0,0
158397,-100,4,2,2,58,0,0
158736,-100,4,2,3,58,0,0
158905,-90.9090909090909,4,2,3,58,0,0
159075,-90.9090909090909,4,2,3,33,0,0
159159,-90.9090909090909,4,2,3,5,0,0
159244,-90.9090909090909,4,2,3,68,0,0
159414,-83.3333333333333,4,2,3,61,0,0
160600,-83.3333333333333,4,2,3,35,0,0
160685,-83.3333333333333,4,2,3,44,0,0
160770,-83.3333333333333,4,2,3,58,0,0
161109,-100,4,2,3,58,0,0
161617,-90.9090909090909,4,2,3,58,0,0
161871,-90.9090909090909,4,2,3,5,0,0
161956,-90.9090909090909,4,2,3,58,0,0
162125,-83.3333333333333,4,2,1,58,0,0
162634,-90.9090909090909,4,2,1,58,0,0
163312,-90.9090909090909,4,2,1,36,0,0
163397,-90.9090909090909,4,2,1,40,0,0
163481,-90.9090909090909,4,2,1,68,0,0
163820,-83.3333333333333,4,2,1,68,0,0
163990,-83.3333333333333,4,2,1,34,0,0
164075,-83.3333333333333,4,2,1,42,0,0
164159,-83.3333333333333,4,2,1,68,0,0
164583,-83.3333333333333,4,2,1,38,0,0
164668,-83.3333333333333,4,2,1,68,0,0
164836,-66.6666666666667,4,2,1,68,0,0
165007,-66.6666666666667,4,2,1,34,0,0
165092,-66.6666666666667,4,2,1,43,0,0
165176,-66.6666666666667,4,2,1,68,0,0
165345,-83.3333333333333,4,2,1,68,0,0
165684,-133.333333333333,4,2,1,68,0,0
166532,-133.333333333333,4,2,4,63,0,0
167041,-133.333333333333,4,2,1,33,0,0
171278,-133.333333333333,4,2,2,46,0,0
171617,-133.333333333333,4,2,2,55,0,0
171786,-133.333333333333,4,2,1,61,0,0
171956,-100,4,2,2,51,0,0
173312,-90.9090909090909,4,2,2,51,0,0
174159,-90.9090909090909,4,2,1,51,0,0
174329,-90.9090909090909,4,2,2,51,0,0
174498,-76.9230769230769,4,2,2,51,0,0
174753,-76.9230769230769,4,2,2,5,0,0
174837,-76.9230769230769,4,2,2,51,0,0
174922,-76.9230769230769,4,2,2,57,0,0
175007,-133.333333333333,4,2,2,66,0,0
175092,-133.333333333333,4,2,2,5,0,0
175176,-76.9230769230769,4,2,1,68,0,0
175854,-66.6666666666667,4,2,1,68,0,0
176109,-66.6666666666667,4,2,1,28,0,0
176193,-83.3333333333333,4,2,1,68,0,0
176532,-83.3333333333333,4,2,1,32,0,0
176617,-83.3333333333333,4,2,1,53,0,0
176702,-83.3333333333333,4,2,1,68,0,0
176871,-83.3333333333333,4,2,1,50,0,0
177041,-83.3333333333333,4,2,1,54,0,0
177210,-83.3333333333333,4,2,1,57,0,0
177295,-83.3333333333333,4,2,1,67,0,0
177380,-100,4,2,1,68,0,1
177888,-100,4,2,1,68,0,1
178142,-100,4,2,1,5,0,1
178227,-100,4,2,1,68,0,1
179244,-71.4285714285714,4,2,1,68,0,1
179498,-71.4285714285714,4,2,1,49,0,1
179583,-71.4285714285714,4,2,1,68,0,1
179922,-62.5,4,2,1,68,0,1
180431,-83.3333333333333,4,2,1,68,0,1
181278,-71.4285714285714,4,2,1,68,0,1
181532,-71.4285714285714,4,2,1,5,0,1
181617,-71.4285714285714,4,2,1,68,0,1
181956,-83.3333333333333,4,2,2,68,0,1
182464,-76.9230769230769,4,2,2,68,0,1
182803,-83.3333333333333,4,2,2,68,0,1
182973,-83.3333333333333,4,2,1,68,0,1
183312,-100,4,2,3,68,0,1
183397,-100,4,2,3,49,0,1
183481,-100,4,2,3,68,0,1
183566,-100,4,2,3,5,0,1
183651,-100,4,2,3,68,0,1
184668,-66.6666666666667,4,2,3,68,0,1
184753,-66.6666666666667,4,2,3,38,0,1
184837,-66.6666666666667,4,2,3,68,0,1
185007,-66.6666666666667,4,2,1,68,0,1
185345,-83.3333333333333,4,2,1,68,0,1
185431,-83.3333333333333,4,2,1,5,0,1
185515,-83.3333333333333,4,2,1,68,0,0
185685,-83.3333333333333,4,2,1,5,0,0
185770,-83.3333333333333,4,2,1,68,0,0
185854,-83.3333333333333,4,2,1,68,0,0
186024,-76.9230769230769,4,2,1,68,0,0
186702,-66.6666666666667,4,2,1,68,0,0
186956,-66.6666666666667,4,2,1,5,0,0
187041,-66.6666666666667,4,2,1,68,0,0
187210,-100,4,2,2,68,0,0
187380,-100,4,2,3,68,0,0
187719,-100,4,2,1,68,0,0
187973,-100,4,2,1,41,0,0
188058,-100,4,2,1,68,0,0
188227,-76.9230769230769,4,2,1,68,0,1
188397,-76.9230769230769,4,2,1,48,0,1
188481,-76.9230769230769,4,2,1,5,0,1
188566,-100,4,2,1,68,0,1
190092,-76.9230769230769,4,2,1,68,0,1
190176,-76.9230769230769,4,2,1,5,0,1
190261,-100,4,2,1,68,0,1
190431,-100,4,2,1,39,0,1
190515,-100,4,2,1,68,0,1
190939,-76.9230769230769,4,2,1,68,0,1
191193,-76.9230769230769,4,2,1,5,0,1
191278,-100,4,2,1,68,0,1
192125,-66.6666666666667,4,2,1,68,0,0
192380,-66.6666666666667,4,2,1,5,0,0
192464,-66.6666666666667,4,2,1,68,0,0
193312,-100,4,2,1,68,0,0
193651,-76.9230769230769,4,2,1,68,0,1
193905,-76.9230769230769,4,2,1,5,0,1
193990,-100,4,2,1,68,0,1
195515,-100,4,2,1,42,0,1
195600,-100,4,2,1,38,0,1
195685,-76.9230769230769,4,2,1,68,0,1
195770,-76.9230769230769,4,2,1,5,0,1
195854,-76.9230769230769,4,2,1,31,0,1
195939,-76.9230769230769,4,2,1,48,0,1
196024,-76.9230769230769,4,2,1,68,0,1
196278,-76.9230769230769,4,2,1,5,0,1
196363,-71.4285714285714,4,2,1,68,0,1
196532,-71.4285714285714,4,2,1,48,0,1
196617,-71.4285714285714,4,2,1,58,0,1
196702,-71.4285714285714,4,2,1,68,0,1
197125,-71.4285714285714,4,2,1,5,0,1
197210,-71.4285714285714,4,2,1,68,0,1
197549,-71.4285714285714,4,2,2,68,0,1
197888,-71.4285714285714,4,2,1,68,0,1
199075,-100,4,2,1,68,0,0
199329,-100,4,2,1,5,0,0
199414,-100,4,2,1,68,0,0
199753,-166.666666666667,4,2,1,68,0,0
199922,-166.666666666667,4,2,1,5,0,0
200007,-83.3333333333333,4,2,1,68,0,0
200176,-83.3333333333333,4,2,1,5,0,0
200261,-66.6666666666667,4,2,1,68,0,0
200346,-66.6666666666667,4,2,1,5,0,0
200431,-133.333333333333,4,2,1,68,0,0
200515,-133.333333333333,4,2,1,5,0,0
200600,-133.333333333333,4,2,1,68,0,0
200685,-133.333333333333,4,2,1,5,0,0
200770,-100,4,2,1,68,0,0
200854,-100,4,2,1,5,0,0
200939,-100,4,2,1,39,0,0
201024,-100,4,2,1,47,0,0
201109,-83.3333333333333,4,2,1,68,0,0
201786,-83.3333333333333,4,2,1,68,0,0
202041,-100,4,2,1,5,0,0
202125,-100,4,2,1,68,0,0
202465,-166.666666666667,4,2,1,68,0,0
202634,-166.666666666667,4,2,1,5,0,0
202719,-83.3333333333333,4,2,1,68,0,0
202888,-83.3333333333333,4,2,1,5,0,0
202973,-66.6666666666667,4,2,1,68,0,0
203058,-66.6666666666667,4,2,1,5,0,0
203142,-166.666666666667,4,2,1,68,0,0
203227,-166.666666666667,4,2,1,5,0,0
203312,-166.666666666667,4,2,1,68,0,0
203397,-166.666666666667,4,2,1,5,0,0
203481,-111.111111111111,4,2,1,68,0,0
203566,-111.111111111111,4,2,1,5,0,0
203651,-111.111111111111,4,2,1,45,0,0
203820,-83.3333333333333,4,2,1,68,0,0
203990,-83.3333333333333,4,2,1,54,0,0
204075,-83.3333333333333,4,2,1,34,0,0
204159,-83.3333333333333,4,2,1,58,0,0
204329,-83.3333333333333,4,2,1,68,0,0
204498,-133.333333333333,4,2,1,68,0,0
206786,-133.333333333333,4,2,1,48,0,0
206871,-100,4,2,1,48,0,0
207041,-100,4,2,1,68,0,0
207125,-100,4,2,1,48,0,0
207210,-83.3333333333333,4,2,1,68,0,0
207380,-83.3333333333333,4,2,1,53,0,0
207464,-83.3333333333333,4,2,1,58,0,0
207549,-83.3333333333333,4,2,1,68,0,0
207973,-83.3333333333333,4,2,1,40,0,0
208058,-83.3333333333333,4,2,1,68,0,0
208226,-66.6666666666667,4,2,1,68,0,0
208397,-66.6666666666667,4,2,1,43,0,0
208481,-66.6666666666667,4,2,1,56,0,0
208566,-66.6666666666667,4,2,1,36,0,0
208651,-66.6666666666667,4,2,1,68,0,0
208735,-83.3333333333333,4,2,1,68,0,0
208736,-83.3333333333333,4,2,2,68,0,0
208905,-83.3333333333333,4,2,2,48,0,0
209074,-76.9230769230769,4,2,2,48,0,0
209075,-76.9230769230769,4,2,1,68,0,0
209583,-76.9230769230769,4,2,1,19,0,0

[Colours]
Combo1 : 200,130,247
Combo2 : 226,188,137
Combo3 : 0,221,193
Combo4 : 247,145,203

[HitObjects]
235,235,1109,5,4,3:2:0:0:
263,47,1278,1,8,0:0:0:0:
240,80,1362,1,8,0:0:0:0:
236,120,1447,1,8,0:0:0:0:
251,157,1532,1,8,0:0:0:0:
313,205,1617,6,0,L|373:215,1,53.9999983520508,4|0,3:2|0:0,0:0:0:0:
467,54,1786,5,4,3:0:0:0:
395,80,1871,1,4,3:0:0:0:
323,106,1956,1,2,3:0:0:0:
188,15,2125,6,0,B|176:79|176:79|166:85|166:85|157:144,1,135.000005149842,4|8,3:2|0:0,0:0:0:0:
89,207,2380,5,8,0:0:0:0:
147,157,2464,1,2,3:0:0:0:
318,226,2634,6,0,P|311:252|300:276,1,53.9999983520508,4|0,3:2|0:0,0:0:0:0:
140,348,2803,1,0,0:0:0:0:
356,332,2973,6,0,B|318:310|263:334|263:334|207:359|161:332,1,202.500007724762,2|2,3:2|3:0,0:0:0:0:
60,371,3820,5,4,3:2:0:0:
44,291,3990,1,2,0:0:0:0:
30,212,4159,1,8,0:0:0:0:
56,302,4329,2,0,L|86:136,1,135,2|0,0:0|0:0,0:0:0:0:
85,153,4668,1,2,3:2:0:0:
224,256,4837,1,8,0:0:0:0:
47,80,5007,6,0,P|90:70|151:105,1,90,2|0,3:2|3:0,0:0:0:0:
38,224,5346,2,0,P|50:181|84:152,1,90,2|8,3:2|0:0,0:0:0:0:
212,349,5685,2,0,P|132:302|119:238,1,161.999995056153,2|8,3:2|0:0,0:0:0:0:
118,226,6024,1,2,3:2:0:0:
232,86,6193,1,8,0:0:0:0:
212,257,6363,6,0,B|365:230|365:230|337:250|329:281,1,215.999993408203,2|2,3:2|0:0,0:0:0:0:
319,359,6871,1,8,0:0:0:0:
363,152,7041,2,0,L|379:50,1,90,2|0,0:0|3:0,0:0:0:0:
458,308,7380,2,0,L|443:219,1,90,2|8,0:0|0:0,0:0:0:0:
259,162,7719,6,0,B|212:170|168:144|168:144|122:111|68:135,1,180,2|2,0:0|0:0,0:0:0:0:
20,166,8142,1,0,0:0:0:0:
28,176,8227,1,8,0:0:0:0:
228,85,8397,5,2,0:0:0:0:
112,205,8566,2,0,P|100:249|124:281,1,90,2|8,3:0|0:0,0:0:0:0:
271,264,8820,5,8,0:0:0:0:
267,184,8905,2,0,P|203:208|202:266,1,116.999994644165,8|8,3:2|0:0,0:0:0:0:
339,222,9159,1,8,0:0:0:0:
335,141,9244,5,4,3:2:0:0:
276,78,9413,1,2,0:0:0:0:
218,16,9583,1,8,0:0:0:0:
316,103,9753,2,0,B|261:93|261:93|235:107|235:107|185:98,1,135,2|0,0:0|0:0,0:0:0:0:
169,97,10092,1,2,3:2:0:0:
295,279,10261,1,8,0:0:0:0:
398,119,10431,6,0,P|412:161|399:203,1,90,2|0,3:2|3:0,0:0:0:0:
394,41,10770,2,0,P|437:49|468:81,1,90,2|8,3:2|0:0,0:0:0:0:
309,204,11109,1,2,3:2:0:0:
345,0,11278,2,0,L|322:132,1,135.000005149842,4|8,3:0|0:0,0:0:0:0:
402,309,11532,5,8,0:0:0:0:
327,285,11616,1,8,0:0:0:0:
304,300,11701,1,8,0:0:0:0:
281,315,11786,6,0,B|245:300|197:323|197:323|149:344|106:303,1,161.999995056153,8|0,0:0|0:0,0:0:0:0:
75,248,12125,5,8,0:0:0:0:
119,305,12210,1,8,0:0:0:0:
116,328,12295,2,0,L|111:362,1,33.7500012874604,8|0,0:0|0:0,0:0:0:0:
148,136,12464,6,0,L|172:272,1,116.999994644165,2|0,3:2|0:0,0:0:0:0:
52,53,12803,2,0,L|75:189,1,116.999994644165,2|0,3:2|0:0,0:0:0:0:
346,132,13142,6,0,B|294:132|256:97|256:97|196:94|155:125,1,202.500007724762,4|0,3:2|0:0,0:0:0:0:
148,136,13481,1,0,3:0:0:0:
328,211,13651,1,10,0:0:0:0:
400,24,13820,6,0,P|376:68|384:160,1,107.999996704102,0|4,0:0|3:0,0:0:0:0:
512,310,14159,1,4,3:0:0:0:
499,254,14243,1,4,3:0:0:0:
465,209,14329,2,0,L|403:198,1,53.9999983520508,6|2,3:0|3:0,0:0:0:0:
273,267,14498,1,6,3:0:0:0:
187,149,14668,6,0,B|234:157|234:157|258:181|258:181|316:192,1,135,4|0,3:2|0:0,0:0:0:0:
322,193,15007,1,8,0:0:0:0:
183,228,15176,1,0,0:0:0:0:
161,225,15261,1,0,0:0:0:0:
127,235,15346,2,0,P|104:213|86:172,1,53.9999983520508,0|0,3:0|0:0,0:0:0:0:
115,344,15600,5,0,3:0:0:0:
45,322,15685,2,0,P|36:292|40:246,1,53.9999983520508,8|0,0:0|0:0,0:0:0:0:
9,196,15854,2,0,P|16:165|43:128,1,67.5000025749208,0|0,3:0|0:0,0:0:0:0:
162,127,16024,6,0,L|213:135,1,33.7500012874604,0|0,3:0|0:0,0:0:0:0:
255,129,16193,2,0,L|203:120,1,33.7500012874604,0|0,0:0|0:0,0:0:0:0:
131,50,16363,6,0,L|198:38,1,45,8|0,0:0|0:0,0:0:0:0:
323,202,16532,2,0,L|255:213,1,45,0|0,0:0|0:0,0:0:0:0:
284,38,16702,6,0,B|306:25|306:25|363:35|363:35|379:55,1,107.999996704102,0|0,3:0|3:0,0:0:0:0:
439,245,17041,1,8,0:0:0:0:
410,216,17125,1,8,0:0:0:0:
401,177,17210,1,2,3:0:0:0:
414,139,17295,1,0,0:0:0:0:
445,114,17380,6,0,B|420:133|383:137|383:137|306:123,1,135,4|0,3:2|0:0,0:0:0:0:
301,122,17719,1,8,0:0:0:0:
298,310,17888,1,0,0:0:0:0:
305,289,17973,1,0,0:0:0:0:
331,265,18058,2,0,P|323:235|296:197,1,53.9999983520508,0|0,3:0|0:0,0:0:0:0:
127,289,18312,5,0,3:0:0:0:
203,291,18397,2,0,P|225:269|244:227,1,53.9999983520508,8|0,0:0|0:0,0:0:0:0:
214,176,18566,2,0,P|222:146|218:100,1,67.5000025749208,0|0,3:0|0:0,0:0:0:0:
23,200,18736,6,0,L|16:240,1,26.9999991760254,0|0,3:0|0:0,0:0:0:0:
48,297,18905,2,0,L|41:259,1,26.9999991760254,0|0,0:0|0:0,0:0:0:0:
91,130,19075,6,0,L|102:188,1,40.4999987640381,8|0,0:0|0:0,0:0:0:0:
127,289,19244,2,0,L|138:230,1,40.4999987640381,4|8,3:0|0:0,0:0:0:0:
220,109,19414,6,0,P|202:133|192:181,1,53.9999983520508,4|0,3:0|0:0,0:0:0:0:
341,306,19583,1,8,0:0:0:0:
362,298,19668,1,8,0:0:0:0:
380,290,19753,5,8,3:2:0:0:
367,232,19837,1,8,0:0:0:0:
328,189,19922,1,2,3:0:0:0:
274,170,20007,1,2,3:0:0:0:
223,231,20092,5,4,3:2:0:0:
207,35,20261,1,8,0:0:0:0:
201,74,20345,1,8,0:0:0:0:
197,114,20430,1,8,0:0:0:0:
193,155,20515,1,8,0:0:0:0:
146,218,20600,6,0,P|120:231|71:226,1,53.9999983520508,4|0,3:2|0:0,0:0:0:0:
23,20,20770,5,4,3:0:0:0:
60,88,20854,1,4,3:0:0:0:
99,156,20939,1,2,3:0:0:0:
18,318,21109,6,0,B|78:307|78:307|91:313|91:313|159:301,1,135.000005149842,4|8,3:2|0:0,0:0:0:0:
229,360,21363,5,8,0:0:0:0:
164,313,21447,2,0,P|166:281|180:238,1,67.5000025749208,8|8,0:0|0:0,0:0:0:0:
403,162,21617,6,0,P|395:187|383:211,1,53.9999983520508,4|0,3:2|0:0,0:0:0:0:
246,284,21786,1,0,0:0:0:0:
168,82,21956,5,10,0:0:0:0:
241,186,22295,5,2,0:0:0:0:
252,192,22379,1,2,0:0:0:0:
263,198,22464,1,2,0:0:0:0:
271,203,22803,6,0,P|294:214|331:216,1,45,4|0,3:2|0:0,0:0:0:0:
308,97,23142,2,0,P|309:122|326:155,1,45,2|0,3:2|0:0,0:0:0:0:
451,146,23481,1,8,0:0:0:0:
384,105,23651,2,0,P|399:88|418:76,1,45,0|2,0:0|0:0,0:0:0:0:
512,214,23990,6,0,L|376:237,1,135.000005149842,2|0,3:2|3:0,0:0:0:0:
379,237,24498,1,0,3:0:0:0:
483,356,24668,1,0,0:0:0:0:
508,235,24837,6,0,L|451:244,1,45,8|8,0:0|0:0,0:0:0:0:
458,255,25092,1,8,0:0:0:0:
452,268,25176,1,8,0:0:0:0:
355,348,25346,1,8,0:0:0:0:
257,252,25515,6,0,P|253:234|256:201,1,45,2|2,3:2|0:0,0:0:0:0:
240,328,25854,2,0,P|222:322|195:303,1,45,0|0,3:0|0:0,0:0:0:0:
329,228,26193,2,0,P|342:215|372:201,2,45,8|0|2,0:0|0:0|0:0,0:0:0:0:
171,206,26702,6,0,B|179:149|179:149|191:143|191:143|204:68,1,135.000005149842,2|0,3:2|3:0,0:0:0:0:
202,79,27210,1,0,3:0:0:0:
97,171,27380,2,0,P|63:151|39:105,1,67.5000025749208,10|0,0:0|0:0,0:0:0:0:
254,207,27719,2,0,P|292:199|331:164,1,67.5000025749208,10|0,0:0|0:0,0:0:0:0:
315,184,28227,6,0,P|314:156|304:124,1,45,2|2,3:2|0:0,0:0:0:0:
346,259,28566,2,0,P|366:247|391:218,1,45,2|2,3:2|0:0,0:0:0:0:
268,249,28905,1,8,0:0:0:0:
296,323,29075,2,0,P|316:335|354:341,1,45,0|0,0:0|0:0,0:0:0:0:
408,160,29414,6,0,B|375:147|342:164|342:164|307:183|266:169,1,135.000005149842,2|0,3:2|3:0,0:0:0:0:
277,172,29922,1,0,3:0:0:0:
332,44,30092,1,10,0:0:0:0:
279,154,30261,6,0,P|256:154|225:144,1,45,8|8,0:0|0:0,0:0:0:0:
224,137,30515,1,8,0:0:0:0:
214,125,30600,1,8,0:0:0:0:
364,66,30770,1,8,0:0:0:0:
249,54,30939,6,0,B|203:46|203:46|189:51|189:51|131:41,1,101.250003862381,4|0,3:2|0:0,0:0:0:0:
136,42,31278,5,2,3:0:0:0:
90,101,31447,1,0,0:0:0:0:
133,224,31617,5,8,0:0:0:0:
103,114,31786,1,8,0:0:0:0:
206,271,31956,5,8,0:0:0:0:
227,129,32125,1,8,0:0:0:0:
279,318,32295,5,8,0:0:0:0:
331,156,32464,1,8,0:0:0:0:
352,365,32634,5,8,0:0:0:0:
468,207,32803,1,8,0:0:0:0:
273,219,32973,6,0,B|241:241|241:241|385:265,1,157.500001502037,4|4,3:2|3:2,0:0:0:0:
371,274,33481,6,0,B|323:253|270:285|270:285|221:314|168:286,1,202.500007724762,4|0,3:2|0:0,0:0:0:0:
166,283,33820,1,0,3:0:0:0:
129,148,33990,1,10,0:0:0:0:
276,247,34159,6,0,P|242:272|142:264,1,135.000005149842,0|2,0:0|0:0,0:0:0:0:
186,86,34498,2,0,B|220:71|220:71|250:121|216:167,1,135,4|0,3:2|0:0,0:0:0:0:
211,177,34837,1,8,0:0:0:0:
290,40,35007,5,8,0:0:0:0:
339,73,35091,1,8,0:0:0:0:
397,83,35176,1,8,0:0:0:0:
454,68,35261,1,8,0:0:0:0:
452,54,35346,5,8,3:0:0:0:
450,40,35431,1,4,3:0:0:0:
456,109,35516,1,8,0:0:0:0:
462,178,35601,1,8,0:0:0:0:
444,203,35685,6,0,P|435:234|434:277,1,45,2|0,3:0|0:0,0:0:0:0:
512,343,35854,2,0,P|508:320|501:299,1,45,0|0,3:0|3:0,0:0:0:0:
342,168,36024,1,8,0:0:0:0:
332,185,36363,6,0,B|294:176|261:195|261:195|230:217|188:204,1,135,4|0,3:2|0:0,0:0:0:0:
183,202,36702,2,0,P|172:244|127:265,1,67.5000025749208,10|2,0:0|0:0,0:0:0:0:
57,122,37041,5,2,3:2:0:0:
99,189,37210,1,2,0:0:0:0:
193,52,37380,1,8,0:0:0:0:
174,127,37549,1,0,0:0:0:0:
11,25,37719,6,0,B|50:31|50:31|56:42|56:42|107:51,1,101.250003862381,2|0,3:2|0:0,0:0:0:0:
116,54,38058,1,8,0:0:0:0:
22,193,38227,6,0,P|25:159|40:129,1,67.5000025749208,2|2,0:0|3:2,0:0:0:0:
238,137,38566,1,2,0:0:0:0:
194,34,38736,1,8,0:0:0:0:
230,124,38905,1,0,0:0:0:0:
277,20,39075,6,0,L|357:35,1,67.5000025749208,2|2,3:2|0:0,0:0:0:0:
460,59,39414,1,8,0:0:0:0:
356,37,39583,1,2,0:0:0:0:
390,127,39753,2,0,L|309:142,2,67.5000025749208,2|2|10,3:2|0:0|0:0,0:0:0:0:
477,163,40261,1,0,0:0:0:0:
368,216,40431,6,0,L|247:237,1,101.250003862381,0|0,3:0|0:0,0:0:0:0:
258,238,40770,1,8,0:0:0:0:
399,292,40939,2,0,P|418:316|428:351,1,67.5000025749208,2|2,0:0|3:2,0:0:0:0:
163,306,41278,5,8,0:0:0:0:
196,311,41362,1,8,0:0:0:0:
229,316,41447,1,8,0:0:0:0:
262,322,41532,1,8,0:0:0:0:
296,327,41616,1,2,3:0:0:0:
311,338,41786,6,0,L|292:240,1,90,4|0,3:2|0:0,0:0:0:0:
270,135,42125,1,8,0:0:0:0:
70,196,42295,2,0,B|102:212|144:200|144:200|189:188|227:210,1,148.50000453186,2|0,3:2|0:0,0:0:0:0:
225,210,42634,1,0,3:0:0:0:
114,122,42803,2,0,B|86:73|122:20|122:20|185:32|206:87,1,215.999993408203,12|0,0:0|0:0,0:0:0:0:
306,116,43312,6,0,P|255:117|210:93,1,99.0000030212403,0|8,3:0|0:0,0:0:0:0:
312,201,43651,1,0,3:0:0:0:
274,37,43820,1,4,3:0:0:0:
436,64,43990,5,8,0:0:0:0:
404,82,44074,1,8,0:0:0:0:
387,114,44159,1,8,0:0:0:0:
390,151,44244,1,8,0:0:0:0:
413,180,44328,1,2,3:0:0:0:
435,352,44498,5,4,3:2:0:0:
312,201,44668,1,8,0:0:0:0:
335,228,44752,1,8,0:0:0:0:
340,264,44837,1,8,0:0:0:0:
325,298,44922,1,8,0:0:0:0:
259,341,45007,6,0,L|190:328,1,53.9999983520508,0|0,3:2|0:0,0:0:0:0:
143,159,45176,5,8,0:0:0:0:
200,208,45261,1,8,0:0:0:0:
257,257,45346,1,4,3:0:0:0:
0,317,45515,6,0,B|62:306|62:306|69:296|69:296|127:286,1,135.000005149842,4|8,3:2|0:0,0:0:0:0:
191,220,45770,5,8,0:0:0:0:
138,274,45854,2,0,P|119:316|115:363,1,67.5000025749208,2|8,3:0|0:0,0:0:0:0:
285,384,46024,6,0,P|283:360|270:326,1,53.9999983520508,4|0,3:2|0:0,0:0:0:0:
182,211,46193,1,0,0:0:0:0:
344,215,46363,5,2,3:2:0:0:
185,196,46532,2,0,P|165:164|154:119,1,67.5000025749208,8|0,0:0|0:0,0:0:0:0:
306,76,46871,6,0,B|261:98|201:72|201:72|157:49|96:64,1,202.500007724762,2|0,3:0|0:0,0:0:0:0:
98,75,47210,5,4,3:2:0:0:
143,144,47380,1,2,0:0:0:0:
188,213,47549,1,8,0:0:0:0:
121,149,47719,2,0,B|179:159|179:159|187:168|187:168|252:180,1,135,2|0,3:2|0:0,0:0:0:0:
262,183,48058,1,2,3:2:0:0:
102,231,48227,1,8,0:0:0:0:
333,141,48397,6,0,P|296:112|225:114,1,90,2|0,3:2|3:0,0:0:0:0:
408,180,48736,2,0,P|414:133|377:72,1,90,2|8,3:2|0:0,0:0:0:0:
378,349,49075,2,0,P|422:332|482:230,1,161.999995056153,2|8,3:2|0:0,0:0:0:0:
480,226,49414,1,2,3:2:0:0:
493,384,49583,1,8,0:0:0:0:
320,232,49753,6,0,B|184:255|184:255|187:299|228:325,1,215.999993408203,2|2,0:0|0:0,0:0:0:0:
300,315,50261,1,8,0:0:0:0:
95,246,50431,2,0,P|111:287|111:332,1,90,2|0,0:0|3:0,0:0:0:0:
181,87,50770,2,0,P|163:125|161:174,1,90,2|8,0:0|0:0,0:0:0:0:
295,26,51109,6,0,B|237:16|237:16|184:42|184:42|117:31,1,180,2|2,0:0|0:0,0:0:0:0:
44,36,51532,1,0,0:0:0:0:
48,49,51617,1,8,0:0:0:0:
90,190,51786,5,2,0:0:0:0:
248,109,51956,2,0,B|294:119|294:119|317:158,1,90,2|8,3:0|0:0,0:0:0:0:
236,271,52210,5,8,0:0:0:0:
160,245,52295,2,0,B|187:192|187:192|244:191,1,116.999994644165,8|8,3:2|0:0,0:0:0:0:
311,235,52549,1,8,0:0:0:0:
381,196,52634,5,4,3:2:0:0:
412,125,52803,1,2,0:0:0:0:
443,54,52973,1,8,0:0:0:0:
425,174,53142,2,0,L|256:146,1,135,2|0,3:2|0:0,0:0:0:0:
278,150,53481,1,2,3:2:0:0:
502,113,53651,1,8,0:0:0:0:
388,305,53820,6,0,P|346:326|287:313,1,90,2|0,0:0|3:0,0:0:0:0:
497,221,54159,2,0,P|494:265|469:302,1,90,2|8,3:2|0:0,0:0:0:0:
316,177,54498,1,2,3:2:0:0:
369,380,54668,2,0,B|359:327|359:327|345:314|345:314|329:232,1,135.000005149842,4|8,3:0|0:0,0:0:0:0:
165,205,54922,5,8,0:0:0:0:
128,273,55007,1,8,0:0:0:0:
132,292,55092,1,8,0:0:0:0:
136,311,55176,6,0,P|168:311|199:295,1,53.9999983520508,2|0,3:0|0:0,0:0:0:0:
340,104,55346,2,0,P|299:69|247:59,1,107.999996704102,4|8,3:2|0:0,0:0:0:0:
218,135,55600,5,8,0:0:0:0:
233,62,55685,2,0,P|236:39|253:14,1,33.7500012874604,8|0,0:0|0:0,0:0:0:0:
424,30,55854,6,0,P|462:75|433:132,1,116.999994644165,2|0,3:2|0:0,0:0:0:0:
335,330,56193,2,0,P|297:285|326:228,1,116.999994644165,2|0,3:2|0:0,0:0:0:0:
479,197,56532,6,0,B|427:215|377:181|377:181|336:149|284:159,1,202.500007724762,4|0,3:2|0:0,0:0:0:0:
271,165,56871,1,0,3:0:0:0:
433,384,57041,2,0,B|424:334|424:334|418:328|418:328|408:274,1,107.999996704102,12|0,0:0|0:0,0:0:0:0:
235,332,57380,6,0,P|266:328|293:311,1,53.9999983520508,6|0,3:0|0:0,0:0:0:0:
271,165,57549,1,4,3:0:0:0:
217,165,57633,1,4,3:0:0:0:
172,193,57718,1,6,3:0:0:0:
243,249,57888,1,0,3:0:0:0:
59,280,58058,5,4,3:2:0:0:
79,205,58227,1,2,0:0:0:0:
99,130,58397,1,8,0:0:0:0:
81,247,58566,2,0,L|56:107,1,135,2|0,3:2|0:0,0:0:0:0:
55,104,58905,1,2,3:2:0:0:
163,275,59075,1,8,0:0:0:0:
275,91,59244,6,0,P|278:143|257:175,1,90,2|0,0:0|3:0,0:0:0:0:
139,61,59583,2,0,P|185:84|202:118,1,90,2|8,3:2|0:0,0:0:0:0:
11,12,59922,6,0,B|56:-1|95:29|95:29|136:58|196:38,1,188.999994232178,2|8,0:0|0:0,0:0:0:0:
204,35,60261,1,2,0:0:0:0:
59,216,60431,1,8,0:0:0:0:
298,257,60600,2,0,P|278:159|111:167,1,288,2|2,0:0|0:0,0:0:0:0:
215,342,61109,6,0,B|262:333|262:333|273:338|273:338|324:329,1,107.999996704102,8|2,0:0|0:0,0:0:0:0:
477,378,61447,1,0,3:0:0:0:
371,154,61617,2,0,B|353:208|353:208|413:252,1,107.999996704102,2|8,0:0|0:0,0:0:0:0:
482,113,61956,6,0,B|419:102|419:102|368:125|368:125|295:113,1,188.999994232178,4|0,3:2|0:0,0:0:0:0:
286,112,62295,1,0,3:0:0:0:
438,22,62464,1,8,0:0:0:0:
296,197,62634,2,0,P|237:179|205:139,1,107.999996704102,4|0,3:2|0:0,0:0:0:0:
78,15,62973,5,8,0:0:0:0:
116,19,63057,1,8,0:0:0:0:
142,47,63142,1,8,0:0:0:0:
15,135,63312,5,8,0:0:0:0:
44,113,63396,1,8,0:0:0:0:
74,95,63481,5,4,3:2:0:0:
95,170,63651,1,2,0:0:0:0:
116,245,63820,1,8,0:0:0:0:
116,158,63990,2,0,B|106:214|106:214|97:224|97:224|83:302,1,135,2|0,3:2|0:0,0:0:0:0:
83,303,64329,1,2,3:2:0:0:
207,144,64498,1,8,0:0:0:0:
297,334,64668,6,0,P|250:328|215:291,1,90,2|0,3:2|3:0,0:0:0:0:
356,206,65007,2,0,P|327:243|277:255,1,90,2|8,3:2|0:0,0:0:0:0:
193,142,65346,1,2,3:2:0:0:
429,181,65515,2,0,L|289:156,1,135.000005149842,4|8,3:0|0:0,0:0:0:0:
116,106,65770,5,8,0:0:0:0:
93,179,65855,1,8,0:0:0:0:
98,200,65940,1,8,0:0:0:0:
102,219,66024,6,0,P|131:222|166:217,1,53.9999983520508,2|0,3:0|0:0,0:0:0:0:
353,56,66193,2,0,B|356:37|331:5|331:5|270:27|258:76,1,161.999995056153,4|8,3:2|0:0,0:0:0:0:
255,91,66532,1,8,0:0:0:0:
448,65,66702,6,0,P|475:108|467:179,1,116.999994644165,2|0,3:2|0:0,0:0:0:0:
304,331,67041,2,0,P|297:273|326:223,1,116.999994644165,2|0,3:2|0:0,0:0:0:0:
511,217,67380,6,0,B|472:222|437:203|437:203|397:220|397:220|362:199|313:205,1,202.500007724762,4|0,3:2|0:0,0:0:0:0:
301,202,67719,1,0,3:0:0:0:
445,293,67888,1,10,0:0:0:0:
276,114,68058,6,0,P|226:156|210:211,1,107.999996704102,0|8,0:0|3:0,0:0:0:0:
50,365,68397,1,4,3:0:0:0:
100,342,68481,1,4,3:0:0:0:
151,318,68567,2,0,P|157:294|161:258,1,53.9999983520508,6|2,3:0|3:0,0:0:0:0:
25,210,68736,1,2,3:0:0:0:
168,101,68905,6,0,B|103:112|103:112|97:120|97:120|33:131,1,135,4|0,3:2|0:0,0:0:0:0:
26,132,69244,1,8,0:0:0:0:
140,27,69414,1,0,0:0:0:0:
165,16,69498,1,0,0:0:0:0:
189,5,69583,2,0,P|213:10|240:29,1,53.9999983520508,0|0,3:0|0:0,0:0:0:0:
168,101,69837,5,0,3:0:0:0:
150,176,69922,2,0,P|155:201|175:230,1,53.9999983520508,8|0,0:0|0:0,0:0:0:0:
200,295,70092,2,0,P|227:304|266:300,1,67.5000025749208,0|0,3:0|0:0,0:0:0:0:
427,200,70261,6,0,L|387:206,1,33.7500012874604,0|0,3:0|0:0,0:0:0:0:
325,238,70431,2,0,L|364:244,1,33.7500012874604,0|0,0:0|0:0,0:0:0:0:
302,158,70600,6,0,L|254:166,1,45,8|0,0:0|0:0,0:0:0:0:
337,320,70770,2,0,L|384:328,1,45,0|0,0:0|0:0,0:0:0:0:
242,249,70939,6,0,B|204:243|204:243|174:262|174:262|128:254,1,107.999996704102,0|0,3:0|3:0,0:0:0:0:
142,88,71278,1,8,0:0:0:0:
163,102,71362,1,8,0:0:0:0:
185,118,71447,1,2,3:0:0:0:
207,133,71532,1,0,0:0:0:0:
228,146,71617,6,0,B|262:131|292:143|292:143|335:156|364:137,1,135,4|0,3:2|0:0,0:0:0:0:
372,134,71956,1,8,0:0:0:0:
408,22,72125,1,0,0:0:0:0:
383,23,72210,1,0,0:0:0:0:
354,27,72295,2,0,P|335:43|321:73,1,53.9999983520508,0|0,3:0|0:0,0:0:0:0:
442,88,72549,5,0,3:0:0:0:
489,150,72634,2,0,P|492:176|483:209,1,53.9999983520508,8|0,0:0|0:0,0:0:0:0:
460,275,72803,2,0,P|436:292|399:302,1,67.5000025749208,0|0,3:0|0:0,0:0:0:0:
313,282,72973,6,0,L|286:284,1,26.9999991760254,0|0,3:0|0:0,0:0:0:0:
187,242,73142,2,0,L|213:245,1,26.9999991760254,0|0,0:0|0:0,0:0:0:0:
320,368,73312,6,0,L|279:362,1,40.4999987640381,8|0,0:0|0:0,0:0:0:0:
163,329,73481,2,0,L|203:323,1,40.4999987640381,4|8,3:0|0:0,0:0:0:0:
350,211,73651,6,0,P|325:195|287:188,1,53.9999983520508,4|0,3:0|0:0,0:0:0:0:
160,151,73820,1,8,0:0:0:0:
172,144,73905,1,8,0:0:0:0:
183,137,73990,5,8,3:2:0:0:
145,98,74074,1,8,0:0:0:0:
94,80,74159,1,2,3:0:0:0:
41,88,74244,1,0,0:0:0:0:
0,150,74329,5,4,3:2:0:0:
73,0,74498,1,8,0:0:0:0:
113,6,74582,1,8,0:0:0:0:
153,13,74667,1,8,0:0:0:0:
192,21,74752,1,8,0:0:0:0:
258,62,74837,6,0,P|268:87|269:114,1,53.9999983520508,4|0,3:2|0:0,0:0:0:0:
154,203,75007,5,8,3:0:0:0:
224,181,75092,1,4,3:0:0:0:
297,188,75176,1,2,3:0:0:0:
207,297,75346,6,0,B|143:286|143:286|131:293|131:293|74:283,1,135.000005149842,4|8,3:2|0:0,0:0:0:0:
19,215,75600,5,8,0:0:0:0:
67,275,75685,2,0,P|64:313|46:345,1,67.5000025749208,8|8,0:0|0:0,0:0:0:0:
86,161,75854,6,0,P|117:170|143:190,1,53.9999983520508,4|0,3:2|0:0,0:0:0:0:
218,308,76024,1,0,0:0:0:0:
294,112,76193,6,0,P|238:152|283:235,1,161.999995056153,10|2,0:0|0:0,0:0:0:0:
339,266,76532,1,2,0:0:0:0:
349,267,76617,1,2,0:0:0:0:
358,268,76702,1,2,0:0:0:0:
368,269,77041,6,0,P|395:277|437:273,1,53.9999983520508,4|0,3:2|0:0,0:0:0:0:
406,199,77380,2,0,P|426:179|443:141,1,53.9999983520508,2|0,3:2|0:0,0:0:0:0:
414,69,77719,1,8,0:0:0:0:
365,131,77888,2,0,P|344:111|327:73,1,53.9999983520508,0|2,0:0|0:0,0:0:0:0:
494,86,78227,6,0,P|439:148|354:124,1,153.000002918243,2|0,3:2|3:0,0:0:0:0:
375,141,78736,1,0,3:0:0:0:
315,259,78905,1,0,0:0:0:0:
365,131,79075,6,0,P|338:123|296:126,1,53.9999983520508,8|8,0:0|0:0,0:0:0:0:
302,131,79329,1,8,0:0:0:0:
293,140,79414,1,2,0:0:0:0:
397,238,79583,1,0,0:0:0:0:
297,342,79753,6,0,P|323:341|349:334,1,53.9999983520508,2|2,3:2|0:0,0:0:0:0:
397,238,80092,1,2,3:2:0:0:
315,259,80261,1,0,0:0:0:0:
435,335,80431,2,0,P|428:361|415:384,2,53.9999983520508,8|0|2,0:0|0:0|0:0,0:0:0:0:
315,259,80939,6,0,B|246:271|246:271|235:266|235:266|156:280,1,153.000002918243,2|0,3:2|3:0,0:0:0:0:
16,311,81447,1,0,3:0:0:0:
105,149,81617,2,0,P|137:171|154:212,1,76.5000014591217,10|0,0:0|0:0,0:0:0:0:
137,348,81956,2,0,P|105:326|89:292,1,76.5000014591217,10|0,0:0|0:0,0:0:0:0:
89,292,82464,6,0,P|69:292|44:283,1,26.9999991760254,2|0,3:2|0:0,0:0:0:0:
63,213,82634,2,0,P|45:203|28:182,1,26.9999991760254,2|2,0:0|0:0,0:0:0:0:
117,96,82803,2,0,P|114:122|101:155,1,53.9999983520508,2|0,3:2|0:0,0:0:0:0:
18,82,83142,2,0,P|8:56|5:29,2,53.9999983520508,10|0|0,0:0|0:0|0:0,0:0:0:0:
150,215,83651,6,0,B|189:234|224:214|224:214|266:190|304:213,1,153.000002918243,2|0,3:2|3:0,0:0:0:0:
399,272,84159,1,0,3:0:0:0:
381,349,84329,1,2,0:0:0:0:
259,186,84498,6,0,P|289:189|315:205,1,53.9999983520508,8|8,0:0|0:0,0:0:0:0:
316,209,84753,1,8,0:0:0:0:
320,219,84837,1,8,0:0:0:0:
436,75,85007,1,8,0:0:0:0:
248,100,85176,6,0,P|295:63|350:53,1,114.750002188683,4|0,3:2|0:0,0:0:0:0:
360,64,85515,2,0,P|357:90|371:120,1,53.9999983520508,2|0,3:0|0:0,0:0:0:0:
496,168,85854,5,8,0:0:0:0:
376,132,86024,1,8,0:0:0:0:
470,240,86193,5,8,0:0:0:0:
328,199,86363,1,8,0:0:0:0:
444,312,86532,5,8,0:0:0:0:
273,270,86702,1,8,0:0:0:0:
418,384,86871,5,8,0:0:0:0:
221,344,87041,1,8,0:0:0:0:
328,199,87210,6,0,B|344:182|372:174|372:174|315:184|255:159,1,157.500001502037,4|4,3:2|3:2,0:0:0:0:
222,176,87719,6,0,B|290:206|352:174|352:174|422:136|479:174,1,270.000010299683,4|0,3:2|3:0,0:0:0:0:
481,190,88114,5,0,3:0:0:0:
480,205,88171,5,0,3:0:0:0:
479,220,88227,5,12,0:0:0:0:
303,285,88397,2,0,P|317:226|404:189,1,135.000005149842,2|2,3:0|3:2,0:0:0:0:
350,357,88736,2,0,B|308:380|253:370|253:370|249:345|233:325,1,135,4|0,3:2|0:0,0:0:0:0:
331,284,89075,6,0,P|321:267|291:241,1,45,8|0,0:0|0:0,0:0:0:0:
218,259,89244,5,8,0:0:0:0:
173,265,89328,1,0,0:0:0:0:
129,272,89413,1,8,0:0:0:0:
84,279,89498,1,8,0:0:0:0:
20,331,89583,5,8,3:0:0:0:
65,271,89696,5,8,0:0:0:0:
46,199,89809,5,8,0:0:0:0:
16,126,89922,6,0,B|16:53|101:25|101:25|118:97,2,180,8|0|8,0:0|3:0|0:0,0:0:0:0:
30,121,90600,6,0,B|65:106|98:120|98:120|132:135|170:117,1,135,4|0,3:2|0:0,0:0:0:0:
181,127,90939,2,0,P|173:74|202:43,1,67.5000025749208,10|2,0:0|0:0,0:0:0:0:
332,117,91278,5,2,3:2:0:0:
251,92,91447,1,2,0:0:0:0:
342,198,91617,1,8,0:0:0:0:
398,66,91786,1,0,0:0:0:0:
425,171,91956,6,0,P|408:134|432:64,1,101.250003862381,2|0,3:2|0:0,0:0:0:0:
433,69,92295,1,8,0:0:0:0:
503,171,92464,6,0,L|421:185,2,67.5000025749208,2|2|2,0:0|3:2|0:0,0:0:0:0:
404,266,92973,1,8,0:0:0:0:
342,198,93142,1,0,0:0:0:0:
406,282,93312,6,0,B|359:273|359:273|348:278|348:278|289:268,1,101.250003862381,0|0,3:0|0:0,0:0:0:0:
296,282,93651,2,0,L|211:267,1,67.5000025749208,8|2,0:0|0:0,0:0:0:0:
165,339,93990,6,0,L|231:350,2,67.5000025749208,2|2|10,3:2|0:0|0:0,0:0:0:0:
31,318,94498,1,0,0:0:0:0:
131,243,94668,6,0,P|91:185|41:187,1,101.250003862381,2|0,3:2|0:0,0:0:0:0:
54,183,95007,1,8,0:0:0:0:
203,196,95176,2,0,P|233:188|268:159,1,67.5000025749208,2|2,0:0|3:2,0:0:0:0:
360,88,95515,5,8,0:0:0:0:
365,121,95599,1,8,0:0:0:0:
370,154,95684,1,8,0:0:0:0:
376,187,95769,1,8,0:0:0:0:
381,221,95853,1,2,3:0:0:0:
393,239,96024,6,0,P|352:234|295:258,1,90,4|0,3:2|0:0,0:0:0:0:
383,358,96363,1,8,0:0:0:0:
228,302,96533,2,0,B|217:239|217:239|205:226|205:226|193:159,1,148.50000453186,4|0,3:2|0:0,0:0:0:0:
190,148,96872,1,0,3:0:0:0:
297,353,97041,2,0,P|201:384|142:303,1,215.999993408203,12|0,0:0|0:0,0:0:0:0:
91,157,97550,6,0,B|112:203|112:203|77:236,1,99.0000030212403,0|0,3:0|0:0,0:0:0:0:
20,186,97803,1,0,0:0:0:0:
15,171,97888,2,0,P|15:147|28:114,1,49.5000015106202,0|0,3:0|0:0,0:0:0:0:
125,14,98058,1,4,3:0:0:0:
193,159,98228,5,8,0:0:0:0:
222,182,98312,1,8,0:0:0:0:
259,185,98397,1,8,0:0:0:0:
291,168,98482,1,8,0:0:0:0:
309,136,98566,1,2,3:0:0:0:
326,271,98736,5,4,3:2:0:0:
382,101,98905,1,8,0:0:0:0:
388,140,98989,1,8,0:0:0:0:
394,180,99074,1,8,0:0:0:0:
401,220,99159,1,8,0:0:0:0:
414,295,99244,6,0,L|402:359,1,53.9999983520508,4|0,3:2|0:0,0:0:0:0:
189,327,99414,5,8,0:0:0:0:
257,298,99498,1,8,0:0:0:0:
326,271,99583,1,4,3:0:0:0:
170,178,99753,6,0,B|201:162|231:186|231:186|258:208|302:194,1,135.000005149842,4|8,3:2|0:0,0:0:0:0:
310,123,100007,5,8,0:0:0:0:
309,203,100092,2,0,P|324:232|361:266,1,67.5000025749208,2|8,3:0|0:0,0:0:0:0:
512,157,100261,6,0,P|485:155|458:159,1,53.9999983520508,4|0,3:2|0:0,0:0:0:0:
326,271,100431,1,0,0:0:0:0:
486,236,100600,5,2,3:2:0:0:
322,127,100770,2,0,B|351:113|351:113|386:126,1,67.5000025749208,8|0,0:0|0:0,0:0:0:0:
448,76,101109,6,0,B|368:61|368:61|329:87|329:87|253:74,1,202.500007724762,2|0,3:0|0:0,0:0:0:0:
244,75,101447,5,4,3:2:0:0:
227,152,101617,1,2,0:0:0:0:
211,230,101786,1,8,0:0:0:0:
211,110,101956,2,0,L|236:251,1,135,2|0,3:2|0:0,0:0:0:0:
237,256,102295,1,2,3:2:0:0:
110,199,102464,1,8,0:0:0:0:
221,333,102634,6,0,P|269:328|312:289,1,90,2|0,3:2|3:0,0:0:0:0:
364,356,102973,2,0,P|383:311|371:255,1,90,2|8,3:2|0:0,0:0:0:0:
512,277,103312,2,0,P|469:218|386:191,1,161.999995056153,2|8,3:2|0:0,0:0:0:0:
376,190,103651,1,2,3:2:0:0:
451,96,103820,1,8,0:0:0:0:
263,217,103990,6,0,B|288:68|288:68|330:134,1,215.999993408203,2|2,0:0|0:0,0:0:0:0:
376,190,104498,1,8,0:0:0:0:
399,34,104668,2,0,P|441:18|486:21,1,90,2|0,0:0|3:0,0:0:0:0:
225,122,105007,2,0,P|269:119|311:135,1,90,2|8,0:0|0:0,0:0:0:0:
148,54,105346,6,0,B|183:95|171:161|171:161|145:137|111:138,1,180,2|2,0:0|0:0,0:0:0:0:
0,155,105854,1,8,0:0:0:0:
109,218,106024,1,2,0:0:0:0:
8,28,106193,6,0,P|50:5|97:19,1,90,2|8,3:0|0:0,0:0:0:0:
135,95,106447,1,8,0:0:0:0:
171,22,106532,6,0,P|219:52|215:109,1,116.999994644165,8|8,3:2|0:0,0:0:0:0:
181,179,106786,1,8,0:0:0:0:
261,173,106871,5,4,3:2:0:0:
285,249,107041,1,2,0:0:0:0:
309,325,107210,1,8,0:0:0:0:
271,217,107380,2,0,B|306:206|339:219|339:219|371:234|405:222,1,135,2|0,3:2|0:0,0:0:0:0:
417,217,107719,2,0,P|423:174|371:126,1,90,2|8,3:2|0:0,0:0:0:0:
435,298,108058,6,0,P|471:282|500:208,1,90,2|0,0:0|3:0,0:0:0:0:
481,84,108397,1,2,3:2:0:0:
493,159,108566,1,8,0:0:0:0:
428,26,108736,5,2,3:2:0:0:
385,142,108905,2,0,B|323:152|323:152|316:166|316:166|248:178,1,135.000005149842,4|8,3:0|0:0,0:0:0:0:
126,176,109159,5,8,0:0:0:0:
187,223,109244,1,8,0:0:0:0:
191,235,109329,1,8,0:0:0:0:
194,247,109414,6,0,L|183:311,1,53.9999983520508,8|0,0:0|0:0,0:0:0:0:
20,372,109583,2,0,B|27:329|27:329|18:304|18:304|28:250,1,107.999996704102,4|8,3:2|0:0,0:0:0:0:
100,290,109837,5,8,0:0:0:0:
21,252,109922,2,0,P|15:227|14:204,1,33.7500012874604,8|0,0:0|0:0,0:0:0:0:
173,141,110092,6,0,B|126:176|126:176|68:152,1,116.999994644165,2|0,3:2|0:0,0:0:0:0:
21,23,110431,2,0,B|68:58|68:58|126:34,1,116.999994644165,2|0,3:2|0:0,0:0:0:0:
335,43,110770,6,0,B|310:0|252:-6|252:-6|220:32|242:95,1,202.500007724762,4|0,3:2|0:0,0:0:0:0:
245,104,111109,1,0,3:0:0:0:
423,160,111278,2,0,P|391:131|328:127,1,107.999996704102,12|8,0:0|0:0,0:0:0:0:
326,258,111617,6,0,L|336:197,1,53.9999983520508,6|0,3:0|0:0,0:0:0:0:
512,243,111786,1,4,3:0:0:0:
507,269,111870,1,4,3:0:0:0:
502,296,111955,1,6,3:0:0:0:
418,251,112125,1,0,3:0:0:0:
322,343,112295,5,4,3:2:0:0:
243,329,112464,1,2,0:0:0:0:
164,315,112634,1,8,0:0:0:0:
283,338,112803,2,0,B|219:349|219:349|211:356|211:356|141:369,1,135,2|0,3:2|0:0,0:0:0:0:
142,371,113142,1,2,3:2:0:0:
261,253,113312,1,8,0:0:0:0:
82,303,113481,6,0,P|97:261|146:231,1,90,2|0,0:0|3:0,0:0:0:0:
24,144,113820,2,0,P|67:136|118:164,1,90,2|8,3:2|0:0,0:0:0:0:
184,14,114159,6,0,B|212:49|199:102|199:102|188:157|218:192,1,188.999994232178,2|8,0:0|0:0,0:0:0:0:
228,204,114498,1,2,0:0:0:0:
432,38,114668,1,8,0:0:0:0:
447,233,114837,2,0,P|441:147|269:144,1,288,2|2,0:0|0:0,0:0:0:0:
372,329,115346,6,0,B|419:320|419:320|430:324|430:324|493:312,1,107.999996704102,8|2,0:0|0:0,0:0:0:0:
356,193,115685,1,0,3:0:0:0:
280,371,115854,2,0,B|237:338|237:338|259:289,1,107.999996704102,2|8,0:0|0:0,0:0:0:0:
349,211,116193,6,0,B|277:223|277:223|245:262|245:262|171:275,1,188.999994232178,4|0,3:2|0:0,0:0:0:0:
167,270,116532,1,0,3:0:0:0:
38,150,116702,1,8,0:0:0:0:
73,324,116871,2,0,L|92:214,1,107.999996704102,4|0,3:2|0:0,0:0:0:0:
192,18,117210,5,4,3:0:0:0:
220,62,117294,1,2,3:0:0:0:
216,115,117379,1,2,3:0:0:0:
58,70,117549,5,8,0:0:0:0:
96,75,117633,1,8,0:0:0:0:
139,83,117718,5,4,3:2:0:0:
149,160,117888,1,2,0:0:0:0:
160,238,118058,1,8,0:0:0:0:
293,131,118227,5,0,0:0:0:0:
255,122,118311,1,8,0:0:0:0:
216,115,118396,1,0,3:0:0:0:
243,228,118566,1,2,3:2:0:0:
371,155,118736,1,8,0:0:0:0:
284,35,118905,6,0,P|321:53|388:46,1,90,2|0,3:2|3:0,0:0:0:0:
394,236,119244,2,0,P|428:212|455:151,1,90,2|8,3:2|0:0,0:0:0:0:
293,131,119583,1,2,3:2:0:0:
379,309,119753,2,0,L|352:160,1,135.000005149842,4|8,3:0|0:0,0:0:0:0:
476,92,120007,5,8,0:0:0:0:
403,104,120092,1,8,0:0:0:0:
389,101,120176,1,8,0:0:0:0:
375,99,120261,6,0,P|355:81|342:55,1,53.9999983520508,2|0,3:0|0:0,0:0:0:0:
141,29,120431,2,0,P|202:57|219:109,1,107.999996704102,4|8,3:2|0:0,0:0:0:0:
175,160,120685,5,8,0:0:0:0:
226,102,120770,2,0,L|272:93,1,33.7500012874604,8|0,0:0|0:0,0:0:0:0:
48,184,120939,6,0,L|176:162,1,116.999994644165,2|0,3:2|0:0,0:0:0:0:
168,330,121278,2,0,L|284:350,1,116.999994644165,2|0,3:2|0:0,0:0:0:0:
267,75,121617,6,0,B|248:120|271:162|271:162|304:219|281:270|281:270|245:258|241:208,1,270.000010299683,4|0,3:2|3:0,0:0:0:0:
414,157,122125,2,0,P|382:126|340:114,1,90,2|4,3:0|3:0,0:0:0:0:
367,379,122464,5,0,3:2:0:0:
426,234,122634,1,8,0:0:0:0:
284,363,122803,5,8,3:2:0:0:
327,181,122973,1,8,0:0:0:0:
201,347,123142,5,8,3:2:0:0:
229,139,123312,1,8,0:0:0:0:
121,331,123481,5,8,3:2:0:0:
122,60,123651,2,0,L|111:127,1,67.5000025749208,8|0,0:0|3:0,0:0:0:0:
51,25,123990,6,0,B|108:72|178:40|178:40|250:12|306:57,1,270.000010299683,12|0,0:0|0:0,0:0:0:0:
365,127,124414,1,0,0:0:0:0:
361,143,124498,5,4,3:2:0:0:
378,48,124668,2,0,L|386:-2,1,45,8|0,3:0|3:0,0:0:0:0:
348,221,124837,1,2,0:0:0:0:
340,233,125177,5,0,3:0:0:0:
360,310,125261,2,0,P|374:324|396:335,1,33.7500012874604,0|8,0:0|3:0,0:0:0:0:
491,169,125431,5,8,0:0:0:0:
433,213,125515,2,0,P|427:236|428:266,1,53.9999983520508,8|8,0:0|0:0,0:0:0:0:
229,312,125685,2,0,P|252:305|277:289,1,53.9999983520508,8|8,3:2|0:0,0:0:0:0:
282,118,125854,5,12,0:2:0:0:
72,214,126024,1,2,0:2:0:0:
93,202,126109,1,0,0:0:0:0:
134,219,126193,1,8,0:0:0:0:
196,182,126278,1,0,0:0:0:0:
211,188,126363,6,0,P|212:156|145:86,1,107.999996704102,2|0,0:0|0:0,0:0:0:0:
205,287,126702,5,4,0:0:0:0:
221,295,126787,1,0,0:0:0:0:
259,283,126871,1,8,0:0:0:0:
311,305,126956,1,0,0:0:0:0:
326,299,127041,6,0,B|349:290|365:276|365:276|349:367,1,135,10|0,0:0|0:0,0:0:0:0:
299,212,127380,5,4,0:0:0:0:
310,198,127465,1,0,0:0:0:0:
298,160,127549,1,8,0:0:0:0:
326,108,127634,1,0,0:0:0:0:
320,92,127719,6,0,P|318:59|328:36,1,45,6|0,0:0|0:0,0:0:0:0:
450,103,127888,1,8,0:3:0:0:
433,100,127973,2,0,P|403:85|388:65,1,45,0|4,0:0|0:0,0:0:0:0:
462,305,128227,6,0,P|491:290|506:270,1,45,4|0,0:3|0:0,0:0:0:0:
455,217,128397,2,0,P|434:225|418:241,1,45,2|8,0:0|0:0,0:0:0:0:
128,252,128566,5,8,0:3:0:0:
194,304,128679,1,0,0:0:0:0:
201,293,128736,5,2,0:0:0:0:
110,331,128849,1,0,0:0:0:0:
275,277,129018,5,2,0:0:0:0:
144,175,129188,5,2,0:0:0:0:
163,63,129357,5,0,0:0:0:0:
177,57,129414,1,2,0:0:0:0:
313,98,129583,5,8,0:0:0:0:
327,104,129668,1,0,0:0:0:0:
369,89,129753,1,2,0:0:0:0:
408,123,129837,1,0,0:0:0:0:
477,107,129922,5,8,0:3:0:0:
495,129,130035,2,0,P|494:156|487:184,1,37.5,0|2,0:0|0:0,0:0:0:0:
377,312,130205,5,0,0:0:0:0:
403,302,130261,2,0,P|415:278|417:231,1,67.5000025749208,10|0,0:0|0:0,0:0:0:0:
268,189,130431,5,6,0:0:0:0:
295,184,130515,2,0,P|318:199|337:247,1,78.7500007510185,2|0,0:0|3:0,0:0:0:0:
172,301,130713,5,8,0:0:0:0:
192,318,130770,2,0,P|224:316|258:274,1,90,12|2,0:0|0:0,0:0:0:0:
165,164,130939,6,0,P|126:200|164:243,1,90
238,107,131109,2,0,P|245:64|209:41,1,90
49,169,131278,5,4,3:2:0:0:
49,169,131363,1,0,0:0:0:0:
49,169,131447,2,0,B|80:182|80:182|87:149,1,67.5000025749208,0|0,0:0|0:0,0:0:0:0:
34,44,131617,5,10,0:0:0:0:
34,44,131702,1,0,0:0:0:0:
34,44,131786,2,0,B|7:64|7:64|32:86,1,67.5000025749208,2|0,0:0|0:0,0:0:0:0:
150,94,131956,5,2,3:2:0:0:
150,94,132041,2,0,B|151:74|144:56|144:56|126:58|107:68,1,78.7500007510185,0|2,0:0|0:0,0:0:0:0:
58,205,132210,5,0,0:0:0:0:
58,205,132295,2,0,B|76:217|95:218|95:218|108:199|106:177,1,78.7500007510185,10|0,0:0|0:0,0:0:0:0:
16,37,132464,5,2,0:0:0:0:
16,37,132549,2,0,B|-3:47|-16:65|-16:65|-3:85|14:94,1,78.7500007510185,0|2,0:0|3:2,0:0:0:0:
181,83,132718,5,0,0:0:0:0:
181,83,132803,2,0,B|181:59|173:44|173:44|151:43|133:51,1,78.7500007510185,2|0,0:0|0:0,0:0:0:0:
179,190,132973,5,10,0:0:0:0:
200,198,133058,1,0,0:0:0:0:
219,205,133142,6,0,B|265:206|298:182|298:182|326:206|326:206|364:175|412:192,1,202.500007724762,2|0,0:0|0:0,0:0:0:0:
403,203,133481,6,0,L|416:125,1,67.5000025749208,8|8,0:0|0:0,0:0:0:0:
284,65,133651,2,0,L|345:115,1,67.5000025749208,8|8,0:0|0:0,0:0:0:0:
464,31,133820,2,0,L|389:58,1,67.5000025749208,2|0,3:0|0:0,0:0:0:0:
436,277,133990,6,0,B|401:294|365:274|365:274|330:253|297:262,1,144,4|8,3:2|0:0,0:0:0:0:
250,326,134244,5,8,0:0:0:0:
288,252,134329,2,0,P|290:226|285:194,2,38.9999982147218,8|0|0,0:0|0:0|0:0,0:0:0:0:
142,288,134498,6,0,B|91:260|91:260|138:212,1,125.999996154785,2|0,3:2|0:0,0:0:0:0:
275,63,134837,2,0,B|327:92|327:92|280:140,1,125.999996154785,2|0,3:2|0:0,0:0:0:0:
98,125,135176,6,0,B|155:149|209:111|209:111|234:126|246:147|246:147|305:122|364:152,1,288,4|0,3:2|3:0,0:0:0:0:
456,361,135685,1,10,0:0:0:0:
303,226,135854,6,0,B|323:237|343:237|343:237|354:256|354:256|390:264|390:264|398:288|416:306,1,135.000005149842,0|10,3:0|0:0,0:0:0:0:
175,350,136193,5,4,3:0:0:0:
295,309,136363,1,2,3:0:0:0:
199,225,136532,1,0,3:0:0:0:
34,258,136702,5,4,3:2:0:0:
92,75,136871,1,0,3:0:0:0:
92,75,137041,1,0,3:0:0:0:
87,330,137210,5,12,0:0:0:0:
29,160,137379,1,0,3:0:0:0:
29,160,137549,1,0,3:0:0:0:
195,142,137719,5,12,0:0:0:0:
34,258,137888,1,0,3:0:0:0:
34,258,138058,1,0,3:0:0:0:
138,76,138227,6,0,B|195:50|247:76|247:76|304:102|364:65,1,233.999989288331,12|0,0:0|3:0,0:0:0:0:
477,15,138736,6,0,P|456:38|440:88,1,62.9999980773926,8|0,0:0|0:0,0:0:0:0:
451,148,138905,1,0,3:0:0:0:
263,169,139075,6,0,P|333:205|341:319,1,202.500007724762,6|0,3:0|0:0,0:0:0:0:
338,330,139414,6,0,L|249:345,1,90,4|0,3:2|0:0,0:0:0:0:
159,357,139753,1,8,0:0:0:0:
273,258,139922,1,2,0:0:0:0:
273,258,140007,1,8,0:0:0:0:
273,258,140092,2,0,L|184:273,1,90,0|2,3:0|0:0,0:0:0:0:
95,295,140431,1,8,0:0:0:0:
106,140,140600,6,0,P|131:175|113:232,1,90,2|0,0:0|3:0,0:0:0:0:
27,155,140939,2,0,P|19:198|45:234,2,90,2|8|2,0:0|0:0|0:0,0:0:0:0:
51,76,141447,1,0,3:0:0:0:
202,126,141617,1,2,0:0:0:0:
146,40,141786,1,8,0:0:0:0:
215,140,141956,6,0,B|258:154|258:154|316:136,1,90,2|0,0:0|3:0,0:0:0:0:
395,124,142295,1,2,0:0:0:0:
339,210,142464,1,8,0:0:0:0:
408,110,142634,1,10,0:0:0:0:
408,110,142719,1,8,0:0:0:0:
408,110,142803,2,0,B|451:96|451:96|509:114,1,90,0|2,3:0|0:0,0:0:0:0:
438,273,143142,2,0,L|453:184,1,90,8|2,0:0|0:0,0:0:0:0:
292,246,143481,6,0,L|308:158,1,90,0|2,3:0|0:0,0:0:0:0:
358,308,143820,1,8,0:0:0:0:
268,337,143990,1,2,0:0:0:0:
172,187,144159,5,0,3:0:0:0:
212,266,144329,1,8,0:0:0:0:
188,270,144414,1,8,0:0:0:0:
165,274,144498,1,8,0:0:0:0:
109,176,144668,1,8,0:0:0:0:
133,180,144753,1,8,0:0:0:0:
156,184,144837,6,0,B|146:131|146:131|167:81|167:81|157:23,1,161.999995056153,4|0,3:2|0:0,0:0:0:0:
155,14,145176,1,8,0:0:0:0:
242,150,145346,1,2,0:0:0:0:
242,150,145431,1,8,0:0:0:0:
242,150,145515,2,0,P|293:150|327:127,1,90,0|2,3:0|0:0,0:0:0:0:
266,76,145854,1,8,0:0:0:0:
377,188,146024,6,0,P|402:143|399:102,1,90,2|0,0:0|3:0,0:0:0:0:
477,90,146363,2,0,P|451:45|414:27,2,90,2|8|2,0:0|0:0|0:0,0:0:0:0:
477,183,146871,1,0,3:0:0:0:
477,183,146956,1,8,0:0:0:0:
477,183,147041,1,2,0:0:0:0:
324,129,147210,1,8,0:0:0:0:
415,254,147380,6,0,B|377:247|377:247|367:251|367:251|324:244,1,90,2|0,0:0|3:0,0:0:0:0:
208,178,147719,1,2,0:0:0:0:
262,295,147888,1,8,0:0:0:0:
205,199,148058,1,2,0:0:0:0:
205,199,148142,1,8,0:0:0:0:
205,199,148227,2,0,L|161:206,1,45,0|0,3:0|0:0,0:0:0:0:
63,325,148397,2,0,B|110:359|110:359|163:328,1,116.999994644165,2|8,3:2|0:0,0:0:0:0:
287,176,148736,6,0,B|333:154|373:184|373:184|421:220|480:190,1,202.500007724762,6|0,3:2|0:0,0:0:0:0:
489,182,149075,1,0,3:0:0:0:
497,373,149244,2,0,P|463:318|391:288,1,135.000005149842,12|0,0:0|0:0,0:0:0:0:
257,267,149583,5,2,3:0:0:0:
377,117,149753,1,8,0:0:0:0:
382,141,149838,1,8,0:0:0:0:
387,166,149922,1,8,0:0:0:0:
205,197,150092,1,8,0:0:0:0:
210,172,150176,1,8,0:0:0:0:
215,148,150261,6,0,B|50:176|50:176|79:163|108:117,1,236.250002253056,4|0,3:2|0:0,0:0:0:0:
103,118,150600,1,8,0:0:0:0:
203,329,150770,6,0,P|228:242|368:226,1,236.250002253056,4|0,3:2|0:0,0:0:0:0:
373,229,151109,2,0,P|396:190|463:178,1,90,2|8,0:0|0:0,0:0:0:0:
459,49,151447,6,0,B|480:91|480:91|425:110|377:69,1,157.500001502037,2|0,3:2|0:0,0:0:0:0:
145,58,151786,2,0,B|124:16|124:16|179:-3|227:38,1,157.500001502037,2|12,3:2|0:0,0:0:0:0:
284,147,152125,1,0,0:0:0:0:
304,44,152295,6,0,L|282:166,1,90,4|8,3:0|0:0,0:0:0:0:
270,222,152549,1,8,0:0:0:0:
267,237,152634,1,8,0:0:0:0:
402,331,152803,6,0,B|314:314|314:314|263:350|263:350|168:334,1,236.250002253056,4|0,3:2|0:0,0:0:0:0:
167,345,153142,2,0,B|199:316|199:316|178:276,1,90,2|8,3:2|0:0,0:0:0:0:
29,118,153481,6,0,B|116:101|116:101|167:137|167:137|262:121,1,236.250002253056,4|0,3:2|0:0,0:0:0:0:
264,132,153820,1,0,3:0:0:0:
100,187,153990,1,8,0:0:0:0:
331,188,154159,6,0,P|343:98|238:54,1,157.500001502037,4|0,3:2|0:0,0:0:0:0:
129,91,154498,2,0,P|117:181|222:225,1,157.500001502037,2|8,3:2|0:0,0:0:0:0:
212,63,154837,1,2,0:0:0:0:
255,230,155007,6,0,P|291:268|361:268,1,107.999996704102,0|8,3:0|0:0,0:0:0:0:
416,244,155261,1,8,0:0:0:0:
418,228,155346,1,8,0:0:0:0:
421,212,155431,1,8,0:0:0:0:
424,196,155515,1,2,3:0:0:0:
439,179,155685,6,0,P|395:176|349:194,1,90,4|0,3:2|0:0,0:0:0:0:
353,192,156024,1,8,0:0:0:0:
294,47,156193,2,0,B|282:108|282:108|287:125|287:125|274:198,1,148.50000453186,2|0,3:2|0:0,0:0:0:0:
273,205,156532,1,0,3:0:0:0:
126,127,156702,2,0,B|173:131|202:169|202:169|138:132|70:153,1,215.999993408203,4|0,3:2|0:0,0:0:0:0:
84,154,157210,6,0,P|98:188|97:241,2,72,0|8|0,3:0|0:0|3:0,0:0:0:0:
29,79,157719,1,8,0:0:0:0:
198,100,157888,1,0,3:0:0:0:
187,238,158058,1,8,0:0:0:0:
182,212,158142,1,8,0:0:0:0:
177,185,158227,1,2,3:0:0:0:
192,176,158397,6,0,L|295:201,1,90,4|2,3:2|0:0,0:0:0:0:
279,197,158736,1,8,0:0:0:0:
411,155,158905,2,0,P|371:202|370:294,1,148.50000453186,0|0,3:0|0:0,0:0:0:0:
378,298,159244,1,2,0:0:0:0:
481,376,159414,2,0,B|434:394|392:354|392:354|341:309|282:329,1,215.999993408203,4|0,3:2|0:0,0:0:0:0:
142,335,159922,6,0,P|198:349|232:387,2,107.999996704102,0|8|0,3:0|0:0|3:0,0:0:0:0:
0,340,160431,1,4,3:0:0:0:
80,144,160600,5,8,0:0:0:0:
52,172,160684,1,8,0:0:0:0:
44,211,160769,1,8,0:0:0:0:
60,248,160854,1,8,0:0:0:0:
93,271,160938,1,2,3:0:0:0:
107,259,161109,6,0,L|211:240,1,90,4|0,3:2|3:0,0:0:0:0:
311,303,161448,1,8,0:0:0:0:
186,161,161617,2,0,B|229:156|257:185|257:185|299:168|339:194,1,148.50000453186,2|0,3:2|0:0,0:0:0:0:
340,197,161956,1,0,3:0:0:0:
427,99,162125,2,0,P|360:193|424:273,1,215.999993408203,4|0,3:2|0:0,0:0:0:0:
512,311,162634,6,0,P|476:288|416:286,1,99.0000030212403,0|8,3:0|0:0,0:0:0:0:
236,364,162973,1,0,3:0:0:0:
343,217,163142,1,4,3:0:0:0:
132,260,163312,1,8,0:0:0:0:
168,266,163396,1,8,0:0:0:0:
205,273,163481,1,8,0:0:0:0:
241,280,163566,1,8,0:0:0:0:
278,286,163650,1,2,3:0:0:0:
166,187,163820,5,4,3:2:0:0:
293,143,163990,1,8,0:0:0:0:
311,108,164074,1,8,0:0:0:0:
310,68,164159,1,8,0:0:0:0:
288,34,164244,1,8,0:0:0:0:
217,12,164329,6,0,L|138:25,1,53.9999983520508,0|0,3:2|0:0,0:0:0:0:
79,122,164498,5,4,3:0:0:0:
152,109,164582,1,4,3:0:0:0:
224,95,164667,1,4,3:0:0:0:
277,275,164837,6,0,B|286:219|286:219|281:200|281:200|292:140,1,135.000005149842,4|8,3:2|0:0,0:0:0:0:
364,110,165092,5,8,0:0:0:0:
282,151,165176,2,0,P|251:154|206:143,1,67.5000025749208,8|8,0:0|0:0,0:0:0:0:
344,32,165346,6,0,P|374:32|422:50,1,53.9999983520508,4|0,3:2|0:0,0:0:0:0:
468,127,165515,1,0,0:0:0:0:
355,240,165685,5,2,3:2:0:0:
355,240,165854,2,0,P|385:228|425:225,1,67.5000025749208,8|0,0:0|0:0,0:0:0:0:
410,303,166193,2,0,P|441:307|478:325,1,67.5000025749208,2|0,3:0|0:0,0:0:0:0:
127,251,166532,5,4,3:2:0:0:
172,139,171956,6,0,L|270:121,1,90,4|0,3:2|0:0,0:0:0:0:
238,209,172295,2,0,L|336:191,1,90,2|0,3:2|0:0,0:0:0:0:
439,284,172634,6,0,L|340:266,1,90,2|0,3:2|0:0,0:0:0:0:
373,354,172973,2,0,L|274:336,1,90,2|0,3:2|0:0,0:0:0:0:
238,209,173312,6,0,P|210:253|215:307,1,99.0000030212403,2|0,3:2|0:0,0:0:0:0:
93,169,173651,2,0,P|145:171|189:139,1,99.0000030212403,2|0,3:2|0:0,0:0:0:0:
131,315,173990,2,0,P|106:268|57:246,1,99.0000030212403,2|2,3:2|3:2,0:0:0:0:
49,326,174329,1,2,3:2:0:0:
25,114,174498,6,0,B|72:92|110:120|110:120|152:151|198:131,1,175.499991966248,4|0,3:2|0:0,0:0:0:0:
246,61,174837,5,8,0:0:0:0:
202,122,174922,1,8,0:0:0:0:
206,139,175007,2,0,L|213:183,1,33.7500012874604,8|0,0:0|0:0,0:0:0:0:
414,58,175176,6,0,P|364:65|305:117,1,116.999994644165,2|0,3:2|0:0,0:0:0:0:
470,185,175515,2,0,P|425:221|368:231,1,116.999994644165,2|0,3:2|0:0,0:0:0:0:
291,14,175854,6,0,B|278:84|278:84|304:136|304:136|292:214,1,202.500007724762,4|8,3:2|0:0,0:0:0:0:
298,224,176193,6,0,P|312:246|319:272,1,53.9999983520508,8|0,0:0|0:0,0:0:0:0:
264,339,176363,2,0,P|237:339|210:333,1,53.9999983520508,8|0,3:2|0:0,0:0:0:0:
181,252,176532,2,0,P|193:228|212:208,1,53.9999983520508,8|8,0:0|0:0,0:0:0:0:
163,35,176702,5,0,3:0:0:0:
142,57,176786,1,0,0:0:0:0:
113,69,176871,1,8,0:0:0:0:
82,71,176956,1,8,0:0:0:0:
61,61,177041,5,8,0:0:0:0:
111,116,177126,1,8,0:0:0:0:
127,188,177210,1,8,0:0:0:0:
103,258,177295,1,8,0:0:0:0:
50,315,177380,5,4,3:2:0:0:
134,328,177549,1,2,0:0:0:0:
219,343,177719,1,8,0:0:0:0:
91,323,177888,2,0,B|151:312|151:312|165:317|165:317|235:304,1,135,2|0,3:2|0:0,0:0:0:0:
235,303,178227,1,2,3:2:0:0:
97,184,178397,1,8,0:0:0:0:
307,179,178566,6,0,P|263:188|233:221,1,90,2|0,0:0|3:0,0:0:0:0:
379,143,178905,2,0,P|348:110|305:100,1,90,2|8,3:2|0:0,0:0:0:0:
484,260,179244,6,0,B|448:229|397:255|397:255|340:283|294:251,1,188.999994232178,2|8,0:0|0:0,0:0:0:0:
296,251,179583,1,2,0:0:0:0:
438,321,179753,1,8,0:0:0:0:
512,102,179922,2,0,P|421:55|367:217,1,288,2|2,0:0|0:0,0:0:0:0:
189,39,180431,6,0,B|246:27|246:27|280:74,1,107.999996704102,8|2,0:0|0:0,0:0:0:0:
176,182,180770,1,0,3:0:0:0:
111,10,180939,2,0,B|103:53|103:53|95:64|95:64|85:122,1,107.999996704102,2|8,0:0|0:0,0:0:0:0:
89,218,181278,6,0,B|157:205|157:205|198:230|198:230|282:215,1,188.999994232178,4|0,3:2|0:0,0:0:0:0:
284,213,181617,1,0,3:0:0:0:
96,127,181786,1,8,0:0:0:0:
145,291,181956,2,0,P|187:322|241:319,1,107.999996704102,4|0,3:2|0:0,0:0:0:0:
299,148,182295,5,8,0:0:0:0:
283,179,182380,1,8,0:0:0:0:
284,213,182464,1,8,0:0:0:0:
427,176,182634,5,8,0:0:0:0:
392,177,182719,1,8,0:0:0:0:
363,195,182803,5,4,3:2:0:0:
349,269,182973,1,0,0:0:0:0:
336,344,183142,1,8,0:0:0:0:
377,245,183312,2,0,B|347:235|314:248|314:248|278:263|239:244,1,135,2|0,3:2|0:0,0:0:0:0:
234,236,183651,1,2,3:2:0:0:
331,77,183820,1,8,0:0:0:0:
150,218,183990,6,0,P|124:182|123:138,1,90,2|0,3:2|0:0,0:0:0:0:
196,155,184329,2,0,P|215:114|253:91,1,90,2|8,3:2|0:0,0:0:0:0:
411,71,184668,1,2,3:2:0:0:
196,33,184837,2,0,L|338:58,1,135.000005149842,4|8,3:0|0:0,0:0:0:0:
386,202,185092,5,8,0:0:0:0:
442,144,185176,1,8,0:0:0:0:
456,142,185261,1,8,0:0:0:0:
470,140,185346,6,0,P|487:163|493:208,1,53.9999983520508,2|0,3:0|0:0,0:0:0:0:
309,281,185515,2,0,P|280:235|279:182,1,107.999996704102,4|8,3:2|0:0,0:0:0:0:
354,127,185770,5,8,0:0:0:0:
291,176,185854,2,0,L|232:186,1,53.9999983520508,8|0,0:0|0:0,0:0:0:0:
53,223,186024,6,0,L|74:107,1,116.999994644165,2|0,3:2|0:0,0:0:0:0:
170,354,186363,2,0,L|150:238,1,116.999994644165,2|0,3:2|0:0,0:0:0:0:
12,57,186702,6,0,B|52:79|94:63|94:63|124:82|124:82|167:57|216:77,1,202.500007724762,4|0,3:2|0:0,0:0:0:0:
216,81,187041,1,2,3:2:0:0:
285,269,187210,1,10,0:0:0:0:
325,87,187380,2,0,P|289:121|272:192,1,90,4|0,3:2|0:0,0:0:0:0:
379,304,187719,5,4,3:0:0:0:
380,259,187803,1,4,3:0:0:0:
366,216,187888,1,6,3:0:0:0:
310,348,188058,2,0,L|265:356,1,45,2|0,3:0|0:0,0:0:0:0:
51,233,188227,6,0,B|103:224|129:262|129:262|157:306|207:296,1,175.499991966248,4|0,3:2|0:0,0:0:0:0:
218,292,188566,2,0,P|219:251|263:217,1,90,10|0,0:0|0:0,0:0:0:0:
431,167,188905,5,10,0:0:0:0:
288,142,189075,1,0,3:0:0:0:
462,245,189244,5,10,0:0:0:0:
318,270,189414,1,0,3:0:0:0:
379,31,189583,6,0,B|397:72|397:72|360:107,1,90,10|0,0:0|0:0,0:0:0:0:
243,40,189922,1,10,0:0:0:0:
355,195,190092,6,0,L|282:182,1,58.4999973220826,0|0,3:0|0:0,0:0:0:0:
70,168,190261,2,0,B|108:161|108:161|117:163|117:163|165:155,1,90,10|0,0:0|3:0,0:0:0:0:
234,144,190515,1,0,3:0:0:0:
212,217,190600,5,10,0:0:0:0:
74,87,190770,1,0,3:0:0:0:
69,305,190939,6,0,B|148:291|148:291|171:304|171:304|253:290,1,175.499991966248,10|0,0:2|0:0,0:0:0:0:
255,286,191278,2,0,P|219:259|211:216,1,90,10|0,0:0|0:0,0:0:0:0:
211,24,191617,5,10,0:0:0:0:
146,176,191786,1,0,3:0:0:0:
297,47,191956,5,10,0:0:0:0:
316,211,192125,2,0,B|309:139|370:97|370:97|416:167,1,202.500007724762,4|0,3:2|0:0,0:0:0:0:
418,170,192464,5,8,3:0:0:0:
344,283,192634,5,8,0:0:0:0:
213,250,192803,5,2,3:0:0:0:
156,331,192973,5,2,3:0:0:0:
68,168,193142,5,8,0:0:0:0:
94,174,193227,1,8,0:0:0:0:
113,192,193312,2,0,P|118:214|118:243,1,45,8|0,0:0|0:0,0:0:0:0:
286,204,193481,5,8,0:0:0:0:
297,248,193566,1,8,0:0:0:0:
287,293,193651,6,0,B|242:285|208:317|208:317|170:353|125:336,1,175.499991966248,4|0,3:2|0:0,0:0:0:0:
110,336,193990,2,0,P|122:297|94:249,1,90,10|0,0:0|0:0,0:0:0:0:
14,100,194329,5,10,0:0:0:0:
195,159,194498,1,0,3:0:0:0:
28,194,194668,5,10,0:0:0:0:
169,66,194837,1,0,3:0:0:0:
260,249,195007,6,0,B|292:217|292:217|274:176,1,90,10|0,0:0|0:0,0:0:0:0:
101,130,195346,1,10,0:0:0:0:
272,39,195515,5,0,3:0:0:0:
267,57,195600,1,8,3:0:0:0:
262,75,195685,6,0,L|332:62,1,58.4999973220826,4|0,3:0|0:0,0:0:0:0:
492,165,195854,5,8,0:0:0:0:
497,147,195939,1,8,0:0:0:0:
502,129,196024,5,8,0:0:0:0:
432,116,196108,1,8,0:0:0:0:
360,132,196193,2,0,P|329:146|303:177,1,58.4999973220826,2|0,3:0|0:0,0:0:0:0:
431,314,196363,6,0,B|368:303|368:303|361:305|361:305|284:292,1,125.999996154785,4|8,3:2|0:0,0:0:0:0:
135,269,196617,5,8,0:0:0:0:
177,331,196701,1,0,0:0:0:0:
191,333,196786,1,8,0:0:0:0:
205,335,196871,6,0,B|232:292|209:250|209:250|228:229|228:229|215:192|235:155,1,188.999994232178,2|0,3:2|0:0,0:0:0:0:
243,155,197210,1,2,3:2:0:0:
380,225,197380,1,0,0:0:0:0:
136,59,197549,6,0,B|80:88|80:88|124:133,1,125.999996154785,4|0,3:2|0:0,0:0:0:0:
357,145,197888,2,0,B|413:116|413:116|368:71,1,125.999996154785,2|0,3:2|0:0,0:0:0:0:
214,336,198227,5,2,3:2:0:0:
70,209,198566,5,8,0:0:0:0:
111,204,198650,1,8,0:0:0:0:
148,226,198735,1,8,3:0:0:0:
286,368,198905,5,2,3:0:0:0:
302,364,198990,1,0,0:0:0:0:
318,360,199075,6,0,B|329:301|329:301|325:284|325:284|335:225,1,135,4|0,3:2|0:0,0:0:0:0:
338,214,199414,1,8,0:0:0:0:
175,92,199583,5,0,0:0:0:0:
166,112,199668,1,0,0:0:0:0:
159,133,199753,2,0,P|157:158|167:192,1,53.9999983520508,0|0,3:0|0:0,0:0:0:0:
37,149,200007,5,0,3:0:0:0:
59,221,200092,2,0,P|79:235|114:243,1,53.9999983520508,8|0,0:0|0:0,0:0:0:0:
184,268,200261,2,0,P|209:256|236:227,1,67.5000025749208,0|0,3:0|0:0,0:0:0:0:
253,75,200431,6,0,L|261:124,1,33.7500012874604,0|0,3:0|0:0,0:0:0:0:
310,207,200600,2,0,L|301:157,1,33.7500012874604,0|0,0:0|0:0,0:0:0:0:
329,41,200770,6,0,L|339:95,1,45,8|0,0:0|0:0,0:0:0:0:
395,215,200939,2,0,L|384:160,1,45,8|8,0:0|0:0,0:0:0:0:
505,74,201109,6,0,B|490:50|490:50|439:41|439:41|418:59,1,107.999996704102,0|0,3:0|3:0,0:0:0:0:
485,223,201448,5,8,0:0:0:0:
477,248,201532,1,8,0:0:0:0:
463,271,201617,1,2,3:0:0:0:
444,290,201702,1,0,0:0:0:0:
421,304,201786,6,0,B|388:284|344:308|344:308|298:329|259:293,1,161.999995056153,4|0,3:2|0:0,0:0:0:0:
255,287,202125,1,8,0:0:0:0:
305,44,202295,5,0,0:0:0:0:
314,64,202380,1,0,0:0:0:0:
321,85,202465,2,0,P|323:110|313:144,1,53.9999983520508,0|0,3:0|0:0,0:0:0:0:
443,101,202719,5,0,3:0:0:0:
421,173,202804,2,0,P|400:187|365:195,1,53.9999983520508,8|0,0:0|0:0,0:0:0:0:
296,220,202973,2,0,P|270:208|243:179,1,67.5000025749208,0|0,3:0|0:0,0:0:0:0:
86,81,203142,6,0,L|131:73,1,26.9999991760254,0|0,3:0|0:0,0:0:0:0:
184,94,203312,2,0,L|138:86,1,26.9999991760254,0|0,0:0|0:0,0:0:0:0:
50,12,203481,6,0,L|95:4,1,40.4999987640381,8|0,0:0|0:0,0:0:0:0:
150,162,203651,2,0,L|104:154,1,40.4999987640381,4|0,3:0|0:0,0:0:0:0:
216,20,203820,6,0,P|239:32|266:83,1,53.9999983520508,4|0,3:0|0:0,0:0:0:0:
231,210,203990,5,8,0:0:0:0:
237,194,204075,1,8,0:0:0:0:
243,179,204159,5,8,3:2:0:0:
296,177,204243,1,8,0:0:0:0:
345,199,204328,1,8,3:2:0:0:
379,240,204413,1,10,3:0:0:0:
353,310,204498,6,0,B|291:299|291:299|281:307|281:307|218:296,1,135.000005149842,4|8,3:2|0:0,0:0:0:0:
59,111,205007,5,2,3:2:0:0:
142,187,205176,5,8,3:0:0:0:
96,253,205346,5,8,0:0:0:0:
126,65,205515,6,0,B|162:51|192:77|192:77|215:98|259:90,1,135.000005149842,4|8,3:2|0:0,0:0:0:0:
445,9,206024,5,2,3:2:0:0:
255,193,206363,5,2,3:2:0:0:
431,123,206702,5,8,0:0:0:0:
408,151,206786,1,8,0:0:0:0:
375,166,206871,2,0,P|346:162|315:152,1,45,8|0,0:0|0:0,0:0:0:0:
215,281,207041,5,8,0:0:0:0:
163,251,207125,1,8,0:0:0:0:
130,204,207210,5,4,3:2:0:0:
26,328,207380,1,8,0:0:0:0:
66,335,207464,1,8,0:0:0:0:
106,342,207549,1,8,0:0:0:0:
146,349,207634,1,8,0:0:0:0:
226,341,207719,6,0,P|236:316|237:289,1,53.9999983520508,4|0,3:2|0:0,0:0:0:0:
190,156,207889,5,0,0:0:0:0:
239,210,207974,1,0,0:0:0:0:
306,240,208058,1,2,3:0:0:0:
200,143,208227,6,0,B|141:153|141:153|131:163|131:163|70:173,1,135.000005149842,4|8,3:2|0:0,0:0:0:0:
7,136,208481,5,8,0:0:0:0:
74,185,208566,2,0,P|100:211|116:249,1,67.5000025749208,2|8,3:0|0:0,0:0:0:0:
29,62,208736,6,0,P|50:46|98:36,1,53.9999983520508,4|0,3:2|0:0,0:0:0:0:
288,99,208905,5,10,0:0:0:0:
284,116,208990,1,2,0:0:0:0:
280,131,209075,6,0,B|332:91|391:121|391:121|424:136|464:129|464:129|514:118|460:50|412:93|429:222,1,350.999983932496,2|0,3:2|0:0,0:0:0:0:
