osu file format v14

[General]
AudioFilename: audio.mp3
AudioLeadIn: 0
PreviewTime: 46193
Countdown: 0
SampleSet: Soft
StackLeniency: 0.5
Mode: 0
LetterboxInBreaks: 0
WidescreenStoryboard: 0

[Editor]
Bookmarks: 22803,47210,71617,74159,101447,125854,150261,166532,188227
DistanceSpacing: 1
BeatDivisor: 4
GridSize: 32
TimelineZoom: 2.2

[Metadata]
Title:Harmonia
TitleUnicode:Harmonia
Artist:ATSUMI UEDA
ArtistUnicode:ATSUMI UEDA
Creator:Creamy Candy
Version:Collab Hard
Source:pop'n music ラピストリア
Tags:agai132 [Mad] realy0_ DeppyForce xHappy- p_kung penfifteen Xenon Xehn long version full PON Daichi Watanabe japanese video game female vocals BeatStream popn Lapistoria 22 Power Of Nature konami bemani ポップンミュジック Nostalgia ノスタルジア
BeatmapID:2182836
BeatmapSetID:1028168

[Difficulty]
HPDrainRate:5
CircleSize:3.5
OverallDifficulty:6
ApproachRate:8
SliderMultiplier:1.6
SliderTickRate:1

[Events]
//Background and Video events
0,0,"harmonia.png",0,0
//Break Periods
2,166532,171206
//Storyboard Layer 0 (Background)
//Storyboard Layer 1 (Fail)
//Storyboard Layer 2 (Pass)
//Storyboard Layer 3 (Foreground)
//Storyboard Layer 4 (Overlay)
//Storyboard Sound Samples

[TimingPoints]
1109,338.983050847458,4,2,1,68,1,0
1278,-111.111111111111,4,2,1,38,0,0
1363,-111.111111111111,4,2,1,48,0,0
1447,-111.111111111111,4,2,1,63,0,0
1532,-111.111111111111,4,2,1,68,0,0
1617,-111.111111111111,4,2,2,68,0,0
1786,-111.111111111111,4,2,1,58,0,0
2125,-111.111111111111,4,2,1,68,0,0
2295,-111.111111111111,4,2,1,43,0,0
2380,-111.111111111111,4,2,1,58,0,0
2464,-111.111111111111,4,2,1,68,0,0
2634,-111.111111111111,4,2,2,68,0,0
2973,-111.111111111111,4,2,1,68,0,0
3142,-111.111111111111,4,2,1,68,0,0
3481,-111.111111111111,4,2,1,68,0,0
3820,-100,4,2,1,68,0,0
4668,-100,4,2,1,68,0,0
5346,-100,4,2,1,68,0,0
5939,-100,4,2,1,38,0,0
6024,-100,4,2,1,68,0,0
6871,-100,4,2,1,68,0,0
8142,-100,4,2,1,38,0,0
8227,-100,4,2,1,68,0,0
10770,-100,4,2,1,68,0,0
11193,-100,4,2,1,38,0,0
11278,-100,4,2,1,68,0,0
11447,-100,4,2,1,38,0,0
11617,-100,4,2,1,53,0,0
11702,-100,4,2,1,68,0,0
12125,-100,4,2,1,48,0,0
12210,-100,4,2,1,63,0,0
12295,-100,4,2,1,68,0,0
12803,-100,4,2,1,68,0,0
13142,-100,4,2,1,68,0,0
13481,-100,4,2,1,68,0,0
13990,-100,4,2,1,68,0,0
14414,-100,4,2,1,31,0,0
14498,-100,4,2,1,68,0,0
15007,-100,4,2,1,68,0,0
15176,-100,4,2,1,68,0,0
16532,-100,4,2,1,38,0,0
16617,-100,4,2,1,48,0,0
16702,-100,4,2,1,68,0,0
17719,-100,4,2,1,68,0,0
19244,-100,4,2,1,43,0,0
19414,-100,4,2,1,68,0,0
19583,-100,4,2,1,68,0,0
20092,-100,4,2,3,68,0,0
20261,-100,4,2,1,38,0,0
20346,-100,4,2,1,43,0,0
20431,-100,4,2,1,68,0,0
20515,-100,4,2,1,48,0,0
20600,-100,4,2,2,68,0,0
20770,-100,4,2,1,68,0,0
21109,-100,4,2,3,68,0,0
21278,-100,4,2,1,38,0,0
21363,-100,4,2,1,43,0,0
21447,-100,4,2,1,68,0,0
21617,-100,4,2,1,68,0,0
21786,-100,4,2,1,55,0,0
21956,-100,4,2,1,68,0,0
22125,-100,4,2,2,46,0,0
22464,-100,4,2,1,68,0,0
22803,-111.111111111111,4,2,2,55,0,0
23990,-111.111111111111,4,2,1,55,0,0
24329,-111.111111111111,4,2,2,55,0,0
25007,-111.111111111111,4,2,2,28,0,0
25092,-111.111111111111,4,2,2,37,0,0
25176,-111.111111111111,4,2,2,55,0,0
26702,-111.111111111111,4,2,1,55,0,0
28227,-111.111111111111,4,2,2,55,0,0
28397,-111.111111111111,4,2,2,34,0,0
28736,-111.111111111111,4,2,2,56,0,0
29414,-111.111111111111,4,2,1,55,0,0
30261,-111.111111111111,4,2,1,35,0,0
30431,-111.111111111111,4,2,1,28,0,0
30515,-111.111111111111,4,2,1,50,0,0
30600,-111.111111111111,4,2,1,58,0,0
30770,-111.111111111111,4,2,1,55,0,0
31617,-111.111111111111,4,2,1,42,0,0
31956,-111.111111111111,4,2,1,52,0,0
32295,-111.111111111111,4,2,1,58,0,0
32634,-111.111111111111,4,2,1,68,0,0
32973,-111.111111111111,4,2,2,68,0,0
33481,-111.111111111111,4,2,1,68,0,0
34329,-111.111111111111,4,2,2,68,0,0
34498,-111.111111111111,4,2,1,68,0,0
35007,-111.111111111111,4,2,1,38,0,0
35176,-111.111111111111,4,2,1,58,0,0
35346,-111.111111111111,4,2,1,68,0,0
36363,-100,4,2,1,68,0,0
36702,-100,4,2,2,58,0,0
36871,-100,4,2,2,34,0,0
37041,-100,4,2,2,58,0,0
37210,-100,4,2,2,48,0,0
37380,-100,4,2,2,58,0,0
38566,-100,4,2,2,45,0,0
38736,-100,4,2,2,58,0,0
39922,-100,4,2,2,48,0,0
40092,-100,4,2,2,58,0,0
40939,-100,4,2,2,48,0,0
41109,-100,4,2,2,58,0,0
41278,-100,4,2,1,38,0,0
41363,-100,4,2,1,48,0,0
41447,-100,4,2,1,63,0,0
42295,-100,4,2,3,48,0,0
42464,-100,4,2,3,68,0,0
42634,-100,4,2,1,68,0,0
43990,-100,4,2,1,48,0,0
44075,-100,4,2,1,68,0,0
44668,-100,4,2,1,33,0,0
44753,-100,4,2,1,38,0,0
44837,-100,4,2,1,58,0,0
44922,-100,4,2,1,68,0,0
45685,-100,4,2,1,33,0,0
45770,-100,4,2,1,53,0,0
45854,-100,4,2,1,68,0,0
47210,-100,4,2,1,68,0,0
49329,-100,4,2,1,28,0,0
49414,-100,4,2,1,68,0,0
50261,-100,4,2,1,68,0,0
51617,-100,4,2,1,68,0,0
54159,-100,4,2,1,68,0,0
54498,-100,4,2,1,68,0,0
54583,-100,4,2,1,38,0,0
54668,-100,4,2,1,68,0,0
54837,-100,4,2,1,38,0,0
54922,-100,4,2,1,48,0,0
55007,-100,4,2,1,68,0,0
55515,-100,4,2,1,38,0,0
55600,-100,4,2,1,48,0,0
55685,-100,4,2,1,58,0,0
55854,-100,4,2,1,68,0,0
56193,-100,4,2,1,68,0,0
56532,-100,4,2,1,68,0,0
56871,-100,4,2,1,68,0,0
57380,-100,4,2,1,68,0,0
57549,-100,4,2,1,68,0,0
60176,-100,4,2,1,38,0,0
60261,-100,4,2,1,68,0,0
61109,-100,4,2,1,68,0,0
61956,-100,4,2,3,68,0,0
62295,-100,4,2,1,68,0,0
62973,-100,4,2,1,68,0,0
65007,-100,4,2,1,68,0,0
65346,-100,4,2,1,68,0,0
65431,-100,4,2,1,38,0,0
65515,-100,4,2,1,68,0,0
65685,-100,4,2,1,38,0,0
65770,-100,4,2,1,48,0,0
65854,-100,4,2,1,68,0,0
66363,-100,4,2,1,38,0,0
66532,-100,4,2,1,68,0,0
67041,-100,4,2,1,68,0,0
67380,-100,4,2,2,68,0,0
67719,-100,4,2,1,68,0,0
68397,-100,4,2,1,68,0,0
68651,-100,4,2,1,28,0,0
68736,-100,4,2,1,68,0,0
69244,-100,4,2,1,68,0,0
71617,-100,4,2,1,68,0,0
71956,-100,4,2,1,68,0,0
73481,-100,4,2,1,42,0,0
73651,-100,4,2,1,68,0,0
73820,-100,4,2,1,48,0,0
73905,-100,4,2,1,50,0,0
73990,-100,4,2,1,68,0,0
74498,-100,4,2,1,40,0,0
74668,-100,4,2,1,68,0,0
75515,-100,4,2,1,37,0,0
75600,-100,4,2,1,41,0,0
75685,-100,4,2,1,68,0,0
76363,-100,4,2,2,46,0,0
76702,-100,4,2,1,68,0,0
77041,-111.111111111111,4,2,1,65,0,0
77380,-111.111111111111,4,2,1,55,0,0
78058,-111.111111111111,4,2,2,55,0,0
78227,-111.111111111111,4,2,1,55,0,0
79244,-111.111111111111,4,2,1,25,0,0
79329,-111.111111111111,4,2,1,45,0,0
79414,-111.111111111111,4,2,1,47,0,0
79583,-111.111111111111,4,2,1,45,0,0
79753,-111.111111111111,4,2,2,55,0,0
80092,-111.111111111111,4,2,1,55,0,0
80770,-111.111111111111,4,2,2,53,0,0
80939,-111.111111111111,4,2,1,55,0,0
82464,-111.111111111111,4,2,2,55,0,0
82549,-111.111111111111,4,2,2,35,0,0
82719,-111.111111111111,4,2,2,42,0,0
82803,-111.111111111111,4,2,2,55,0,0
83651,-111.111111111111,4,2,1,55,0,0
84329,-111.111111111111,4,2,1,45,0,0
84498,-111.111111111111,4,2,1,55,0,0
84668,-111.111111111111,4,2,1,27,0,0
84753,-111.111111111111,4,2,1,31,0,0
84837,-111.111111111111,4,2,1,55,0,0
85854,-111.111111111111,4,2,1,35,0,0
86193,-111.111111111111,4,2,1,45,0,0
86363,-111.111111111111,4,2,1,55,0,0
86532,-111.111111111111,4,2,1,59,0,0
86871,-111.111111111111,4,2,1,63,0,0
87210,-111.111111111111,4,2,2,63,0,0
87719,-111.111111111111,4,2,1,63,0,0
88227,-111.111111111111,4,2,3,63,0,0
88566,-111.111111111111,4,2,2,63,0,0
88736,-111.111111111111,4,2,1,63,0,0
89244,-111.111111111111,4,2,1,48,0,0
89414,-111.111111111111,4,2,1,63,0,0
89583,-111.111111111111,4,2,1,55,0,0
90600,-100,4,2,1,55,0,0
90939,-100,4,2,2,58,0,0
91109,-100,4,2,2,35,0,0
91278,-100,4,2,2,58,0,0
91447,-100,4,2,2,48,0,0
91617,-100,4,2,2,58,0,0
92464,-100,4,2,2,38,0,0
92634,-100,4,2,2,58,0,0
92803,-100,4,2,2,50,0,0
92973,-100,4,2,2,58,0,0
93481,-100,4,2,2,40,0,0
93651,-100,4,2,2,58,0,0
93820,-100,4,2,2,38,0,0
93990,-100,4,2,2,58,0,0
94159,-100,4,2,2,46,0,0
94329,-100,4,2,2,42,0,0
94498,-100,4,2,1,58,0,0
94668,-100,4,2,2,58,0,0
95515,-100,4,2,2,32,0,0
95600,-100,4,2,2,41,0,0
95685,-100,4,2,2,58,0,0
96024,-100,4,2,3,58,0,0
96193,-100,4,2,2,58,0,0
97041,-100,4,2,3,58,0,0
98905,-100,4,2,3,31,0,0
98990,-100,4,2,3,39,0,0
99075,-100,4,2,1,58,0,0
99159,-100,4,2,1,68,0,0
99753,-100,4,2,2,68,0,0
99922,-100,4,2,1,38,0,0
100007,-100,4,2,1,58,0,0
100092,-100,4,2,1,68,0,0
101447,-100,4,2,1,68,0,0
103566,-100,4,2,1,41,0,0
103651,-100,4,2,1,68,0,0
109075,-100,4,2,1,42,0,0
109244,-100,4,2,1,68,0,0
109753,-100,4,2,1,38,0,0
109837,-100,4,2,1,44,0,0
109922,-100,4,2,1,68,0,0
111447,-100,4,2,1,48,0,0
111532,-100,4,2,1,52,0,0
111617,-100,4,2,1,68,0,0
114414,-100,4,2,1,41,0,0
114498,-100,4,2,1,68,0,0
118312,-100,4,2,1,48,0,0
118397,-100,4,2,1,68,0,0
119922,-100,4,2,1,43,0,0
120092,-100,4,2,1,68,0,0
120600,-100,4,2,1,32,0,0
120685,-100,4,2,1,45,0,0
120770,-100,4,2,1,63,0,0
122295,-100,4,2,1,28,0,0
122464,-100,4,2,1,48,0,0
122803,-100,4,2,1,58,0,0
123142,-100,4,2,1,68,0,0
123990,-100,4,2,3,68,0,0
124498,-100,4,2,1,68,0,0
125346,-100,4,2,1,37,0,0
125431,-100,4,2,1,47,0,0
125515,-100,4,2,1,68,0,0
125600,-100,4,2,1,35,0,0
125685,-100,4,2,1,55,0,0
125770,-100,4,2,1,68,0,0
125854,-83.3333333333333,4,2,36,73,0,1
125939,-83.3333333333333,4,2,36,73,0,1
126024,-83.3333333333333,4,2,26,65,0,1
126109,-83.3333333333333,4,2,36,68,0,1
126193,-83.3333333333333,4,2,56,70,0,1
126278,-83.3333333333333,4,2,46,70,0,1
126363,-83.3333333333333,4,2,29,73,0,1
126532,-83.3333333333333,4,2,1,73,0,1
126702,-83.3333333333333,4,2,65,73,0,1
126786,-83.3333333333333,4,2,75,73,0,1
126871,-83.3333333333333,4,2,26,73,0,1
126956,-83.3333333333333,4,2,36,73,0,1
127041,-83.3333333333333,4,2,78,73,0,1
127210,-83.3333333333333,4,2,1,73,0,1
127380,-83.3333333333333,4,2,65,73,0,1
127464,-83.3333333333333,4,2,75,73,0,1
127549,-83.3333333333333,4,2,26,73,0,1
127634,-83.3333333333333,4,2,36,73,0,1
127719,-83.3333333333333,4,2,75,73,0,1
127973,-83.3333333333333,4,2,65,73,0,1
128058,-83.3333333333333,4,2,55,73,0,1
128142,-83.3333333333333,4,2,1,73,0,1
128227,-83.3333333333333,4,2,75,73,0,1
128397,-83.3333333333333,4,2,36,73,0,1
128481,-83.3333333333333,4,2,36,20,0,1
128566,-83.3333333333333,4,2,37,73,0,1
128679,-83.3333333333333,4,2,66,73,0,1
128736,-83.3333333333333,4,2,56,73,0,1
128820,-83.3333333333333,4,2,1,73,0,1
128849,-83.3333333333333,4,2,36,73,0,1
128905,-83.3333333333333,4,2,1,73,0,1
129018,-83.3333333333333,4,2,36,73,0,1
129075,-83.3333333333333,4,2,1,73,0,1
129159,-83.3333333333333,4,2,27,73,0,1
129244,-83.3333333333333,4,2,1,73,0,1
129357,-83.3333333333333,4,2,76,73,0,1
129414,-83.3333333333333,4,2,66,73,0,1
129583,-83.3333333333333,4,2,56,73,0,1
129668,-83.3333333333333,4,2,36,73,0,1
129753,-83.3333333333333,4,2,26,73,0,1
129922,-83.3333333333333,4,2,35,73,0,1
130035,-83.3333333333333,4,2,75,73,0,1
130092,-83.3333333333333,4,2,1,73,0,1
130205,-83.3333333333333,4,2,55,73,0,1
130431,-83.3333333333333,4,2,65,73,0,1
130600,-83.3333333333333,4,2,1,73,0,1
130713,-83.3333333333333,4,2,75,73,0,1
130939,-83.3333333333333,4,2,66,73,0,1
131109,-83.3333333333333,4,2,76,73,0,1
131193,-83.3333333333333,4,2,1,34,0,1
131278,-83.3333333333333,4,2,3,68,0,1
131617,-83.3333333333333,4,2,3,62,0,1
131786,-83.3333333333333,4,2,3,47,0,1
131956,-83.3333333333333,4,2,3,61,0,1
132125,-83.3333333333333,4,2,3,40,0,1
132295,-83.3333333333333,4,2,3,56,0,1
132464,-83.3333333333333,4,2,3,42,0,1
132634,-83.3333333333333,4,2,3,57,0,1
132803,-83.3333333333333,4,2,3,39,0,1
132973,-83.3333333333333,4,2,3,56,0,1
133142,-83.3333333333333,4,2,3,38,0,1
133312,-83.3333333333333,4,2,3,66,0,1
133481,-83.3333333333333,4,2,1,39,0,1
133566,-83.3333333333333,4,2,1,52,0,1
133651,-83.3333333333333,4,2,1,68,0,1
134159,-83.3333333333333,4,2,1,48,0,1
134244,-83.3333333333333,4,2,1,58,0,1
134329,-83.3333333333333,4,2,1,68,0,1
136702,-83.3333333333333,4,2,3,68,0,1
136871,-83.3333333333333,4,2,2,68,0,1
137719,-83.3333333333333,4,2,3,68,0,1
137888,-83.3333333333333,4,2,1,68,0,1
139414,-100,4,2,1,56,0,0
140007,-100,4,2,1,36,0,0
140092,-100,4,2,1,56,0,0
141532,-100,4,2,1,35,0,0
141617,-100,4,2,1,56,0,0
142634,-100,4,2,1,34,0,0
142719,-100,4,2,1,55,0,0
142803,-100,4,2,1,58,0,0
145431,-100,4,2,1,44,0,0
145515,-100,4,2,1,58,0,0
146956,-100,4,2,1,32,0,0
147041,-100,4,2,1,58,0,0
148058,-100,4,2,1,31,0,0
148142,-100,4,2,1,39,0,0
148227,-100,4,2,1,58,0,0
148736,-100,4,2,2,58,0,0
149075,-100,4,2,1,58,0,0
149244,-100,4,2,3,58,0,0
149583,-100,4,2,1,58,0,0
149837,-100,4,2,1,45,0,0
149922,-100,4,2,1,58,0,0
150770,-100,4,2,2,58,0,0
150939,-100,4,2,1,58,0,0
151956,-100,4,2,3,57,0,0
152295,-100,4,2,3,58,0,0
152464,-100,4,2,3,32,0,0
152549,-100,4,2,3,42,0,0
152634,-100,4,2,3,58,0,0
152803,-100,4,2,1,58,0,0
154159,-100,4,2,2,58,0,0
154498,-100,4,2,1,58,0,0
155176,-100,4,2,1,36,0,0
155261,-100,4,2,1,42,0,0
155346,-100,4,2,1,68,0,0
155685,-100,4,2,2,58,0,0
155854,-100,4,2,1,47,0,0
156024,-100,4,2,1,58,0,0
156193,-100,4,2,3,58,0,0
156363,-100,4,2,1,58,0,0
156702,-100,4,2,3,58,0,0
158397,-100,4,2,2,58,0,0
158566,-100,4,2,2,58,0,0
158736,-100,4,2,3,58,0,0
159075,-100,4,2,3,33,0,0
159244,-100,4,2,3,68,0,0
159414,-100,4,2,3,61,0,0
160600,-100,4,2,3,35,0,0
160685,-100,4,2,3,44,0,0
160770,-100,4,2,3,58,0,0
162125,-100,4,2,1,58,0,0
163312,-100,4,2,1,36,0,0
163397,-100,4,2,1,40,0,0
163481,-100,4,2,1,68,0,0
163990,-100,4,2,1,34,0,0
164075,-100,4,2,1,42,0,0
164159,-100,4,2,1,68,0,0
164583,-100,4,2,1,38,0,0
164668,-100,4,2,1,68,0,0
165007,-100,4,2,1,34,0,0
165092,-100,4,2,1,43,0,0
165176,-100,4,2,1,68,0,0
166532,-153.846153846153,4,2,4,63,0,0
167041,-153.846153846153,4,2,1,33,0,0
171278,-153.846153846153,4,2,2,46,0,0
171617,-153.846153846153,4,2,2,55,0,0
171786,-153.846153846153,4,2,1,61,0,0
171956,-125,4,2,2,51,0,0
174159,-125,4,2,1,51,0,0
174329,-125,4,2,2,51,0,0
174922,-125,4,2,2,57,0,0
175007,-125,4,2,2,66,0,0
175176,-125,4,2,1,68,0,0
176024,-100,4,2,1,68,0,0
176109,-100,4,2,1,28,0,0
176193,-100,4,2,1,68,0,0
176532,-100,4,2,1,32,0,0
176617,-100,4,2,1,53,0,0
176702,-100,4,2,1,68,0,0
176871,-100,4,2,1,50,0,0
177041,-100,4,2,1,54,0,0
177210,-100,4,2,1,57,0,0
177295,-100,4,2,1,67,0,0
177380,-100,4,2,1,68,0,0
179498,-100,4,2,1,49,0,0
179583,-100,4,2,1,68,0,0
181956,-100,4,2,2,68,0,0
182973,-100,4,2,1,68,0,0
183312,-100,4,2,3,68,0,0
183397,-100,4,2,3,49,0,0
183481,-100,4,2,3,68,0,0
184753,-100,4,2,3,38,0,0
184837,-100,4,2,3,68,0,0
185007,-100,4,2,1,68,0,0
187210,-100,4,2,2,68,0,0
187380,-100,4,2,3,68,0,0
187719,-100,4,2,1,68,0,0
187973,-100,4,2,1,41,0,0
188058,-100,4,2,1,68,0,0
188397,-100,4,2,1,48,0,0
188566,-100,4,2,1,68,0,0
190431,-100,4,2,1,39,0,0
190515,-100,4,2,1,68,0,0
195515,-100,4,2,1,42,0,0
195600,-100,4,2,1,38,0,0
195685,-100,4,2,1,68,0,0
195854,-100,4,2,1,31,0,0
195939,-100,4,2,1,48,0,0
196024,-100,4,2,1,68,0,0
196532,-100,4,2,1,48,0,0
196617,-100,4,2,1,58,0,0
196702,-100,4,2,1,68,0,0
197549,-100,4,2,2,68,0,0
197888,-100,4,2,1,68,0,0
198227,-100,4,2,1,68,0,0
198566,-100,4,2,1,68,0,0
200939,-100,4,2,1,39,0,0
201024,-100,4,2,1,47,0,0
201109,-100,4,2,1,68,0,0
203651,-100,4,2,1,45,0,0
203820,-100,4,2,1,68,0,0
203990,-100,4,2,1,54,0,0
204075,-100,4,2,1,34,0,0
204159,-100,4,2,1,58,0,0
204329,-100,4,2,1,68,0,0
206786,-100,4,2,1,48,0,0
207041,-100,4,2,1,68,0,0
207125,-100,4,2,1,48,0,0
207210,-100,4,2,1,68,0,0
207380,-100,4,2,1,53,0,0
207464,-100,4,2,1,58,0,0
207549,-100,4,2,1,68,0,0
207973,-100,4,2,1,40,0,0
208058,-100,4,2,1,68,0,0
208397,-100,4,2,1,43,0,0
208481,-100,4,2,1,56,0,0
208566,-100,4,2,1,36,0,0
208651,-100,4,2,1,68,0,0
208736,-100,4,2,2,68,0,0
208905,-100,4,2,2,48,0,0
209075,-100,4,2,1,68,0,0

[Colours]
Combo1 : 200,130,247
Combo2 : 226,188,137
Combo3 : 0,221,193
Combo4 : 247,145,203

[HitObjects]
103,38,1109,5,4,3:2:0:0:
44,91,1278,2,0,L|49:132,3,35.9999989013672,8|8|8|8,0:0|0:0|0:0|0:0,0:0:0:0:
58,165,1617,5,4,3:2:0:0:
113,220,1786,2,0,L|102:285,2,35.9999989013672,4|4|2,3:0|3:0|3:0,0:0:0:0:
184,186,2125,5,4,3:2:0:0:
253,224,2295,2,0,L|264:289,2,35.9999989013672,8|8|2,0:0|0:0|3:0,0:0:0:0:
322,184,2634,5,4,3:2:0:0:
275,120,2803,2,0,L|270:63,2,35.9999989013672,0|0|2,0:0|0:0|3:2,0:0:0:0:
351,78,3142,5,0,0:0:0:0:
194,101,3481,1,2,3:0:0:0:
18,10,3820,6,0,L|22:101,1,80,4|2,3:2|0:0,0:0:0:0:
64,166,4159,1,8,0:0:0:0:
23,244,4329,2,0,B|109:235|95:283|176:275,1,160,2|2,0:0|3:2,0:0:0:0:
253,231,4837,1,8,0:0:0:0:
324,282,5007,6,0,P|338:237|329:192,1,80,2|0,3:2|3:0,0:0:0:0:
284,131,5346,2,0,L|292:49,1,80,2|8,3:2|0:0,0:0:0:0:
371,13,5685,2,0,P|410:21|442:43,1,80,2|0,3:2|3:0,0:0:0:0:
416,127,6024,1,2,3:2:0:0:
416,127,6193,1,8,0:0:0:0:
442,211,6363,2,0,P|439:287|374:328,1,160,2|2,3:2|0:0,0:0:0:0:
281,326,6871,6,0,L|178:319,1,80,8|2,0:0|0:0,0:0:0:0:
125,365,7210,1,0,3:0:0:0:
125,365,7380,2,0,P|113:326|118:287,1,80,2|8,0:0|0:0,0:0:0:0:
155,207,7719,6,0,P|105:266|29:259,1,160,2|2,0:0|0:0,0:0:0:0:
73,182,8227,1,8,0:0:0:0:
28,105,8397,1,2,0:0:0:0:
96,50,8566,2,0,L|200:41,1,80,2|8,3:0|0:0,0:0:0:0:
219,43,8820,1,8,0:0:0:0:
219,43,8905,1,8,3:2:0:0:
296,0,9075,1,8,0:0:0:0:
296,0,9159,1,8,0:0:0:0:
296,0,9244,6,0,P|312:36|310:75,1,80,4|2,3:2|0:0,0:0:0:0:
272,155,9583,1,8,0:0:0:0:
310,234,9753,2,0,P|387:243|431:307,1,160,2|2,0:0|3:2,0:0:0:0:
343,318,10261,1,8,0:0:0:0:
248,293,10431,6,0,P|227:251|236:193,1,80,2|0,3:2|3:0,0:0:0:0:
143,190,10770,2,0,P|168:150|223:129,1,80,2|8,3:2|0:0,0:0:0:0:
217,48,11109,2,0,P|255:39|293:49,1,80,2|4,3:2|3:0,0:0:0:0:
366,97,11447,2,0,B|359:130|357:136,3,40,8|8|8|8,0:0|0:0|0:0|0:0,0:0:0:0:
379,98,11786,6,0,L|476:105,1,80,8|4,0:0|3:2,0:0:0:0:
498,182,12125,1,8,0:0:0:0:
498,182,12210,1,8,0:0:0:0:
498,182,12295,1,8,0:0:0:0:
446,253,12464,1,2,3:2:0:0:
276,203,12803,1,2,3:2:0:0:
130,323,13142,6,0,P|101:251|125:176,1,160,4|0,3:2|3:0,0:0:0:0:
186,111,13651,1,10,0:0:0:0:
99,93,13820,2,0,P|79:58|78:18,1,80,0|4,0:0|3:0,0:0:0:0:
165,7,14159,1,4,3:0:0:0:
165,7,14244,1,4,3:0:0:0:
165,7,14329,1,6,3:0:0:0:
244,43,14498,1,6,3:0:0:0:
333,6,14668,6,0,P|289:69|306:144,1,160,4|8,3:2|0:0,0:0:0:0:
383,190,15176,1,0,0:0:0:0:
383,190,15261,1,0,0:0:0:0:
383,190,15346,2,0,L|372:311,2,120,0|0|0,3:0|3:0|3:0,0:0:0:0:
299,236,16024,6,0,B|217:224|239:279|146:268,1,160,0|8,3:0|0:0,0:0:0:0:
72,221,16532,2,0,L|26:225,2,40,0|0|0,0:0|0:0|3:0,0:0:0:0:
128,153,16871,1,0,3:0:0:0:
94,71,17041,1,8,0:0:0:0:
94,71,17125,1,8,0:0:0:0:
94,71,17210,1,2,3:0:0:0:
183,27,17380,6,0,P|236:53|341:46,1,160,4|8,3:2|0:0,0:0:0:0:
412,6,17888,1,0,0:0:0:0:
412,6,17973,1,0,0:0:0:0:
412,6,18058,2,0,P|431:51|427:129,2,120,0|0|0,3:0|3:0|3:0,0:0:0:0:
325,22,18736,6,0,L|333:198,1,160,0|8,3:0|0:0,0:0:0:0:
399,239,19244,1,4,3:0:0:0:
356,316,19414,1,4,3:0:0:0:
269,319,19583,1,8,0:0:0:0:
269,319,19668,1,8,0:0:0:0:
269,319,19753,2,0,L|257:263,3,40,8|8|2|2,3:2|0:0|3:0|3:0,0:0:0:0:
254,236,20092,5,4,3:2:0:0:
175,274,20261,2,0,L|135:268,3,40,8|8|8|8,0:0|0:0|0:0|0:0,0:0:0:0:
91,261,20600,5,4,3:2:0:0:
54,179,20770,2,0,L|46:134,2,40,4|4|2,3:0|3:0|3:0,0:0:0:0:
148,162,21109,5,4,3:2:0:0:
170,76,21278,2,0,L|178:31,4,40,8|8|8|8|4,0:0|0:0|0:0|0:0|3:2,0:0:0:0:
271,74,21786,1,0,0:0:0:0:
271,74,21956,1,10,0:0:0:0:
512,192,22803,5,4,3:2:0:0:
478,263,22973,1,0,0:0:0:0:
404,233,23142,2,0,B|317:237|355:285|278:291,1,143.999995605469,2|8,3:2|0:0,0:0:0:0:
211,334,23651,2,0,P|200:300|202:264,1,71.9999978027344,0|2,0:0|0:0,0:0:0:0:
137,200,23990,6,0,P|201:171|265:199,1,143.999995605469,2|0,3:2|3:0,0:0:0:0:
339,225,24498,1,0,3:0:0:0:
339,225,24668,1,0,0:0:0:0:
414,201,24837,2,0,L|418:273,1,71.9999978027344,8|8,0:0|0:0,0:0:0:0:
423,312,25092,1,8,0:0:0:0:
423,312,25176,1,8,0:0:0:0:
362,363,25346,1,8,0:0:0:0:
275,331,25515,6,0,P|220:287|150:276,1,143.999995605469,2|0,3:2|3:0,0:0:0:0:
14,361,26193,2,0,B|-2:287|-2:287|13:219,1,143.999995605469,8|2,0:0|0:0,0:0:0:0:
88,194,26702,2,0,L|90:337,1,143.999995605469,2|0,3:2|3:0,0:0:0:0:
166,360,27211,1,0,3:0:0:0:
166,360,27380,1,10,0:0:0:0:
230,215,27719,1,10,0:0:0:0:
230,215,28227,6,0,B|316:203|280:241|370:228,1,143.999995605469,2|2,3:2|3:2,0:0:0:0:
442,194,28735,1,2,0:0:0:0:
442,194,28906,2,0,P|448:228|438:266,1,71.9999978027344,8|0,0:0|0:0,0:0:0:0:
495,318,29244,1,0,0:0:0:0:
401,352,29414,6,0,P|340:385|272:365,1,143.999995605469,2|0,3:2|3:0,0:0:0:0:
265,285,29922,1,0,3:0:0:0:
265,285,30092,1,10,0:0:0:0:
188,304,30261,1,8,0:0:0:0:
145,236,30431,1,8,0:0:0:0:
145,236,30515,1,8,0:0:0:0:
145,236,30600,2,0,B|136:202|136:202|144:168,1,71.9999978027344,8|8,0:0|0:0,0:0:0:0:
232,135,30939,6,0,L|334:127,1,71.9999978027344,4|0,3:2|0:0,0:0:0:0:
355,69,31278,1,2,3:0:0:0:
484,159,31617,1,8,0:0:0:0:
469,81,31786,1,8,0:0:0:0:
469,81,31956,1,8,0:0:0:0:
382,52,32125,6,0,L|375:125,1,71.9999978027344,8|8,0:0|0:0,0:0:0:0:
291,147,32464,2,0,L|284:75,1,71.9999978027344,8|8,0:0|0:0,0:0:0:0:
205,38,32803,1,8,0:0:0:0:
205,38,32888,1,0,0:0:0:0:
205,38,32973,1,4,3:2:0:0:
140,94,33142,2,0,P|99:89|68:93,1,71.9999978027344,4|8,3:2|0:0,0:0:0:0:
37,193,33481,6,0,P|106:208|174:185,1,143.999995605469,4|0,3:2|3:0,0:0:0:0:
249,159,33990,1,10,0:0:0:0:
312,211,34159,1,0,0:0:0:0:
312,211,34329,1,2,0:0:0:0:
395,196,34498,6,0,L|408:52,1,143.999995605469,4|8,3:2|0:0,0:0:0:0:
494,60,35007,2,0,L|490:95,3,35.9999989013672,8|8|8|8,0:0|0:0|0:0|0:0,0:0:0:0:
492,138,35346,2,0,L|496:173,3,35.9999989013672,8|4|8|8,3:0|3:0|0:0|0:0,0:0:0:0:
505,216,35685,1,2,3:0:0:0:
505,216,35855,1,0,3:0:0:0:
442,275,36024,1,8,0:0:0:0:
270,361,36363,6,0,P|197:333|119:348,2,160,4|10|2,3:2|0:0|3:2,0:0:0:0:
355,382,37210,1,2,0:0:0:0:
427,332,37379,1,8,0:0:0:0:
355,382,37549,1,0,0:0:0:0:
317,302,37719,6,0,B|300:222|300:222|329:149,1,160,2|8,3:2|0:0,0:0:0:0:
417,153,38227,2,0,B|434:233|434:233|404:305,1,160,2|2,0:0|0:0,0:0:0:0:
319,331,38736,1,8,0:0:0:0:
319,331,38905,1,0,0:0:0:0:
249,276,39075,6,0,B|165:269|182:320|99:313,1,160,2|8,3:2|0:0,0:0:0:0:
49,238,39583,1,2,0:0:0:0:
97,164,39753,2,0,P|110:126|107:86,2,80,2|2|10,3:2|0:0|0:0,0:0:0:0:
185,174,40262,1,0,0:0:0:0:
255,121,40431,6,0,L|272:284,1,160,0|8,3:0|0:0,0:0:0:0:
358,297,40939,1,2,0:0:0:0:
419,233,41109,1,2,3:2:0:0:
361,166,41278,1,8,0:0:0:0:
361,166,41363,1,8,0:0:0:0:
361,166,41447,2,0,L|361:125,2,40,8|8|2,0:0|0:0|3:0,0:0:0:0:
419,233,41786,5,4,3:2:0:0:
419,233,41956,1,0,0:0:0:0:
358,297,42125,1,8,0:0:0:0:
285,246,42295,6,0,L|269:87,1,160,2|0,3:2|3:0,0:0:0:0:
181,72,42803,2,0,B|186:152|186:152|125:204|125:204|129:288,1,240,12|0,0:0|3:0,0:0:0:0:
139,371,43481,1,8,0:0:0:0:
220,338,43651,1,0,3:0:0:0:
220,338,43820,1,4,3:0:0:0:
304,363,43990,2,0,L|345:363,4,40,8|8|8|8|2,0:0|0:0|0:0|0:0|3:0,0:0:0:0:
294,275,44498,6,0,P|274:220|272:199,1,80,4|8,3:2|0:0,0:0:0:0:
287,112,44837,1,8,0:0:0:0:
287,112,44922,1,8,0:0:0:0:
287,112,45007,1,0,3:2:0:0:
366,148,45176,2,0,L|376:214,4,40,8|8|4|0|4,0:0|0:0|3:0|0:0|3:2,0:0:0:0:
433,90,45685,6,0,L|423:24,4,40,8|8|2|8|4,0:0|0:0|3:0|0:0|3:2,0:0:0:0:
453,175,46193,1,0,0:0:0:0:
453,175,46363,1,2,3:2:0:0:
473,260,46533,1,8,0:0:0:0:
299,285,46871,1,2,3:0:0:0:
139,359,47210,6,0,L|143:273,1,80,4|2,3:2|0:0,0:0:0:0:
181,199,47549,1,8,0:0:0:0:
98,168,47719,2,0,P|153:119|236:129,1,160,2|2,3:2|3:2,0:0:0:0:
301,184,48227,1,8,0:0:0:0:
385,210,48397,6,0,P|386:170|372:133,1,80,2|0,3:2|3:0,0:0:0:0:
451,94,48736,2,0,P|424:64|388:48,1,80,2|8,3:2|0:0,0:0:0:0:
311,3,49075,2,0,P|271:0|233:13,1,80,2|0,3:2|3:0,0:0:0:0:
217,99,49414,1,2,3:2:0:0:
217,99,49583,1,8,0:0:0:0:
139,56,49753,1,2,0:0:0:0:
83,337,50261,6,0,P|71:288|79:244,1,80,8|2,0:0|0:0,0:0:0:0:
137,197,50600,1,0,3:0:0:0:
136,196,50770,2,0,P|102:177|63:174,1,80,2|8,0:0|0:0,0:0:0:0:
30,91,51109,6,0,P|108:89|173:44,1,160,2|2,0:0|0:0,0:0:0:0:
256,73,51617,1,8,0:0:0:0:
339,45,51786,1,2,0:0:0:0:
422,72,51956,2,0,L|428:165,1,80,2|8,3:0|0:0,0:0:0:0:
433,199,52210,1,8,0:0:0:0:
433,199,52295,1,8,3:2:0:0:
367,257,52464,1,8,0:0:0:0:
367,257,52549,1,8,0:0:0:0:
366,256,52634,6,0,P|334:234|293:228,1,80,4|2,3:2|0:0,0:0:0:0:
224,282,52973,1,8,0:0:0:0:
172,210,53142,2,0,P|137:279|162:352,1,160,2|2,3:2|3:2,0:0:0:0:
246,382,53651,1,8,0:0:0:0:
330,359,53820,6,0,P|368:367|407:359,1,80,2|0,0:0|3:0,0:0:0:0:
495,354,54159,2,0,P|482:317|456:287,1,80,2|8,3:2|0:0,0:0:0:0:
410,210,54498,2,0,P|383:239|370:277,1,80,2|4,3:2|3:0,0:0:0:0:
330,359,54837,2,0,L|284:367,3,40,8|8|8|8,0:0|0:0|0:0|0:0,0:0:0:0:
246,371,55176,1,2,3:0:0:0:
163,336,55346,6,0,P|160:297|171:258,1,80,4|8,3:2|0:0,0:0:0:0:
187,225,55600,1,8,0:0:0:0:
187,225,55685,1,8,0:0:0:0:
97,212,55854,1,2,3:2:0:0:
26,50,56193,1,2,3:2:0:0:
195,135,56532,6,0,P|190:59|279:14,1,160,4|0,3:2|3:0,0:0:0:0:
327,59,57041,1,12,0:0:0:0:
401,12,57210,1,0,0:0:0:0:
466,71,57380,2,0,L|464:156,1,80,6|4,3:0|3:0,0:0:0:0:
472,200,57634,1,4,3:0:0:0:
472,200,57719,1,6,3:0:0:0:
402,266,57888,1,0,3:0:0:0:
314,208,58058,6,0,P|268:208|235:220,1,80,4|2,3:2|0:0,0:0:0:0:
165,271,58397,1,8,0:0:0:0:
88,228,58566,2,0,P|78:304|134:357,1,160,2|2,3:2|3:2,0:0:0:0:
220,336,59075,1,8,0:0:0:0:
306,348,59244,6,0,L|390:341,1,80,2|0,0:0|3:0,0:0:0:0:
470,372,59583,2,0,P|477:334|465:296,1,80,2|8,3:2|0:0,0:0:0:0:
512,217,59922,2,0,P|485:187|447:174,1,80,2|0,0:0|3:0,0:0:0:0:
374,217,60261,1,2,0:0:0:0:
374,217,60431,1,8,0:0:0:0:
301,157,60600,2,0,P|254:96|268:20,1,160,2|2,0:0|0:0,0:0:0:0:
506,30,61109,6,0,L|425:37,1,80,8|2,0:0|0:0,0:0:0:0:
346,74,61447,1,0,3:0:0:0:
346,74,61617,2,0,L|265:67,1,80,2|8,0:0|0:0,0:0:0:0:
192,18,61956,6,0,P|220:90|193:164,1,160,4|0,3:2|3:0,0:0:0:0:
108,140,62464,1,8,0:0:0:0:
22,164,62634,2,0,P|1:197|-6:236,1,80,4|0,3:2|0:0,0:0:0:0:
65,305,62973,2,0,L|68:360,2,40,8|8|8,0:0|0:0|0:0,0:0:0:0:
146,271,63312,1,8,0:0:0:0:
146,271,63397,1,8,0:0:0:0:
146,271,63481,6,0,L|226:273,1,80,4|2,3:2|0:0,0:0:0:0:
296,326,63820,1,8,0:0:0:0:
367,273,63990,2,0,P|358:201|289:150,1,160,2|2,3:2|3:2,0:0:0:0:
208,179,64498,1,8,0:0:0:0:
126,141,64668,6,0,P|113:104|115:65,1,80,2|0,3:2|3:0,0:0:0:0:
183,7,65007,2,0,L|268:10,1,80,2|8,3:2|0:0,0:0:0:0:
341,49,65346,2,0,L|426:46,1,80,2|4,3:2|3:0,0:0:0:0:
509,46,65685,2,0,L|501:92,3,40,8|8|8|8,0:0|0:0|0:0|0:0,0:0:0:0:
498,129,66024,1,2,3:0:0:0:
511,215,66193,6,0,P|467:214|432:190,1,80,4|8,3:2|0:0,0:0:0:0:
361,149,66532,1,8,0:0:0:0:
294,206,66702,1,2,3:2:0:0:
174,78,67041,1,2,3:2:0:0:
23,167,67380,6,0,B|115:157|88:212|174:201,1,160,4|0,3:2|3:0,0:0:0:0:
249,154,67888,1,10,0:0:0:0:
323,200,68058,2,0,P|331:239|326:280,1,80,0|8,0:0|3:0,0:0:0:0:
258,334,68397,1,4,3:0:0:0:
258,334,68481,1,4,3:0:0:0:
258,334,68566,1,6,3:0:0:0:
183,286,68736,1,2,3:0:0:0:
102,348,68905,6,0,P|76:275|119:208,1,160,4|8,3:2|0:0,0:0:0:0:
184,150,69414,1,0,0:0:0:0:
184,150,69498,1,0,0:0:0:0:
184,150,69583,2,0,L|172:31,2,120,0|0|0,3:0|3:0|3:0,0:0:0:0:
269,172,70261,6,0,P|332:127|406:149,1,160,0|8,3:0|0:0,0:0:0:0:
472,207,70770,2,0,L|511:204,2,40,0|0|0,0:0|0:0|3:0,0:0:0:0:
420,278,71109,1,0,3:0:0:0:
353,220,71278,1,8,0:0:0:0:
353,220,71363,1,8,0:0:0:0:
353,220,71447,1,2,3:0:0:0:
253,190,71617,6,0,L|246:272,1,80,4|0,3:2|0:0,0:0:0:0:
159,255,71956,2,0,L|151:175,1,80,8|0,0:0|0:0,0:0:0:0:
63,183,72295,2,0,L|50:309,2,120,0|0|0,3:0|3:0|3:0,0:0:0:0:
74,95,72973,6,0,B|176:86|125:51|222:43,1,160,0|8,3:0|0:0,0:0:0:0:
291,97,73481,1,4,3:0:0:0:
257,178,73651,1,4,3:0:0:0:
291,266,73821,1,8,0:0:0:0:
291,266,73905,1,8,0:0:0:0:
291,266,73990,2,0,L|345:262,3,40,8|8|2|0,3:2|0:0|3:0|0:0,0:0:0:0:
375,263,74330,5,4,3:2:0:0:
448,310,74498,2,0,L|455:356,2,40,8|8|8,0:0|0:0|0:0,0:0:0:0:
511,249,74837,1,4,3:2:0:0:
437,199,75007,2,0,L|430:153,2,40,8|4|2,3:0|3:0|3:0,0:0:0:0:
375,263,75346,5,4,3:2:0:0:
291,235,75515,2,0,L|284:189,4,40,8|8|8|8|4,0:0|0:0|0:0|0:0|3:2,0:0:0:0:
230,299,76024,1,0,0:0:0:0:
230,299,76193,1,10,0:0:0:0:
0,350,77041,6,0,P|69:363|132:330,2,143.999995605469,4|2|8,3:2|3:2|0:0,0:0:0:0:
2,270,77888,1,0,0:0:0:0:
2,270,78058,1,2,0:0:0:0:
55,212,78227,2,0,B|110:208|110:208|137:224|137:224|194:220,1,143.999995605469,2|0,3:2|3:0,0:0:0:0:
260,175,78736,2,0,P|266:138|266:100,1,71.9999978027344,0|0,3:0|0:0,0:0:0:0:
344,89,79075,2,0,L|353:204,1,107.999996704102,8|8,0:0|0:0,0:0:0:0:
392,200,79414,2,0,L|397:271,1,71.9999978027344,2|0,0:0|0:0,0:0:0:0:
351,337,79753,6,0,B|269:335|297:299|215:297,2,143.999995605469,2|2|8,3:2|3:2|0:0,0:0:0:0:
396,270,80601,1,0,0:0:0:0:
302,143,80939,1,2,3:2:0:0:
177,241,81278,1,0,3:0:0:0:
177,241,81447,1,0,3:0:0:0:
93,252,81617,2,0,B|63:315|63:315|125:356,1,143.999995605469,10|10,0:0|0:0,0:0:0:0:
102,119,82464,6,0,B|188:107|152:145|242:132,1,143.999995605469,2|2,3:2|3:2,0:0:0:0:
321,120,82972,1,0,0:0:0:0:
321,120,83142,2,0,L|314:191,1,71.9999978027344,10|0,0:0|0:0,0:0:0:0:
272,259,83481,1,0,0:0:0:0:
326,316,83651,6,0,L|489:298,1,143.999995605469,2|0,3:2|3:0,0:0:0:0:
451,222,84159,1,0,3:0:0:0:
451,222,84329,1,2,0:0:0:0:
490,153,84498,1,8,0:0:0:0:
435,90,84668,2,0,L|425:54,2,35.9999989013672,8|8|8,0:0|0:0|0:0,0:0:0:0:
372,138,85006,1,0,0:0:0:0:
297,109,85176,6,0,P|267:247|273:281,2,143.999995605469,4|2|8,3:2|3:0|0:0,0:0:0:0:
341,42,86024,1,8,0:0:0:0:
341,42,86193,1,8,0:0:0:0:
399,95,86363,6,0,L|482:85,1,71.9999978027344,8|8,0:0|0:0,0:0:0:0:
482,164,86702,2,0,L|399:174,1,71.9999978027344,8|8,0:0|0:0,0:0:0:0:
331,165,87041,1,8,0:0:0:0:
331,165,87125,1,0,0:0:0:0:
331,165,87210,1,4,3:2:0:0:
249,191,87380,2,0,B|238:226|238:226|247:271,1,71.9999978027344,4|8,3:2|0:0,0:0:0:0:
158,293,87719,6,0,L|148:149,1,143.999995605469,4|0,3:2|3:0,0:0:0:0:
147,109,88142,1,0,0:0:0:0:
147,109,88227,1,12,0:0:0:0:
188,33,88397,2,0,P|214:56|230:88,1,71.9999978027344,2|2,3:0|3:2,0:0:0:0:
251,174,88736,1,4,3:2:0:0:
256,192,88905,12,8,90261,0:0:0:0:
382,288,90600,6,0,P|423:168|469:127,2,160,4|10|2,3:2|0:0|3:2,0:0:0:0:
310,339,91447,1,2,0:0:0:0:
229,302,91617,1,8,0:0:0:0:
234,214,91786,1,0,0:0:0:0:
229,302,91956,6,0,P|152:316|82:282,1,160,2|8,3:2|0:0,0:0:0:0:
73,193,92464,2,0,P|152:180|231:183,1,160,2|2,0:0|0:0,0:0:0:0:
319,196,92973,1,8,0:0:0:0:
319,196,93142,1,0,0:0:0:0:
396,153,93312,6,0,B|401:80|401:80|414:68|414:68|420:-2,2,160,0|8|2,3:0|0:0|3:2,0:0:0:0:
340,320,94329,2,0,L|436:330,1,80,10|0,0:0|0:0,0:0:0:0:
501,293,94669,2,0,B|428:288|428:288|416:275|416:275|346:269,1,160,2|8,3:2|0:0,0:0:0:0:
274,219,95176,1,2,0:0:0:0:
194,257,95346,1,2,3:2:0:0:
240,340,95515,1,8,0:0:0:0:
240,340,95601,1,8,0:0:0:0:
240,340,95685,2,0,L|240:380,2,40,8|8|2,0:0|0:0|3:0,0:0:0:0:
297,259,96024,5,4,3:2:0:0:
297,259,96193,1,0,0:0:0:0:
240,190,96363,1,8,0:0:0:0:
155,214,96532,2,0,B|134:136|134:136|159:61,1,160,4|0,3:2|3:0,0:0:0:0:
253,23,97041,6,0,P|328:105|268:199,1,240,12|0,0:0|3:0,0:0:0:0:
245,284,97719,1,8,0:0:0:0:
245,284,97888,1,0,3:0:0:0:
320,329,98058,1,4,3:0:0:0:
407,321,98227,1,8,0:0:0:0:
407,321,98312,1,8,0:0:0:0:
407,321,98397,2,0,L|452:327,2,40,8|8|2,0:0|0:0|3:0,0:0:0:0:
394,236,98736,5,4,3:2:0:0:
430,156,98905,2,0,L|476:163,4,40,8|8|8|8|4,0:0|0:0|0:0|0:0|3:2,0:0:0:0:
341,152,99414,1,8,0:0:0:0:
258,122,99583,1,4,3:0:0:0:
204,192,99753,1,4,3:2:0:0:
215,279,99922,6,0,L|176:276,4,40,8|8|2|8|4,0:0|0:0|3:0|0:0|3:2,0:0:0:0:
287,227,100431,1,0,0:0:0:0:
287,227,100601,1,2,3:2:0:0:
249,99,100770,5,8,0:0:0:0:
90,156,101109,1,2,3:0:0:0:
219,274,101447,6,0,L|311:265,1,80,4|2,3:2|0:0,0:0:0:0:
374,311,101786,1,8,0:0:0:0:
442,255,101956,2,0,P|462:169|419:118,1,160,2|2,3:2|3:2,0:0:0:0:
335,142,102464,1,8,0:0:0:0:
254,104,102634,6,0,P|248:152|261:191,1,80,2|0,3:2|3:0,0:0:0:0:
334,223,102973,2,0,P|295:252|277:289,1,80,2|8,3:2|0:0,0:0:0:0:
298,366,103312,2,0,P|250:360|211:373,1,80,2|0,3:2|3:0,0:0:0:0:
150,314,103651,1,2,3:2:0:0:
150,314,103820,1,8,0:0:0:0:
87,376,103990,1,2,0:0:0:0:
62,113,104498,6,0,L|66:200,1,80,8|2,0:0|0:0,0:0:0:0:
6,258,104837,1,0,3:0:0:0:
6,258,105007,2,0,P|39:279|78:279,1,80,2|8,0:0|0:0,0:0:0:0:
159,236,105346,6,0,B|244:222|225:282|314:271,1,160,2|2,0:0|0:0,0:0:0:0:
395,248,105854,1,8,0:0:0:0:
353,169,106024,1,2,0:0:0:0:
424,117,106193,2,0,P|435:79|431:38,1,80,2|8,3:0|0:0,0:0:0:0:
411,0,106447,1,8,0:0:0:0:
411,0,106532,1,8,3:2:0:0:
328,30,106702,1,8,0:0:0:0:
328,30,106786,1,8,0:0:0:0:
328,30,106871,6,0,L|240:24,1,80,4|2,3:2|0:0,0:0:0:0:
166,59,107210,1,8,0:0:0:0:
90,13,107380,2,0,P|115:64|89:165,1,160,2|2,3:2|3:2,0:0:0:0:
20,211,107888,1,8,0:0:0:0:
90,264,108058,6,0,L|184:257,1,80,2|0,0:0|3:0,0:0:0:0:
227,324,108397,2,0,L|280:246,1,80,2|8,3:2|0:0,0:0:0:0:
354,289,108736,2,0,L|347:194,1,80,2|4,3:2|3:0,0:0:0:0:
345,121,109075,2,0,L|302:133,3,40,8|8|8|8,0:0|0:0|0:0|0:0,0:0:0:0:
263,141,109414,1,8,0:0:0:0:
188,188,109583,6,0,P|174:131|194:88,1,80,4|8,3:2|0:0,0:0:0:0:
193,69,109837,1,8,0:0:0:0:
193,69,109922,1,8,0:0:0:0:
133,4,110092,1,2,3:2:0:0:
306,35,110431,1,2,3:2:0:0:
97,83,110770,6,0,L|102:247,1,160,4|0,3:2|3:0,0:0:0:0:
64,322,111278,1,12,0:0:0:0:
141,362,111447,1,8,0:0:0:0:
209,306,111617,2,0,P|275:304|310:333,1,80,6|4,3:0|3:0,0:0:0:0:
323,332,111871,1,4,3:0:0:0:
323,332,111956,1,6,3:0:0:0:
388,273,112125,1,0,3:0:0:0:
316,194,112295,6,0,L|231:196,1,80,4|2,3:2|0:0,0:0:0:0:
158,154,112634,1,8,0:0:0:0:
83,200,112803,2,0,P|44:134|65:59,1,160,2|2,3:2|3:2,0:0:0:0:
146,24,113312,1,8,0:0:0:0:
226,59,113481,6,0,P|265:54|304:63,1,80,2|0,0:0|3:0,0:0:0:0:
367,1,113820,2,0,P|398:26|419:59,1,80,2|8,3:2|0:0,0:0:0:0:
506,45,114159,2,0,P|510:84|501:123,1,80,2|0,0:0|3:0,0:0:0:0:
435,181,114498,1,2,0:0:0:0:
435,181,114668,1,8,0:0:0:0:
358,137,114837,1,2,0:0:0:0:
509,353,115346,6,0,L|426:353,1,80,8|2,0:0|0:0,0:0:0:0:
363,294,115685,1,0,3:0:0:0:
363,294,115854,2,0,P|340:332|349:380,1,80,2|8,0:0|0:0,0:0:0:0:
254,370,116193,6,0,P|264:291|316:220,1,160,4|0,3:2|3:0,0:0:0:0:
382,175,116702,1,8,0:0:0:0:
325,107,116871,2,0,P|285:101|246:109,1,80,4|0,3:2|0:0,0:0:0:0:
163,138,117210,2,0,L|165:192,2,40,4|2|2,3:0|3:0|3:0,0:0:0:0:
108,68,117549,1,8,0:0:0:0:
108,68,117634,1,8,0:0:0:0:
108,68,117719,6,0,P|80:96|72:135,1,80,4|2,3:2|0:0,0:0:0:0:
88,221,118058,1,8,0:0:0:0:
32,287,118227,2,0,P|103:255|178:275,1,160,2|2,0:0|3:2,0:0:0:0:
237,342,118736,1,8,0:0:0:0:
301,282,118905,6,0,L|388:277,1,80,2|0,3:2|3:0,0:0:0:0:
408,193,119244,2,0,L|321:188,1,80,2|8,3:2|0:0,0:0:0:0:
301,104,119583,2,0,L|388:99,1,80,2|4,3:2|3:0,0:0:0:0:
408,15,119922,2,0,L|362:13,3,40,8|8|8|8,0:0|0:0|0:0|0:0,0:0:0:0:
324,10,120261,1,2,3:0:0:0:
238,34,120431,6,0,P|213:64|207:103,1,80,4|8,3:2|0:0,0:0:0:0:
215,146,120685,1,8,0:0:0:0:
215,146,120770,1,8,0:0:0:0:
146,200,120939,1,2,3:2:0:0:
301,282,121277,1,2,3:2:0:0:
123,343,121617,6,0,P|60:299|55:221,1,160,4|0,3:2|3:0,0:0:0:0:
92,141,122125,2,0,L|87:58,1,80,2|4,3:0|3:0,0:0:0:0:
156,6,122464,5,0,3:2:0:0:
156,6,122634,1,8,0:0:0:0:
219,66,122803,1,8,3:2:0:0:
219,66,122973,1,8,0:0:0:0:
287,10,123142,1,8,3:2:0:0:
287,10,123312,1,8,0:0:0:0:
351,69,123481,1,8,3:2:0:0:
351,69,123651,2,0,L|433:63,1,80,8|0,0:0|3:0,0:0:0:0:
495,123,123990,1,12,0:0:0:0:
270,261,124498,6,0,L|272:205,4,40,4|0|8|0|2,3:2|0:0|3:0|3:0|0:0,0:0:0:0:
94,278,125176,2,0,L|86:225,3,40,0|0|8|8,3:0|0:0|3:0|0:0,0:0:0:0:
81,194,125515,1,8,0:0:0:0:
2,153,125685,1,8,3:2:0:0:
45,64,125854,6,0,P|108:49|128:25,2,95.9999970703126,12|2|8,0:2|0:2|0:0,0:0:0:0:
79,154,126363,2,0,B|115:124|166:131|166:131|202:167|256:167,1,191.999994140625,2|4,0:0|0:0,0:0:0:0:
303,159,126786,1,0,0:0:0:0:
303,159,126871,1,8,0:0:0:0:
377,219,127041,2,0,B|397:263|397:263|386:310,1,95.9999970703126,10|0,0:0|3:0,0:0:0:0:
301,356,127380,2,0,L|292:307,4,47.9999985351563,4|0|8|0|6,0:0|0:0|0:0|0:0|0:0,0:0:0:0:
213,315,127888,2,0,L|204:364,4,47.9999985351563,8|0|4|0|4,0:3|0:0|0:0|0:0|0:3,0:0:0:0:
117,329,128397,1,2,0:0:0:0:
70,245,128566,6,0,L|216:229,1,143.999995605469,8|0,0:3|0:0,0:0:0:0:
260,223,128905,1,8,0:0:0:0:
330,157,129075,2,0,P|340:110|328:64,1,95.9999970703126,2|0,0:0|3:0,0:0:0:0:
234,40,129414,2,0,P|223:86|235:132,1,95.9999970703126,2|8,0:0|0:0,0:0:0:0:
260,223,129753,1,2,0:0:0:0:
330,157,129922,6,0,P|346:132|366:117,2,47.9999985351563,8|0|2,0:3|0:0|0:0,0:0:0:0:
410,209,130261,1,10,0:0:0:0:
368,295,130431,2,0,P|353:313|331:323,4,47.9999985351563,6|0|0|0|12,0:0|0:0|3:0|0:0|0:0,0:0:0:0:
292,235,130939,1,8,0:0:0:0:
341,152,131109,1,8,0:0:0:0:
341,152,131193,1,8,0:0:0:0:
341,152,131278,6,0,L|393:146,3,47.9999985351563,4|0|0|0,3:2|0:0|0:0|0:0,0:0:0:0:
410,98,131617,1,10,0:0:0:0:
502,63,131786,1,2,0:0:0:0:
502,63,131956,2,0,L|508:115,3,47.9999985351563,2|0|2|0,3:2|0:0|0:0|0:0,0:0:0:0:
483,158,132295,1,10,0:0:0:0:
449,245,132464,1,2,0:0:0:0:
449,245,132634,6,0,L|496:250,2,47.9999985351563,2|0|2,3:2|0:0|0:0,0:0:0:0:
390,321,132973,2,0,L|436:332,2,47.9999985351563,10|0|2,0:0|0:0|0:0,0:0:0:0:
305,275,133312,1,4,3:0:0:0:
226,330,133481,1,8,0:0:0:0:
226,330,133566,1,8,0:0:0:0:
225,330,133651,2,0,P|225:356|228:378,2,47.9999985351563,8|8|2,0:0|0:0|3:0,0:0:0:0:
215,234,133990,5,4,3:2:0:0:
263,150,134160,1,8,0:0:0:0:
263,150,134244,1,8,0:0:0:0:
263,150,134329,1,8,0:0:0:0:
351,186,134498,2,0,P|375:96|329:15,1,191.999994140625,2|2,3:2|3:2,0:0:0:0:
239,52,135007,1,0,0:0:0:0:
263,150,135176,6,0,B|154:135|192:198|79:186,1,191.999994140625,4|0,3:2|3:0,0:0:0:0:
18,261,135685,1,10,0:0:0:0:
18,261,135854,1,0,3:0:0:0:
73,339,136024,2,0,L|178:329,2,95.9999970703126,10|4|2,0:0|3:0|3:0,0:0:0:0:
18,261,136532,1,0,3:0:0:0:
37,166,136702,6,0,P|53:121|91:92,2,95.9999970703126,4|0|0,3:2|3:0|3:0,0:0:0:0:
132,177,137210,2,0,P|160:214|204:231,2,95.9999970703126,12|0|0,0:0|3:0|3:0,0:0:0:0:
222,142,137719,2,0,P|259:113|276:69,2,95.9999970703126,12|0|0,0:0|3:0|3:0,0:0:0:0:
183,53,138227,2,0,P|98:15|12:52,1,191.999994140625,12|0,0:0|3:0,0:0:0:0:
47,142,138736,1,8,0:0:0:0:
47,142,138905,1,0,3:0:0:0:
12,232,139075,1,6,3:0:0:0:
265,207,139414,6,0,B|360:198|326:248|417:240,1,160,4|8,3:2|0:0,0:0:0:0:
496,202,139922,1,2,0:0:0:0:
496,202,140007,1,8,0:0:0:0:
496,202,140092,2,0,P|505:123|491:41,1,160,0|8,3:0|0:0,0:0:0:0:
411,8,140600,1,2,0:0:0:0:
334,52,140770,6,0,L|345:136,1,80,0|2,3:0|0:0,0:0:0:0:
256,137,141109,2,0,L|267:221,1,80,8|2,0:0|0:0,0:0:0:0:
183,189,141447,2,0,L|173:269,1,80,0|2,3:0|0:0,0:0:0:0:
93,230,141786,2,0,L|103:150,1,80,8|2,0:0|0:0,0:0:0:0:
51,79,142125,5,0,3:0:0:0:
51,79,142294,1,2,0:0:0:0:
135,53,142464,1,8,0:0:0:0:
226,84,142633,1,10,0:0:0:0:
226,84,142719,1,8,0:0:0:0:
226,84,142803,2,0,P|236:163|224:241,1,160,0|8,3:0|0:0,0:0:0:0:
134,243,143312,1,2,0:0:0:0:
134,243,143481,6,0,P|124:164|136:86,1,160,0|8,3:0|0:0,0:0:0:0:
176,5,143990,1,2,0:0:0:0:
261,26,144159,1,0,3:0:0:0:
348,39,144329,2,0,L|390:19,2,40,8|8|8,0:0|0:0|0:0,0:0:0:0:
314,120,144668,1,8,0:0:0:0:
314,120,144753,1,8,0:0:0:0:
314,120,144837,6,0,L|481:139,1,160,4|8,3:2|0:0,0:0:0:0:
475,226,145346,1,2,0:0:0:0:
475,226,145431,1,8,0:0:0:0:
475,226,145515,6,0,L|307:245,1,160,0|8,3:0|0:0,0:0:0:0:
258,311,146024,2,0,P|231:282|222:244,1,80,2|0,0:0|3:0,0:0:0:0:
149,193,146363,2,0,P|179:167|217:157,1,80,2|8,0:0|0:0,0:0:0:0:
268,85,146702,2,0,P|294:114|304:152,1,80,2|0,0:0|3:0,0:0:0:0:
307,197,146956,1,8,0:0:0:0:
307,197,147041,1,2,0:0:0:0:
384,237,147210,1,8,0:0:0:0:
455,185,147380,1,2,0:0:0:0:
455,185,147549,6,0,L|462:105,1,80,0|2,3:0|0:0,0:0:0:0:
401,40,147888,2,0,L|321:33,1,80,8|2,0:0|0:0,0:0:0:0:
296,33,148142,1,8,0:0:0:0:
296,33,148227,1,0,3:0:0:0:
250,108,148397,1,2,3:2:0:0:
287,187,148566,1,8,0:0:0:0:
242,263,148736,6,0,B|181:271|181:271|152:299|152:299|95:310,1,160,6|0,3:2|3:0,0:0:0:0:
6,313,149244,1,12,0:0:0:0:
6,313,149414,2,0,B|17:256|17:256|45:227|45:227|53:166,1,160,0|8,0:0|0:0,0:0:0:0:
57,137,149838,1,8,0:0:0:0:
57,137,149922,1,8,0:0:0:0:
142,160,150092,1,8,0:0:0:0:
142,160,150177,1,8,0:0:0:0:
142,160,150261,6,0,B|225:152|209:214|290:206,1,160,4|8,3:2|0:0,0:0:0:0:
352,268,150770,2,0,P|315:199|343:126,1,160,4|2,3:2|0:0,0:0:0:0:
401,60,151278,1,8,0:0:0:0:
321,22,151447,6,0,L|225:31,1,80,2|0,3:2|0:0,0:0:0:0:
153,36,151786,1,2,3:2:0:0:
64,43,151956,2,0,B|37:82|37:82|42:194,1,160,12|4,0:0|3:0,0:0:0:0:
47,282,152464,2,0,L|8:278,2,40,8|8|8,0:0|0:0|0:0,0:0:0:0:
117,335,152803,6,0,L|290:328,1,160,4|2,3:2|3:2,0:0:0:0:
348,276,153312,1,8,0:0:0:0:
276,225,153481,2,0,L|103:232,1,160,4|0,3:2|3:0,0:0:0:0:
49,172,153990,1,8,0:0:0:0:
76,87,154159,6,0,B|161:80|144:140|225:132,1,160,4|2,3:2|3:2,0:0:0:0:
297,81,154668,1,8,0:0:0:0:
364,136,154837,2,0,P|380:100|378:61,1,80,2|0,0:0|3:0,0:0:0:0:
453,13,155176,1,8,0:0:0:0:
453,13,155261,1,8,0:0:0:0:
453,13,155346,2,0,L|499:18,2,40,8|8|2,0:0|0:0|3:0,0:0:0:0:
365,24,155685,6,0,L|204:36,1,160,4|8,3:2|0:0,0:0:0:0:
116,37,156193,2,0,P|66:96|72:174,1,160,2|0,3:2|3:0,0:0:0:0:
142,228,156702,2,0,P|243:233|201:326,1,240,4|0,3:2|3:0,0:0:0:0:
126,372,157380,1,8,0:0:0:0:
126,372,157549,1,0,3:0:0:0:
41,347,157719,1,8,0:0:0:0:
41,347,157888,1,0,3:0:0:0:
57,260,158058,2,0,L|8:248,2,40,8|8|2,0:0|0:0|3:0,0:0:0:0:
113,192,158397,6,0,B|200:185|174:246|260:238,1,160,4|8,3:2|0:0,0:0:0:0:
321,301,158905,2,0,P|350:241|297:157,1,160,0|2,3:0|0:0,0:0:0:0:
231,120,159414,2,0,P|310:139|311:18,1,240,4|0,3:2|3:0,0:0:0:0:
223,34,160092,1,8,0:0:0:0:
223,34,160261,1,0,3:0:0:0:
139,6,160431,1,4,3:0:0:0:
59,42,160600,1,8,0:0:0:0:
59,42,160685,1,8,0:0:0:0:
59,42,160770,2,0,L|65:104,2,40,8|8|2,0:0|0:0|3:0,0:0:0:0:
10,159,161109,6,0,P|17:190|18:238,2,80,4|0|8,3:2|3:0|0:0,0:0:0:0:
104,163,161617,2,0,P|165:113|241:127,1,160,2|0,3:2|3:0,0:0:0:0:
301,57,162125,2,0,P|369:147|314:247,1,240,4|0,3:2|3:0,0:0:0:0:
232,216,162803,1,8,0:0:0:0:
149,248,162973,2,0,P|147:287|162:324,1,80,0|4,3:0|3:0,0:0:0:0:
246,371,163312,1,8,0:0:0:0:
246,371,163397,1,8,0:0:0:0:
246,371,163481,2,0,L|288:366,2,40,8|8|2,0:0|0:0|3:0,0:0:0:0:
162,324,163820,5,4,3:2:0:0:
84,365,163990,2,0,L|43:361,3,40,8|8|8|8,0:0|0:0|0:0|0:0,0:0:0:0:
0,358,164329,5,0,3:2:0:0:
11,271,164498,2,0,L|16:228,2,40,4|4|4,3:0|3:0|3:0,0:0:0:0:
98,264,164837,5,4,3:2:0:0:
158,199,165007,2,0,L|153:156,4,40,8|8|8|8|4,0:0|0:0|0:0|0:0|3:2,0:0:0:0:
235,240,165515,1,0,0:0:0:0:
235,240,165685,1,2,3:2:0:0:
419,138,171956,6,0,P|369:113|294:111,1,128,4|2,3:2|3:2,0:0:0:0:
182,8,172634,2,0,P|157:58|155:133,1,128,2|2,3:2|3:2,0:0:0:0:
52,245,173312,2,0,P|102:270|177:272,1,128,2|2,3:2|3:2,0:0:0:0:
289,375,173990,2,0,P|314:325|316:250,1,128,2|2,3:2|3:2,0:0:0:0:
256,189,174498,6,0,B|347:157|347:157|383:203,1,128,4|8,3:2|0:0,0:0:0:0:
391,212,174922,1,8,0:0:0:0:
391,212,175007,1,8,0:0:0:0:
478,231,175176,1,2,3:2:0:0:
512,95,175515,1,2,3:2:0:0:
399,11,175854,6,0,B|366:11|338:31|338:31|313:52|281:52,1,128,4|8,3:2|0:0,0:0:0:0:
195,24,176363,1,8,3:2:0:0:
114,57,176532,1,8,0:0:0:0:
114,57,176617,1,8,0:0:0:0:
114,57,176702,2,0,P|103:104|110:140,1,80,0|8,3:0|0:0,0:0:0:0:
154,209,177041,2,0,L|216:205,3,40,8|8|8|8,0:0|0:0|0:0|0:0,0:0:0:0:
237,201,177380,6,0,P|272:130|266:51,1,160,4|8,3:2|0:0,0:0:0:0:
192,2,177888,2,0,P|263:37|342:31,1,160,2|2,3:2|3:2,0:0:0:0:
428,10,178397,1,8,0:0:0:0:
491,70,178566,2,0,L|499:163,1,80,2|0,0:0|3:0,0:0:0:0:
421,193,178905,2,0,L|416:278,1,80,2|8,3:2|0:0,0:0:0:0:
334,306,179244,2,0,L|329:222,1,80,2|0,0:0|3:0,0:0:0:0:
317,138,179583,1,2,0:0:0:0:
317,138,179753,1,8,0:0:0:0:
255,75,179922,6,0,B|187:70|187:70|170:87|170:87|103:82,1,160,2|2,0:0|0:0,0:0:0:0:
57,158,180431,2,0,L|136:166,1,80,8|2,0:0|0:0,0:0:0:0:
205,221,180770,1,0,3:0:0:0:
205,221,180940,2,0,L|196:300,1,80,2|8,0:0|0:0,0:0:0:0:
266,352,181278,6,0,P|336:386|413:369,1,160,4|0,3:2|3:0,0:0:0:0:
465,297,181786,1,8,0:0:0:0:
429,216,181956,2,0,P|358:181|281:198,1,160,4|8,3:2|0:0,0:0:0:0:
209,247,182464,1,8,0:0:0:0:
152,179,182634,1,8,0:0:0:0:
152,179,182719,1,8,0:0:0:0:
152,179,182803,5,4,3:2:0:0:
95,247,182973,1,0,0:0:0:0:
21,198,183142,1,8,0:0:0:0:
32,110,183312,1,2,3:2:0:0:
32,110,183397,1,8,0:0:0:0:
32,110,183481,2,0,L|119:104,2,80,0|2|8,0:0|3:2|0:0,0:0:0:0:
40,21,183990,6,0,L|124:24,1,80,2|0,3:2|0:0,0:0:0:0:
207,30,184329,2,0,L|204:114,1,80,2|8,3:2|0:0,0:0:0:0:
202,198,184668,2,0,L|118:195,1,80,2|4,3:2|3:0,0:0:0:0:
52,140,185007,1,8,0:0:0:0:
52,140,185092,1,8,0:0:0:0:
52,140,185176,2,0,L|54:83,2,40,8|8|2,0:0|0:0|3:0,0:0:0:0:
15,220,185515,5,4,3:2:0:0:
39,304,185685,2,0,L|0:301,2,40,8|8|8,0:0|0:0|0:0,0:0:0:0:
122,276,186024,1,2,3:2:0:0:
289,330,186363,1,2,3:2:0:0:
498,192,186702,6,0,B|527:131|498:75|498:75|460:84,1,160,4|2,3:2|3:2,0:0:0:0:
367,106,187210,1,10,0:0:0:0:
304,178,187380,2,0,B|275:239|304:295|304:295|341:285,1,160,4|4,3:2|3:0,0:0:0:0:
373,283,187804,1,4,3:0:0:0:
373,283,187889,1,6,3:0:0:0:
401,176,188058,1,2,3:0:0:0:
401,176,188142,1,0,0:0:0:0:
401,176,188227,6,0,P|390:137|367:106,1,80,4|4,3:2|3:0,0:0:0:0:
390,20,188566,1,10,0:0:0:0:
390,20,188736,2,0,P|329:20|299:43,1,80,0|10,0:0|0:0,0:0:0:0:
241,79,189075,1,0,3:0:0:0:
166,32,189244,1,10,0:0:0:0:
91,79,189414,6,0,B|63:114|63:114|78:229,1,160,0|0,3:0|0:0,0:0:0:0:
50,311,189922,1,10,0:0:0:0:
50,311,190092,2,0,P|86:264|187:259,1,160,0|0,3:0|3:0,0:0:0:0:
258,296,190600,2,0,P|267:258|259:217,1,80,10|0,0:0|3:0,0:0:0:0:
205,149,190939,6,0,L|198:62,2,80,10|0|10,0:2|3:0|0:0,0:0:0:0:
283,108,191447,2,0,P|359:96|437:141,1,160,0|0,0:0|3:0,0:0:0:0:
485,202,191956,1,10,0:0:0:0:
429,278,192125,6,0,L|345:275,1,80,4|0,3:2|0:0,0:0:0:0:
265,303,192464,2,0,L|269:352,2,40,8|4|8,3:0|3:0|0:0,0:0:0:0:
182,272,192803,1,2,3:0:0:0:
182,272,192973,1,2,3:0:0:0:
97,293,193142,2,0,L|48:297,2,40,8|8|8,0:0|0:0|0:0,0:0:0:0:
73,207,193481,1,8,0:0:0:0:
73,207,193566,1,8,0:0:0:0:
72,206,193651,6,0,P|59:169|66:130,1,80,4|0,3:2|0:0,0:0:0:0:
20,54,193990,1,10,0:0:0:0:
20,54,194159,2,0,P|57:40|96:47,1,80,0|10,0:0|0:0,0:0:0:0:
174,87,194498,1,0,3:0:0:0:
252,47,194668,1,10,0:0:0:0:
329,87,194837,6,0,B|412:78|391:141|477:132,1,160,0|0,3:0|0:0,0:0:0:0:
494,218,195346,1,10,0:0:0:0:
494,218,195515,1,0,3:0:0:0:
405,215,195685,2,0,P|358:229|332:253,1,80,4|8,3:0|0:0,0:0:0:0:
308,284,195939,1,8,0:0:0:0:
308,284,196024,2,0,L|311:332,2,40,8|8|2,0:0|0:0|3:0,0:0:0:0:
231,240,196363,5,4,3:2:0:0:
271,162,196532,2,0,L|266:118,3,40,8|8|8|8,0:0|0:0|0:0|0:0,0:0:0:0:
260,78,196871,1,2,3:2:0:0:
92,23,197210,1,2,3:2:0:0:
92,23,197380,1,8,0:0:0:0:
38,92,197549,5,4,3:2:0:0:
44,267,197888,1,2,3:2:0:0:
220,266,198227,1,2,3:2:0:0:
214,91,198566,2,0,L|172:92,2,40,8|8|8,0:0|0:0|3:0,0:0:0:0:
287,42,198905,1,2,3:0:0:0:
287,42,198990,1,0,0:0:0:0:
287,42,199075,6,0,P|366:23|432:72,1,160,4|8,3:2|0:0,0:0:0:0:
478,136,199583,1,0,0:0:0:0:
478,136,199668,1,0,0:0:0:0:
478,136,199753,2,0,P|496:189|483:261,2,120,0|0|0,3:0|3:0|3:0,0:0:0:0:
390,155,200431,6,0,B|306:138|329:203|240:187,1,160,0|8,3:0|0:0,0:0:0:0:
168,137,200939,2,0,L|171:91,2,40,8|8|0,0:0|0:0|3:0,0:0:0:0:
94,186,201278,1,0,3:0:0:0:
122,269,201447,1,8,0:0:0:0:
122,269,201532,1,8,0:0:0:0:
122,269,201617,1,2,3:0:0:0:
62,345,201786,6,0,P|130:305|208:314,1,160,4|8,3:2|0:0,0:0:0:0:
293,338,202295,1,0,0:0:0:0:
293,338,202380,1,0,0:0:0:0:
293,337,202464,2,0,P|331:293|335:234,2,120,0|0|0,3:0|3:0|3:0,0:0:0:0:
207,313,203142,6,0,P|184:238|200:160,1,160,0|8,3:0|0:0,0:0:0:0:
154,84,203651,1,4,3:0:0:0:
200,9,203820,1,4,3:0:0:0:
287,21,203990,1,8,0:0:0:0:
287,21,204075,1,8,0:0:0:0:
287,21,204159,2,0,L|329:16,3,40,8|8|8|10,3:2|0:0|3:2|3:0,0:0:0:0:
370,11,204498,6,0,P|433:55|440:132,1,160,4|8,3:2|0:0,0:0:0:0:
365,179,205007,2,0,L|372:261,2,80,2|8|8,3:2|3:0|0:0,0:0:0:0:
289,132,205515,2,0,B|208:118|231:172|135:160,1,160,4|8,3:2|0:0,0:0:0:0:
69,101,206024,1,2,3:2:0:0:
16,269,206363,1,2,3:2:0:0:
189,241,206702,2,0,L|188:291,2,40,8|8|8,0:0|0:0|0:0,0:0:0:0:
262,192,207041,1,8,0:0:0:0:
262,192,207125,1,8,0:0:0:0:
262,192,207210,5,4,3:2:0:0:
345,219,207380,2,0,L|393:214,3,40,8|8|8|8,0:0|0:0|0:0|0:0,0:0:0:0:
428,211,207719,5,4,3:2:0:0:
483,278,207888,2,0,L|506:310,2,40,4|4|2,3:0|3:0|3:0,0:0:0:0:
423,343,208227,5,4,3:2:0:0:
334,336,208397,2,0,L|294:329,4,40,8|8|2|8|4,0:0|0:0|3:0|0:0|3:2,0:0:0:0:
384,263,208905,1,10,0:0:0:0:
384,263,209075,1,2,3:2:0:0:
