osu file format v14

[General]
AudioFilename: audio.mp3
AudioLeadIn: 0
PreviewTime: 144358
Countdown: 0
SampleSet: Normal
StackLeniency: 0.7
Mode: 1
LetterboxInBreaks: 0
WidescreenStoryboard: 0

[Editor]
DistanceSpacing: 1.2
BeatDivisor: 4
GridSize: 32
TimelineZoom: 1.599999

[Metadata]
Title:Magic people
TitleUnicode:Мэджик пипл
Artist:ATL
ArtistUnicode:ATL
Creator:nevqr
Version:Voodoo Oni
Source:
Tags:cryceptio clockbite кривой эфир krivoy efir hardstyle acidhouze acidhouse electronic russian русский hip hop hip-hop rap
BeatmapID:4049533
BeatmapSetID:1955209

[Difficulty]
HPDrainRate:6
CircleSize:2
OverallDifficulty:7.2
ApproachRate:9
SliderMultiplier:1.4
SliderTickRate:1

[Events]
//Background and Video events
0,0,"magicpeople.jpg",0,-120
//Break Periods
//Storyboard Layer 0 (Background)
//Storyboard Layer 1 (Fail)
//Storyboard Layer 2 (Pass)
//Storyboard Layer 3 (Foreground)
//Storyboard Layer 4 (Overlay)
//Storyboard Sound Samples

[TimingPoints]
601,346.820809248555,4,1,0,30,1,0
601,-133.333333333333,4,1,0,30,0,0
1902,346.820809248555,4,1,0,30,1,0
1902,-133.333333333333,4,1,0,30,0,0
6063,346.820809248555,4,1,0,30,1,0
6063,-133.333333333333,4,1,0,30,0,0
6409,-129.87012987013,4,1,0,32,0,0
6756,-126.582278481013,4,1,0,34,0,0
7103,-123.456790123457,4,1,0,36,0,0
7450,-120.481927710843,4,1,0,38,0,0
7797,-117.647058823529,4,1,0,39,0,0
8144,-114.942528735632,4,1,0,41,0,0
8490,-112.359550561798,4,1,0,43,0,0
8837,-109.89010989011,4,1,0,45,0,0
9184,-107.52688172043,4,1,0,47,0,0
9531,-105.263157894737,4,1,0,48,0,0
9878,-103.092783505155,4,1,0,49,0,0
10224,-101.010101010101,4,1,0,51,0,0
10571,-100,4,1,0,52,0,0
10918,-100,4,1,0,54,0,0
11091,-100,4,1,0,55,0,0
11265,-125,4,1,0,56,0,0
11438,-111.146700832799,4,1,0,58,0,0
11612,-100,4,1,0,60,0,0
21323,-105.28233151184,4,1,0,58,0,0
21496,-111.11823133611,4,1,0,56,0,0
21669,-117.678995588734,4,1,0,54,0,0
21843,-125.018024513338,4,1,0,52,0,0
22016,-133.333333333333,4,1,0,50,0,0
22363,-100,4,1,0,54,0,0
22536,-92.2803904170364,4,1,0,58,0,0
22710,-85.7025133910177,4,1,0,62,0,0
22797,-82.7366746221162,4,1,0,66,0,0
22883,-80,4,1,0,70,0,0
33461,-76.9230769230769,4,1,0,60,0,0
33635,-65.359477124183,4,1,0,70,0,0
33808,-57.1428571428571,4,1,0,80,0,0
33982,-66.6666666666667,4,1,0,80,0,0
42132,-65.8453796672126,4,1,0,81,0,0
42305,-65.0440817857813,4,1,0,82,0,0
42479,-64.2575862867732,4,1,0,83,0,0
42652,-63.4942434022294,4,1,0,84,0,0
42826,-62.7445658320327,4,1,0,86,0,0
42999,-62.0165437066846,4,1,0,87,0,0
43172,-61.3052222148556,4,1,0,88,0,0
43346,-60.6060606060606,4,1,0,89,0,0
43519,-59.8027008907193,4,1,0,90,0,0
43606,-59.4066941944323,4,1,0,88,0,0
43693,-59.0158976200828,4,1,0,86,0,0
43779,-58.6346135787398,4,1,0,84,0,0
43866,-58.2538764390872,4,1,0,82,0,0
43953,-57.8780519456443,4,1,0,81,0,0
44039,-57.5070456261858,4,1,0,79,0,0
44126,-57.144949023484,4,1,0,77,0,0
44213,-56.7832523962824,4,1,0,75,0,0
44299,-56.4261056588769,4,1,0,73,0,0
44386,-56.0774522659099,4,1,0,71,0,0
44473,-55.7291015869049,4,1,0,69,0,0
44560,-55.3850520676258,4,1,0,68,0,0
44646,-55.0491069067057,4,1,0,66,0,0
44733,-54.713376912427,4,1,0,64,0,0
44820,-54.3817171523629,4,1,0,62,0,0
44906,-54.054054054054,4,1,0,60,0,0
45253,-80,4,1,0,61,0,0
45600,-78.1947063796579,4,1,0,61,0,0
45947,-76.4690918341389,4,1,0,62,0,0
46294,-74.8179951465372,4,1,0,63,0,0
46641,-73.2366914362285,4,1,0,64,0,0
46987,-71.7251252684324,4,1,0,64,0,0
47334,-70.2705861726375,4,1,0,65,0,0
47681,-68.8738687134838,4,1,0,66,0,0
48028,-67.5315922493682,4,1,0,67,0,0
48375,-66.2406346408109,4,1,0,67,0,0
48721,-64.9981080058382,4,1,0,68,0,0
49068,-63.8047227381268,4,1,0,69,0,0
49415,-62.6511046269279,4,1,0,70,0,0
49762,-61.5384615384615,4,1,0,70,0,0
50109,-60.4646484964296,4,1,0,71,0,0
50456,-59.4276676716256,4,1,0,72,0,0
50802,-58.4256559766764,4,1,0,73,0,0
51149,-57.459619611966,4,1,0,73,0,0
51496,-56.5223522775349,4,1,0,74,0,0
51843,-55.6151711378353,4,1,0,75,0,0
52190,-54.7366504301907,4,1,0,76,0,0
52536,-53.8854530787846,4,1,0,76,0,0
52883,-53.06266548985,4,1,0,77,0,0
53230,-52.2623549354544,4,1,0,78,0,0
53577,-51.4858268390854,4,1,0,79,0,0
53924,-50.7320366229273,4,1,0,79,0,0
54271,-50,4,1,0,80,0,0
54617,-33.3333333333333,4,1,0,80,0,0
55658,-66.6666666666667,4,1,0,70,0,0
55831,-55.5555555555556,4,1,0,80,0,0
56005,-47.6190476190476,4,1,0,90,0,1
56091,-54.054054054054,4,1,0,90,0,1
64415,-55.1633623003957,4,1,0,89,0,1
64502,-56.3328798001746,4,1,0,88,0,1
64589,-57.5530612668313,4,1,0,86,0,1
64675,-58.8123052133907,4,1,0,85,0,1
64762,-60.1435292587212,4,1,0,84,0,1
64849,-61.5364138512389,4,1,0,82,0,1
64935,-62.9781823960769,4,1,0,81,0,1
65022,-64.5071274097156,4,1,0,80,0,1
65109,-66.1121571057461,4,1,0,79,0,1
65195,-67.7990956861787,4,1,0,78,0,1
65282,-69.5534438231828,4,1,0,76,0,1
65369,-71.4230541466052,4,1,0,75,0,1
65456,-73.3959518454822,4,1,0,74,0,1
65542,-75.4563011723744,4,1,0,72,0,1
65629,-77.6617486491783,4,1,0,71,0,1
65716,-80,4,1,0,70,0,0
65889,-62.5,4,1,0,90,0,0
65932,-59.6707818930041,4,1,0,80,0,0
65976,-57.1428571428571,4,1,0,70,0,0
66236,-62.5,4,1,0,90,0,0
66279,-59.5238095238095,4,1,0,80,0,0
66323,-57.1428571428571,4,1,0,70,0,0
66583,-62.5,4,1,0,90,0,0
66626,-59.5238095238095,4,1,0,80,0,0
66669,-57.1428571428571,4,1,0,70,0,0
66930,-62.5,4,1,0,90,0,0
66973,-59.5238095238095,4,1,0,80,0,0
67016,-57.1428571428571,4,1,0,70,0,0
67103,-47.6190476190476,4,1,0,90,0,1
67190,-54.054054054054,4,1,0,90,0,1
75513,-54.7970455413216,4,1,0,89,0,1
75600,-55.5518479465036,4,1,0,88,0,1
75687,-56.3368842806286,4,1,0,88,0,1
75773,-57.1444262902805,4,1,0,87,0,1
75860,-57.9657664935029,4,1,0,86,0,1
75947,-58.8210353745919,4,1,0,85,0,1
76034,-59.7019207321447,4,1,0,84,0,1
76120,-60.5990011793655,4,1,0,83,0,1
76207,-61.5343672841788,4,1,0,82,0,1
76294,-62.4990614629165,4,1,0,82,0,1
76380,-63.4944850417245,4,1,0,81,0,1
76467,-64.510129113257,4,1,0,80,0,1
76554,-65.5711877491217,4,1,0,79,0,1
76641,-66.6677345464448,4,1,0,78,0,1
76727,-67.7883284199554,4,1,0,78,0,1
76814,-68.9609464318261,4,1,0,77,0,1
76901,-70.1748469878096,4,1,0,76,0,1
76987,-71.4175403675549,4,1,0,75,0,1
77074,-72.7202837523806,4,1,0,74,0,1
77161,-74.0714374699674,4,1,0,73,0,1
77247,-75.4737510200381,4,1,0,72,0,1
77334,-76.9131262358398,4,1,0,72,0,1
77421,-78.4261998530215,4,1,0,71,0,1
77508,-80,4,1,0,70,0,0
77854,-59.8802395209581,4,1,0,80,0,0
78201,-47.6190476190476,4,1,0,90,0,1
78548,-50,4,1,0,90,0,1
78635,-53.3333333333333,4,1,0,80,0,1
78721,-57.1428571428571,4,1,0,70,0,1
78895,-50,4,1,0,90,0,1
78982,-53.1914893617021,4,1,0,80,0,1
79068,-57.1428571428571,4,1,0,70,0,1
79242,-50,4,1,0,90,0,1
79328,-53.1914893617021,4,1,0,80,0,1
79415,-57.1428571428571,4,1,0,70,0,1
79589,-59.265584970111,4,1,0,68,0,0
79762,-61.5384615384615,4,1,0,65,0,0
79935,-63.9926233287229,4,1,0,62,0,0
80109,-66.6666666666667,4,1,0,60,0,0
80282,-69.556502129792,4,1,0,58,0,0
80456,-72.7272727272727,4,1,0,55,0,0
80629,-76.1800219538968,4,1,0,52,0,0
80802,-80,4,1,0,50,0,0
80976,-44.4444444444445,4,1,0,90,0,1
81019,-46.9483568075117,4,1,0,90,0,1
81063,-50,4,1,0,90,0,1
81409,-53.3127889060092,4,1,0,80,0,1
81496,-57.1428571428571,4,1,0,70,0,1
81669,-50,4,1,0,90,0,1
81756,-53.3127889060092,4,1,0,80,0,1
81843,-57.1428571428571,4,1,0,70,0,1
82016,-50,4,1,0,90,0,1
82103,-53.3333333333333,4,1,0,80,0,1
82190,-57.1428571428571,4,1,0,70,0,1
82363,-59.2545124425932,4,1,0,68,0,0
82536,-61.5418746533555,4,1,0,65,0,0
82710,-63.9981543430615,4,1,0,62,0,0
82883,-66.6586567343506,4,1,0,60,0,0
83057,-69.5673981191223,4,1,0,58,0,0
83230,-72.722506226242,4,1,0,55,0,0
83404,-76.1983244059882,4,1,0,52,0,0
83577,-80,4,1,0,50,0,0
83750,-47.6190476190476,4,1,0,90,0,1
84097,-50,4,1,0,90,0,1
84184,-53.1914893617021,4,1,0,80,0,1
84271,-57.1428571428571,4,1,0,70,0,1
84444,-50,4,1,0,90,0,1
84531,-53.1914893617021,4,1,0,80,0,1
84704,-50,4,1,0,90,0,1
84791,-53.1914893617021,4,1,0,80,0,1
84964,-50,4,1,0,90,0,1
85138,-54.054054054054,4,1,0,90,0,1
86525,-53.6202977874669,4,1,0,91,0,1
86698,-53.1934474507638,4,1,0,91,0,1
86872,-52.77093033872,4,1,0,92,0,1
86958,-52.5621788750966,4,1,0,93,0,1
87045,-52.3574437248064,4,1,0,94,0,1
87219,-51.9480519480519,4,1,0,94,0,1
87305,-51.748063924079,4,1,0,95,0,1
87392,-51.5473111566931,4,1,0,96,0,1
87565,-51.1504424778761,4,1,0,96,0,1
87652,-50.9565370713215,4,1,0,97,0,1
87739,-50.7618671233478,4,1,0,98,0,1
87912,-50.379151050292,4,1,0,99,0,1
87999,-50.1888594625103,4,1,0,99,0,1
88086,-50,4,1,0,100,0,0
88259,-53.4260440962901,4,1,0,97,0,0
88432,-57.3805359928156,4,1,0,94,0,0
88606,-61.9387755102041,4,1,0,91,0,0
88779,-67.283711134512,4,1,0,88,0,0
88953,-73.6784608848698,4,1,0,85,0,0
89126,-81.3672922252011,4,1,0,82,0,0
89299,-90.9090909090909,4,1,0,80,0,0
89473,-100,4,1,0,60,0,0
89646,-83.3333333333333,4,1,0,70,0,0
89733,-85.71898650872,4,1,0,68,0,0
89820,-88.2452574525745,4,1,0,66,0,0
89993,-93.738754947823,4,1,0,64,0,0
90080,-96.7682020802377,4,1,0,62,0,0
90167,-100,4,1,0,60,0,0
92421,-83.3333333333333,4,1,0,70,0,0
92508,-84.7507331378299,4,1,0,69,0,0
92594,-86.2000397693378,4,1,0,68,0,0
92768,-89.2893923789907,4,1,0,66,0,0
92854,-90.9186241610738,4,1,0,65,0,0
92941,-92.5886373344724,4,1,0,64,0,0
93115,-96.1623779946761,4,1,0,62,0,0
93201,-98.0325644504749,4,1,0,61,0,0
93288,-100,4,1,0,60,0,0
95195,-83.3333333333333,4,1,0,70,0,0
95282,-85.6954515491101,4,1,0,68,0,0
95369,-88.2253138785205,4,1,0,66,0,0
95542,-93.7274693583273,4,1,0,64,0,0
95629,-96.7621883141049,4,1,0,62,0,0
95716,-100,4,1,0,60,0,0
97450,-98.9035365699075,4,1,0,60,0,0
97623,-97.8308569995611,4,1,0,60,0,0
97797,-96.7751937984496,4,1,0,60,0,0
97970,-95.7479445330715,4,1,0,60,0,0
98057,-95.2395483674092,4,1,0,61,0,0
98143,-94.7365225837785,4,1,0,61,0,0
98317,-93.7518774406729,4,1,0,62,0,0
98490,-92.7874895944821,4,1,0,62,0,0
98664,-91.8373352165725,4,1,0,63,0,0
98750,-91.3748682515517,4,1,0,63,0,0
98837,-90.9117390037868,4,1,0,64,0,0
99010,-89.9994232654709,4,1,0,64,0,0
99184,-89.1103243490178,4,1,0,65,0,0
99357,-88.238620299689,4,1,0,65,0,0
99444,-87.8066621652037,4,1,0,66,0,0
99531,-87.3789125930903,4,1,0,66,0,0
99704,-86.540594498669,4,1,0,67,0,0
99878,-85.713501043612,4,1,0,67,0,0
100051,-84.9066869797051,4,1,0,68,0,0
100138,-84.5066608902849,4,1,0,68,0,0
100224,-84.1149202242346,4,1,0,69,0,0
100311,-83.7223026986426,4,1,0,69,0,0
100398,-80,4,1,0,70,0,0
100571,-90.9090909090909,4,1,0,60,0,0
110109,-90.9090909090909,4,1,0,58,0,0
110282,-96.7621883141049,4,1,0,55,0,0
110456,-103.461997612415,4,1,0,52,0,0
110629,-111.111111111111,4,1,0,50,0,0
110802,-80,4,1,0,90,0,0
110846,-75.036075036075,4,1,0,80,0,0
110889,-70.6521739130435,4,1,0,70,0,0
110932,-66.6666666666667,4,1,0,60,0,0
111149,-80,4,1,0,90,0,0
111193,-75.187969924812,4,1,0,80,0,0
111236,-70.4225352112676,4,1,0,70,0,0
111279,-66.6666666666667,4,1,0,60,0,0
111496,-80,4,1,0,70,0,0
122247,-76.9230769230769,4,1,0,60,0,0
122421,-65.359477124183,4,1,0,70,0,0
122594,-57.1428571428571,4,1,0,80,0,0
122768,-66.6666666666667,4,1,0,80,0,0
130918,-65.8453796672126,4,1,0,81,0,0
131091,-65.0395066938642,4,1,0,82,0,0
131265,-64.2575862867732,4,1,0,84,0,0
131438,-63.4942434022294,4,1,0,85,0,0
131612,-62.7445658320327,4,1,0,86,0,0
131785,-62.0165437066846,4,1,0,88,0,0
131958,-61.3011579598692,4,1,0,89,0,0
132132,-60.6060606060606,4,1,0,89,0,0
132305,-59.8027008907193,4,1,0,90,0,0
132392,-59.4066941944323,4,1,0,88,0,0
132479,-59.0158976200828,4,1,0,86,0,0
132565,-58.6302090180097,4,1,0,84,0,0
132652,-58.2538764390872,4,1,0,82,0,0
132739,-57.8780519456443,4,1,0,81,0,0
132826,-57.5070456261858,4,1,0,79,0,0
132912,-57.144949023484,4,1,0,77,0,0
132999,-56.7832523962824,4,1,0,75,0,0
133086,-56.4261056588769,4,1,0,73,0,0
133172,-56.0774522659099,4,1,0,71,0,0
133259,-55.7291015869049,4,1,0,69,0,0
133346,-55.3850520676258,4,1,0,68,0,0
133432,-55.0452245358534,4,1,0,66,0,0
133519,-54.713376912427,4,1,0,64,0,0
133606,-54.3817171523629,4,1,0,62,0,0
133693,-44.4444444444445,4,1,0,60,0,0
134039,-80,4,1,0,60,0,0
140976,-76.9213707441499,4,1,0,61,0,0
141149,-75.4733405875952,4,1,0,62,0,0
141323,-74.070909867578,4,1,0,64,0,0
141669,-71.4241581711461,4,1,0,65,0,0
141843,-70.174018615945,4,1,0,66,0,0
142016,-68.966888734215,4,1,0,68,0,0
142190,-67.7939595347473,4,1,0,69,0,0
142363,-66.6666666666667,4,1,0,70,0,0
142710,-64.5149288438285,4,1,0,71,0,0
143057,-62.4977473418634,4,1,0,72,0,0
143230,-61.5384615384615,4,1,0,74,0,0
143404,-60.6028833551769,4,1,0,75,0,0
143577,-59.7004647960062,4,1,0,76,0,0
143750,-58.8245271817488,4,1,0,78,0,0
143924,-57.9690764730464,4,1,0,79,0,0
144097,-57.1428571428571,4,1,0,80,0,0
144444,-66.6666666666667,4,1,0,70,0,0
144617,-55.5555555555556,4,1,0,80,0,0
144791,-47.6190476190476,4,1,0,90,0,1
144878,-54.054054054054,4,1,0,90,0,1
153201,-55.1633623003957,4,1,0,89,0,1
153288,-56.3328798001746,4,1,0,88,0,1
153375,-57.5530612668313,4,1,0,86,0,1
153461,-58.8123052133907,4,1,0,85,0,1
153548,-60.1435292587212,4,1,0,84,0,1
153635,-61.5364138512389,4,1,0,82,0,1
153721,-62.9781823960769,4,1,0,81,0,1
153808,-64.5071274097156,4,1,0,80,0,1
153895,-66.1121571057461,4,1,0,79,0,1
153982,-67.7990956861787,4,1,0,78,0,1
154068,-69.5534438231828,4,1,0,76,0,1
154155,-71.4230541466052,4,1,0,75,0,1
154242,-73.3959518454822,4,1,0,74,0,1
154328,-75.4563011723744,4,1,0,72,0,1
154415,-77.6617486491783,4,1,0,71,0,1
154502,-80,4,1,0,70,0,0
154675,-62.5,4,1,0,90,0,0
154719,-59.6707818930041,4,1,0,80,0,0
154762,-57.1428571428571,4,1,0,70,0,0
155022,-62.5,4,1,0,90,0,0
155065,-59.7322348094748,4,1,0,80,0,0
155109,-57.1428571428571,4,1,0,70,0,0
155369,-62.5,4,1,0,90,0,0
155412,-59.7322348094748,4,1,0,80,0,0
155456,-57.1428571428571,4,1,0,70,0,0
155716,-62.5,4,1,0,90,0,0
155759,-59.7014925373134,4,1,0,80,0,0
155802,-57.1428571428571,4,1,0,70,0,0
155889,-47.6190476190476,4,1,0,90,0,1
155976,-54.054054054054,4,1,0,90,0,1
164299,-54.7970455413216,4,1,0,89,0,1
164386,-55.5518479465036,4,1,0,88,0,1
164473,-56.3368842806286,4,1,0,88,0,1
164560,-57.1444262902805,4,1,0,87,0,1
164646,-57.9657664935029,4,1,0,86,0,1
164733,-58.8210353745919,4,1,0,85,0,1
164820,-59.7019207321447,4,1,0,84,0,1
164906,-60.5990011793655,4,1,0,83,0,1
164993,-61.5343672841788,4,1,0,82,0,1
165080,-62.4990614629165,4,1,0,82,0,1
165167,-63.4944850417245,4,1,0,81,0,1
165253,-64.510129113257,4,1,0,80,0,1
165340,-65.5711877491217,4,1,0,79,0,1
165427,-66.6677345464448,4,1,0,78,0,1
165513,-67.7883284199554,4,1,0,78,0,1
165600,-68.9609464318261,4,1,0,77,0,1
165687,-70.1748469878096,4,1,0,76,0,1
165773,-71.4175403675549,4,1,0,75,0,1
165860,-72.7202837523806,4,1,0,74,0,1
165947,-74.0714374699674,4,1,0,73,0,1
166034,-75.4737510200381,4,1,0,72,0,1
166120,-76.9131262358398,4,1,0,72,0,1
166207,-78.4261998530215,4,1,0,71,0,1
166294,-80,4,1,0,70,0,0
166641,-59.8802395209581,4,1,0,80,0,0
166987,-47.6190476190476,4,1,0,90,0,1
167334,-50,4,1,0,90,0,1
167421,-53.1914893617021,4,1,0,80,0,1
167508,-57.1428571428571,4,1,0,70,0,1
167681,-50,4,1,0,90,0,1
167768,-53.1914893617021,4,1,0,80,0,1
167854,-57.1428571428571,4,1,0,70,0,1
168028,-50,4,1,0,90,0,1
168115,-53.1914893617021,4,1,0,80,0,1
168201,-57.1428571428571,4,1,0,70,0,1
168375,-59.1715976331361,4,1,0,60,0,0
168548,-62.5,4,1,0,90,0,0
168591,-59.6707818930041,4,1,0,80,0,0
168635,-57.1428571428571,4,1,0,70,0,0
168895,-62.5,4,1,0,90,0,0
168938,-59.7322348094748,4,1,0,80,0,0
168982,-57.1428571428571,4,1,0,70,0,0
169242,-62.5,4,1,0,90,0,0
169285,-59.7322348094748,4,1,0,80,0,0
169328,-57.1428571428571,4,1,0,70,0,0
169589,-62.5,4,1,0,90,0,0
169632,-59.7014925373134,4,1,0,80,0,0
169675,-57.1428571428571,4,1,0,70,0,0
169762,-47.6190476190476,4,1,0,90,0,1
170109,-50,4,1,0,90,0,1
170195,-53.3538936006168,4,1,0,80,0,1
170282,-57.1428571428571,4,1,0,70,0,1
170456,-50,4,1,0,90,0,1
170542,-53.3127889060092,4,1,0,80,0,1
170629,-57.1428571428571,4,1,0,70,0,1
170802,-50,4,1,0,90,0,1
170889,-53.3127889060092,4,1,0,80,0,1
170976,-57.1428571428571,4,1,0,70,0,1
171149,-59.2545124425932,4,1,0,69,0,0
171323,-61.5418746533555,4,1,0,68,0,0
171496,-63.9981543430615,4,1,0,66,0,0
171669,-66.6746785242158,4,1,0,65,0,0
171843,-69.5673981191223,4,1,0,64,0,0
172016,-72.722506226242,4,1,0,62,0,0
172190,-76.1983244059882,4,1,0,61,0,0
172363,-80,4,1,0,60,0,0
172536,-47.6190476190476,4,1,0,90,0,1
172883,-50,4,1,0,90,0,1
172970,-53.3333333333333,4,1,0,80,0,1
173057,-57.1428571428571,4,1,0,70,0,1
173230,-50,4,1,0,90,0,1
173317,-53.3333333333333,4,1,0,80,0,1
173404,-57.1428571428571,4,1,0,70,0,1
173577,-50,4,1,0,90,0,1
173664,-53.1914893617021,4,1,0,80,0,1
173750,-57.1428571428571,4,1,0,70,0,1
173924,-54.054054054054,4,1,0,90,0,1
174617,-57.1428571428571,4,1,0,80,0,1
174704,-56.3426152092493,4,1,0,82,0,1
174791,-55.5555555555556,4,1,0,84,0,1
174849,-55.042952593064,4,1,0,84,0,1
174878,-55.042952593064,4,1,0,86,0,1
174906,-54.5397225725095,4,1,0,86,0,1
174921,-54.5397225725095,4,1,0,88,0,1
174964,-54.054054054054,4,1,0,90,0,1
177045,-57.1365783979782,4,1,0,87,0,1
177132,-58.8235294117647,4,1,0,84,0,1
177219,-60.6131250728523,4,1,0,81,0,1
177392,-64.5161290322581,4,1,0,79,0,0
177479,-66.6752147711245,4,1,0,76,0,0
177652,-71.4285714285714,4,1,0,73,0,0
177739,-74.0846274398062,4,1,0,70,0,0
177912,-80,4,1,0,80,0,0
178086,-50,4,1,0,90,0,1
178172,-57.1428571428571,4,1,0,90,0,1
183808,-56.8534457520932,4,1,0,90,0,1
183982,-56.5653035069323,4,1,0,90,0,1
184068,-56.4239642047766,4,1,0,91,0,1
184155,-56.2816983045935,4,1,0,91,0,1
184242,-56.1401480111008,4,1,0,91,0,1
184328,-55.9993079385219,4,1,0,91,0,1
184415,-55.8607795196318,4,1,0,91,0,1
184502,-55.7213359348101,4,1,0,92,0,1
184675,-55.4461099214846,4,1,0,92,0,1
184762,-55.3087263613579,4,1,0,92,0,1
184849,-55.1720219324413,4,1,0,92,0,1
185022,-54.9021825172453,4,1,0,92,0,1
185109,-54.7674779322598,4,1,0,93,0,1
185195,-54.6334327350475,4,1,0,93,0,1
185282,-54.5015716210148,4,1,0,93,0,1
185369,-54.3688233153224,4,1,0,93,0,1
185456,-54.2367201027761,4,1,0,93,0,1
185542,-54.1067647386604,4,1,0,94,0,1
185629,-53.9759304038467,4,1,0,94,0,1
185716,-53.8457272777685,4,1,0,94,0,1
185889,-53.5886751841938,4,1,0,94,0,1
186063,-53.3326009941504,4,1,0,94,0,1
186149,-53.206937176361,4,1,0,95,0,1
186236,-53.0804132728366,4,1,0,95,0,1
186409,-52.8305993090128,4,1,0,95,0,1
186496,-52.705856809423,4,1,0,95,0,1
186583,-52.5817020009206,4,1,0,96,0,1
186669,-52.4581307401405,4,1,0,96,0,1
186756,-52.3365493451194,4,1,0,96,0,1
186843,-52.2141263140914,4,1,0,96,0,1
186930,-52.0922746781116,4,1,0,96,0,1
187016,-51.9723813092116,4,1,0,97,0,1
187103,-51.851654073105,4,1,0,97,0,1
187190,-51.7314864144912,4,1,0,97,0,1
187276,-51.6118744518564,4,1,0,97,0,1
187363,-51.494179725824,4,1,0,97,0,1
187450,-51.3756613756614,4,1,0,98,0,1
187536,-51.2576873333861,4,1,0,98,0,1
187623,-51.1416006109604,4,1,0,98,0,1
187710,-51.0246978455071,4,1,0,98,0,1
187797,-50.9083283089103,4,1,0,98,0,1
187883,-50.7938168597808,4,1,0,99,0,1
187970,-50.678496868476,4,1,0,99,0,1
188057,-50.5636993256438,4,1,0,99,0,1
188143,-50.4494206889385,4,1,0,99,0,1
188230,-50.3369621565578,4,1,0,99,0,1
188317,-50.2237049680606,4,1,0,100,0,1
188404,-50.1109562883831,4,1,0,100,0,1
188490,-50,4,1,0,100,0,0
189184,-47.6190476190476,4,1,0,90,0,1
189531,-50,4,1,0,90,0,1
189617,-53.3538936006168,4,1,0,89,0,1
189704,-57.1428571428571,4,1,0,88,0,1
189878,-50,4,1,0,87,0,1
189964,-53.3127889060092,4,1,0,86,0,1
190051,-57.1428571428571,4,1,0,85,0,1
190224,-50,4,1,0,84,0,1
190311,-53.3333333333333,4,1,0,83,0,1
190398,-57.1428571428571,4,1,0,82,0,1
190571,-50,4,1,0,81,0,1
190658,-53.3333333333333,4,1,0,80,0,1
190745,-57.1428571428571,4,1,0,80,0,1
190918,-50,4,1,0,79,0,1
191005,-53.3333333333333,4,1,0,78,0,1
191091,-57.1428571428571,4,1,0,77,0,1
191265,-50,4,1,0,76,0,1
191352,-53.3538936006168,4,1,0,75,0,1
191438,-57.1428571428571,4,1,0,74,0,1
191612,-59.265584970111,4,1,0,73,0,1
191785,-61.5384615384615,4,1,0,72,0,1
191958,-64.0073783721466,4,1,0,71,0,1
192132,-66.6666666666667,4,1,0,70,0,1
192305,-50,4,1,0,90,0,1
192392,-53.3333333333333,4,1,0,80,0,1
192479,-57.1428571428571,4,1,0,70,0,1
192652,-50,4,1,0,90,0,1
192739,-53.3333333333333,4,1,0,80,0,1
192826,-57.1428571428571,4,1,0,70,0,1
192999,-50,4,1,0,90,0,1
193086,-53.3538936006168,4,1,0,80,0,1
193172,-57.1428571428571,4,1,0,70,0,1
193346,-57.1428571428571,4,1,0,90,0,1
194039,-58.8295165394402,4,1,0,85,0,1
194126,-59.7004647960062,4,1,0,80,0,1
194213,-60.6081789584062,4,1,0,76,0,1
194299,-61.5439219165927,4,1,0,71,0,1
194386,-62.4977473418634,4,1,0,65,0,1
194560,-64.5209302325581,4,1,0,60,0,1
194733,-50,4,1,0,90,0,1
195167,-53.3538936006168,4,1,0,80,0,1
195253,-57.1428571428571,4,1,0,70,0,1
195427,-50,4,1,0,90,0,1
195513,-53.3538936006168,4,1,0,80,0,1
195600,-57.1428571428571,4,1,0,70,0,1
195773,-50,4,1,0,90,0,1
195860,-53.3127889060092,4,1,0,80,0,1
195947,-57.1428571428571,4,1,0,70,0,1
196120,-57.1428571428571,4,1,0,90,0,1
197854,-50,4,1,0,90,0,1
197941,-53.3127889060092,4,1,0,88,0,1
198028,-57.1428571428571,4,1,0,87,0,1
198201,-50,4,1,0,86,0,1
198288,-53.3333333333333,4,1,0,84,0,1
198375,-57.1428571428571,4,1,0,82,0,1
198548,-50,4,1,0,81,0,1
198635,-53.3333333333333,4,1,0,80,0,1
198721,-57.1428571428571,4,1,0,78,0,1
198895,-50,4,1,0,76,0,1
198982,-53.3538936006168,4,1,0,75,0,1
199068,-57.1428571428571,4,1,0,74,0,1
199242,-50,4,1,0,72,0,1
199328,-53.3538936006168,4,1,0,70,0,1
199415,-57.1428571428571,4,1,0,69,0,1
199589,-50,4,1,0,68,0,1
199675,-52.4404086265607,4,1,0,66,0,1
199849,-58.1863979848867,4,1,0,64,0,1
199935,-61.5179760319574,4,1,0,63,0,1
200109,-69.5783132530121,4,1,0,62,0,1
200282,-65.7894736842105,4,1,0,60,0,0
200456,-62.5,4,1,0,90,0,0
200499,-61.0767872903795,4,1,0,83,0,0
200542,-59.7169485674836,4,1,0,77,0,0
200629,-57.1428571428571,4,1,0,70,0,0
200802,-62.5,4,1,0,90,0,0
200846,-61.0767872903795,4,1,0,83,0,0
200889,-59.7169485674836,4,1,0,77,0,0
200976,-57.1428571428571,4,1,0,70,0,0
201149,-62.5,4,1,0,90,0,0
201193,-61.0526315789474,4,1,0,85,0,0
201236,-59.7014925373134,4,1,0,80,0,0
201279,-58.4088620342397,4,1,0,75,0,0
201323,-57.1428571428571,4,1,0,70,0,0
201496,-62.5,4,1,0,90,0,0
201539,-59.6707818930041,4,1,0,80,0,0
201583,-57.1428571428571,4,1,0,70,0,0
201669,-50,4,1,0,90,0,1
202016,-57.1428571428571,4,1,0,90,0,1
203750,-60.6060606060606,4,1,0,80,0,1
203808,-59.9982709432005,4,1,0,82,0,1
203866,-59.4025507147137,4,1,0,84,0,1
203924,-58.8185439444021,4,1,0,86,0,1
204010,-57.9637517748267,4,1,0,88,0,1
204097,-57.1428571428571,4,1,0,90,0,1
205138,-60.6187729417934,4,1,0,87,0,1
205224,-62.4977473418634,4,1,0,83,0,1
205398,-66.679484714478,4,1,0,80,0,1
205484,-68.9874676745574,4,1,0,77,0,1
205658,-74.0867336039308,4,1,0,73,0,1
205831,-80,4,1,0,70,0,0
206178,-57.1428571428571,4,1,0,90,0,1
206525,-57.1428571428571,4,1,0,89,0,1
206612,-57.5931405108387,4,1,0,88,0,1
206785,-58.5099530718032,4,1,0,87,0,1
206872,-58.9821285016387,4,1,0,86,0,1
207045,-59.9440656129215,4,1,0,85,0,1
207219,-60.9437398166193,4,1,0,84,0,1
207305,-61.450246432368,4,1,0,83,0,1
207392,-61.971281918004,4,1,0,82,0,1
207565,-63.0403172504957,4,1,0,81,0,1
207652,-63.5824278381441,4,1,0,80,0,1
207739,-64.1404122255472,4,1,0,79,0,1
207912,-65.2795838751625,4,1,0,78,0,1
207999,-65.8678913020959,4,1,0,77,0,1
208172,-67.0698263131988,4,1,0,76,0,1
208259,-67.690997480572,4,1,0,75,0,1
208432,-68.9685093459633,4,1,0,74,0,1
208606,-70.2873986735446,4,1,0,73,0,1
208693,-70.969902154098,4,1,0,72,0,1
208779,-71.6577138349423,4,1,0,71,0,1
208953,-73.0909230238706,4,1,0,70,0,1
209039,-73.8292437495162,4,1,0,70,0,1
209126,-74.573885848319,4,1,0,69,0,1
209299,-76.1273844680342,4,1,0,68,0,1
209473,-77.7374791148784,4,1,0,67,0,1
209646,-79.4171523730225,4,1,0,66,0,1
209733,-80.2895744770403,4,1,0,65,0,1
209820,-81.1813771384799,4,1,0,64,0,1
209993,-83.0149266721789,4,1,0,63,0,1
210080,-83.9686592129589,4,1,0,62,0,1
210167,-84.9445607160351,4,1,0,61,0,1
210253,-85.9317987296725,4,1,0,60,0,1
210340,-86.954143495305,4,1,0,59,0,1
210427,-88.0011071642755,4,1,0,58,0,1
210513,-89.0735898393724,4,1,0,57,0,1
210600,-90.1597504490027,4,1,0,56,0,1
210687,-91.2858305019859,4,1,0,55,0,1
210773,-92.4403954254701,4,1,0,54,0,1
210947,-94.8252721578764,4,1,0,53,0,0
211034,-96.071716357776,4,1,0,52,0,0
211207,-98.6502559859337,4,1,0,51,0,0
211294,-100,4,1,0,50,0,0

[HitObjects]
256,192,601,5,0,1:0:0:0:
256,192,1207,1,8,1:0:0:0:
256,192,1902,1,0,1:0:0:0:
256,192,2595,1,8,1:0:0:0:
256,192,3289,1,0,1:0:0:0:
256,192,3982,1,8,1:0:0:0:
256,192,4676,1,0,1:0:0:0:
256,192,5370,1,8,1:0:0:0:
256,192,6063,8,0,11091,1:0:0:0:
256,192,11265,5,8,1:0:0:0:
256,192,11438,1,8,1:0:0:0:
256,192,11612,1,4,1:0:0:0:
256,192,11958,1,0,1:0:0:0:
256,192,12132,1,0,1:0:0:0:
256,192,12305,1,8,1:0:0:0:
256,192,12652,1,0,1:0:0:0:
256,192,12826,1,0,1:0:0:0:
256,192,12999,1,8,1:0:0:0:
256,192,13172,1,8,1:0:0:0:
256,192,13346,1,0,1:0:0:0:
256,192,13519,1,0,1:0:0:0:
256,192,13693,1,8,1:0:0:0:
256,192,14039,1,0,1:0:0:0:
256,192,14213,1,0,1:0:0:0:
256,192,14386,1,8,1:0:0:0:
256,192,14560,1,0,1:0:0:0:
256,192,14733,1,8,1:0:0:0:
256,192,14906,1,8,1:0:0:0:
256,192,15080,1,0,1:0:0:0:
256,192,15253,1,8,0:0:0:0:
256,192,15427,1,0,1:0:0:0:
256,192,15600,1,0,1:0:0:0:
256,192,15773,1,8,1:0:0:0:
256,192,15947,1,0,1:0:0:0:
256,192,16120,1,8,1:0:0:0:
256,192,16294,1,8,1:0:0:0:
256,192,16467,1,0,1:0:0:0:
256,192,16814,1,8,1:0:0:0:
256,192,16987,1,0,1:0:0:0:
256,192,17074,1,0,1:0:0:0:
256,192,17161,1,8,1:0:0:0:
256,192,17508,1,8,1:0:0:0:
256,192,17681,1,8,1:0:0:0:
256,192,17854,1,0,1:0:0:0:
256,192,18028,1,0,1:0:0:0:
256,192,18201,1,8,1:0:0:0:
256,192,18375,1,0,1:0:0:0:
256,192,18548,1,8,1:0:0:0:
256,192,18721,1,0,0:0:0:0:
256,192,18895,1,8,1:0:0:0:
256,192,19068,1,8,1:0:0:0:
256,192,19242,1,0,1:0:0:0:
256,192,19415,1,8,1:0:0:0:
256,192,19589,1,0,1:0:0:0:
256,192,19762,1,0,0:0:0:0:
256,192,19935,1,8,1:0:0:0:
256,192,20109,1,0,1:0:0:0:
256,192,20282,1,8,1:0:0:0:
256,192,20456,1,8,1:0:0:0:
256,192,20629,1,0,1:0:0:0:
256,192,20976,1,8,1:0:0:0:
256,192,21149,1,0,1:0:0:0:
256,192,21323,1,8,1:0:0:0:
256,192,21496,1,8,1:0:0:0:
256,192,21669,1,0,1:0:0:0:
256,192,21843,1,0,1:0:0:0:
256,192,22016,1,8,1:0:0:0:
256,192,22363,1,0,1:0:0:0:
256,192,22536,1,0,1:0:0:0:
256,192,22710,1,8,1:0:0:0:
256,192,22797,1,0,1:0:0:0:
256,192,22883,1,0,1:0:0:0:
256,192,23057,1,8,1:0:0:0:
256,192,23230,1,0,1:0:0:0:
256,192,23404,1,8,1:0:0:0:
256,192,23490,1,8,1:0:0:0:
256,192,23577,1,0,1:0:0:0:
256,192,23750,1,8,1:0:0:0:
256,192,23924,1,0,1:0:0:0:
256,192,24010,1,0,1:0:0:0:
256,192,24097,1,8,1:0:0:0:
256,192,24271,1,0,1:0:0:0:
256,192,24444,1,8,1:0:0:0:
256,192,24531,1,8,1:0:0:0:
256,192,24617,1,0,1:0:0:0:
256,192,24704,1,0,1:0:0:0:
256,192,24791,1,8,1:0:0:0:
256,192,24964,1,0,1:0:0:0:
256,192,25138,1,8,1:0:0:0:
256,192,25224,1,8,1:0:0:0:
256,192,25311,1,8,1:0:0:0:
256,192,25484,1,8,1:0:0:0:
256,192,25658,1,0,1:0:0:0:
256,192,25831,1,8,1:0:0:0:
256,192,25918,1,0,1:0:0:0:
256,192,26005,1,0,1:0:0:0:
256,192,26178,1,8,1:0:0:0:
256,192,26352,1,0,1:0:0:0:
256,192,26525,1,8,1:0:0:0:
256,192,26612,1,8,1:0:0:0:
256,192,26698,1,0,1:0:0:0:
256,192,26872,1,8,1:0:0:0:
256,192,27045,1,0,1:0:0:0:
256,192,27219,1,8,1:0:0:0:
256,192,27305,1,0,1:0:0:0:
256,192,27392,1,8,1:0:0:0:
256,192,27565,1,8,1:0:0:0:
256,192,27652,1,8,1:0:0:0:
256,192,27912,1,8,1:0:0:0:
256,192,28086,1,0,1:0:0:0:
256,192,28259,1,8,1:0:0:0:
256,192,28346,1,8,1:0:0:0:
256,192,28432,1,0,1:0:0:0:
256,192,28606,1,8,1:0:0:0:
256,192,28779,1,0,1:0:0:0:
256,192,28953,1,8,1:0:0:0:
256,192,29039,1,8,1:0:0:0:
256,192,29126,1,0,1:0:0:0:
256,192,29299,1,8,1:0:0:0:
256,192,29386,1,0,1:0:0:0:
256,192,29473,1,0,1:0:0:0:
256,192,29560,1,0,1:0:0:0:
256,192,29646,1,8,1:0:0:0:
256,192,29820,1,0,1:0:0:0:
256,192,29993,1,8,1:0:0:0:
256,192,30080,1,8,1:0:0:0:
256,192,30167,1,0,1:0:0:0:
256,192,30253,1,0,1:0:0:0:
256,192,30340,1,8,1:0:0:0:
256,192,30687,1,8,1:0:0:0:
256,192,30773,1,0,1:0:0:0:
256,192,30860,1,0,1:0:0:0:
256,192,31034,1,8,1:0:0:0:
256,192,31207,1,0,1:0:0:0:
256,192,31294,1,0,1:0:0:0:
256,192,31380,1,8,1:0:0:0:
256,192,31554,1,0,1:0:0:0:
256,192,31727,1,8,1:0:0:0:
256,192,31814,1,0,1:0:0:0:
256,192,31901,1,0,1:0:0:0:
256,192,31987,1,0,1:0:0:0:
256,192,32074,1,8,1:0:0:0:
256,192,32161,1,8,1:0:0:0:
256,192,32247,1,0,1:0:0:0:
256,192,32421,1,8,1:0:0:0:
256,192,32594,1,0,1:0:0:0:
256,192,32768,1,8,1:0:0:0:
256,192,32854,1,0,1:0:0:0:
256,192,32941,1,8,1:0:0:0:
256,192,33115,1,8,1:0:0:0:
256,192,33461,1,0,1:0:0:0:
256,192,33635,1,0,1:0:0:0:
256,192,33808,1,12,1:0:0:0:
256,192,33982,1,0,1:0:0:0:
256,192,34155,1,8,1:0:0:0:
256,192,34242,1,8,1:0:0:0:
256,192,34328,1,0,1:0:0:0:
256,192,34502,1,8,1:0:0:0:
256,192,34589,1,0,1:0:0:0:
256,192,34675,1,0,1:0:0:0:
256,192,34762,1,0,1:0:0:0:
256,192,34849,1,8,1:0:0:0:
256,192,35022,1,0,1:0:0:0:
256,192,35109,1,0,1:0:0:0:
256,192,35195,1,8,1:0:0:0:
256,192,35369,1,0,1:0:0:0:
256,192,35542,1,8,1:0:0:0:
256,192,35629,1,0,1:0:0:0:
256,192,35716,1,8,1:0:0:0:
256,192,35802,1,0,1:0:0:0:
256,192,35889,1,8,1:0:0:0:
256,192,35976,1,8,1:0:0:0:
256,192,36063,1,0,1:0:0:0:
256,192,36236,1,8,1:0:0:0:
256,192,36409,1,0,1:0:0:0:
256,192,36583,1,8,1:0:0:0:
256,192,36669,1,0,1:0:0:0:
256,192,36756,1,8,1:0:0:0:
256,192,36930,1,0,1:0:0:0:
256,192,37016,1,0,1:0:0:0:
256,192,37103,1,8,1:0:0:0:
256,192,37190,1,0,1:0:0:0:
256,192,37276,1,8,1:0:0:0:
256,192,37363,1,8,1:0:0:0:
256,192,37450,1,0,1:0:0:0:
256,192,37623,1,8,1:0:0:0:
256,192,37710,1,0,1:0:0:0:
256,192,37797,1,8,1:0:0:0:
256,192,37883,1,8,1:0:0:0:
256,192,37970,1,0,1:0:0:0:
256,192,38143,1,0,1:0:0:0:
256,192,38317,1,8,1:0:0:0:
256,192,38490,1,0,1:0:0:0:
256,192,38577,1,0,1:0:0:0:
256,192,38664,1,8,1:0:0:0:
256,192,39010,1,8,1:0:0:0:
256,192,39097,1,0,1:0:0:0:
256,192,39184,1,8,1:0:0:0:
256,192,39271,1,8,1:0:0:0:
256,192,39357,1,0,1:0:0:0:
256,192,39531,1,0,1:0:0:0:
256,192,39704,1,8,1:0:0:0:
256,192,39878,1,0,1:0:0:0:
256,192,39964,1,0,1:0:0:0:
256,192,40051,1,8,1:0:0:0:
256,192,40398,1,8,1:0:0:0:
256,192,40484,1,8,1:0:0:0:
256,192,40571,1,0,1:0:0:0:
256,192,40745,1,8,1:0:0:0:
256,192,40918,1,0,1:0:0:0:
256,192,41091,1,8,1:0:0:0:
256,192,41178,1,0,1:0:0:0:
256,192,41265,1,8,1:0:0:0:
256,192,41352,1,8,1:0:0:0:
256,192,41438,1,0,1:0:0:0:
256,192,41525,1,0,1:0:0:0:
256,192,41612,1,8,1:0:0:0:
256,192,41785,1,8,1:0:0:0:
256,192,41872,1,0,1:0:0:0:
256,192,41958,1,8,1:0:0:0:
256,192,42132,1,0,1:0:0:0:
256,192,42305,1,0,1:0:0:0:
256,192,42479,1,0,1:0:0:0:
256,192,42652,1,0,1:0:0:0:
256,192,42826,1,0,1:0:0:0:
256,192,42999,1,0,1:0:0:0:
256,192,43172,1,0,1:0:0:0:
256,192,43346,1,0,1:0:0:0:
256,192,43519,1,8,1:0:0:0:
256,192,43606,1,8,1:0:0:0:
256,192,43693,1,0,1:0:0:0:
256,192,43779,1,0,1:0:0:0:
256,192,43866,1,8,1:0:0:0:
256,192,43953,1,0,1:0:0:0:
256,192,44039,1,8,1:0:0:0:
256,192,44126,1,0,1:0:0:0:
256,192,44213,1,8,1:0:0:0:
256,192,44299,1,8,1:0:0:0:
256,192,44386,1,8,1:0:0:0:
256,192,44473,1,0,1:0:0:0:
256,192,44560,1,8,1:0:0:0:
256,192,44646,1,0,1:0:0:0:
256,192,44733,1,8,1:0:0:0:
256,192,44820,1,8,1:0:0:0:
256,192,44906,1,0,1:0:0:0:
256,192,45253,1,0,1:0:0:0:
256,192,45600,1,8,1:0:0:0:
256,192,45947,1,0,1:0:0:0:
256,192,46294,1,0,1:0:0:0:
256,192,46641,1,0,1:0:0:0:
256,192,46987,1,8,1:0:0:0:
256,192,47334,1,0,1:0:0:0:
256,192,47681,1,0,1:0:0:0:
256,192,48028,1,0,1:0:0:0:
256,192,48375,1,8,1:0:0:0:
256,192,48721,1,8,1:0:0:0:
256,192,49068,1,0,1:0:0:0:
256,192,49415,1,8,1:0:0:0:
256,192,49762,1,0,1:0:0:0:
256,192,50109,1,0,1:0:0:0:
256,192,50456,1,8,1:0:0:0:
256,192,50802,1,0,1:0:0:0:
256,192,51149,1,0,1:0:0:0:
256,192,51496,1,8,1:0:0:0:
256,192,51843,1,8,1:0:0:0:
256,192,52190,1,0,1:0:0:0:
256,192,52536,1,8,1:0:0:0:
256,192,52883,1,0,1:0:0:0:
256,192,53230,1,8,1:0:0:0:
256,192,53577,1,0,1:0:0:0:
256,192,53924,1,8,1:0:0:0:
256,192,54271,1,0,1:0:0:0:
256,191,55658,1,0,1:0:0:0:
256,191,55831,1,0,1:0:0:0:
256,192,56005,1,12,1:0:0:0:
256,192,56178,1,0,1:0:0:0:
256,192,56352,1,8,1:0:0:0:
256,192,56438,1,8,1:0:0:0:
256,192,56525,1,0,1:0:0:0:
256,192,56612,1,0,1:0:0:0:
256,192,56698,1,8,1:0:0:0:
256,192,56872,1,0,1:0:0:0:
256,192,57045,1,8,1:0:0:0:
256,192,57132,1,8,1:0:0:0:
256,192,57219,1,0,1:0:0:0:
256,192,57392,1,8,1:0:0:0:
256,192,57479,1,0,1:0:0:0:
256,192,57565,1,0,1:0:0:0:
256,192,57652,1,0,1:0:0:0:
256,192,57739,1,8,1:0:0:0:
256,192,57826,1,8,1:0:0:0:
256,192,57912,1,0,1:0:0:0:
256,192,57999,1,0,1:0:0:0:
256,192,58086,1,8,1:0:0:0:
256,192,58259,1,0,1:0:0:0:
256,192,58432,1,0,1:0:0:0:
256,192,58519,1,0,1:0:0:0:
256,192,58606,1,8,1:0:0:0:
256,192,58693,1,0,1:0:0:0:
256,192,58779,1,8,1:0:0:0:
256,192,58866,1,8,1:0:0:0:
256,192,58953,1,0,1:0:0:0:
256,192,59126,1,8,1:0:0:0:
256,192,59299,1,0,1:0:0:0:
256,192,59386,1,0,1:0:0:0:
256,192,59473,1,8,1:0:0:0:
256,192,59560,1,8,1:0:0:0:
256,192,59646,1,0,1:0:0:0:
256,192,59820,1,8,1:0:0:0:
256,192,59906,1,0,1:0:0:0:
256,192,59993,1,0,1:0:0:0:
256,192,60167,1,8,1:0:0:0:
256,192,60253,1,0,1:0:0:0:
256,192,60340,1,8,1:0:0:0:
256,192,60427,1,0,1:0:0:0:
256,192,60513,1,8,1:0:0:0:
256,192,60600,1,8,1:0:0:0:
256,192,60687,1,0,1:0:0:0:
256,192,60773,1,0,1:0:0:0:
256,192,60860,1,8,1:0:0:0:
256,192,61034,1,0,1:0:0:0:
256,192,61207,1,8,1:0:0:0:
256,192,61294,1,0,1:0:0:0:
256,192,61380,1,0,1:0:0:0:
256,192,61467,1,0,1:0:0:0:
256,192,61554,1,8,1:0:0:0:
256,192,61727,1,0,1:0:0:0:
256,192,61901,1,0,1:0:0:0:
256,192,61987,1,8,1:0:0:0:
256,192,62074,1,0,1:0:0:0:
256,192,62161,1,0,1:0:0:0:
256,192,62247,1,8,1:0:0:0:
256,192,62334,1,8,1:0:0:0:
256,192,62421,1,0,1:0:0:0:
256,192,62594,1,8,1:0:0:0:
256,192,62681,1,0,1:0:0:0:
256,192,62768,1,8,1:0:0:0:
256,192,62941,1,0,1:0:0:0:
256,192,63028,1,0,1:0:0:0:
256,192,63115,1,8,1:0:0:0:
256,192,63201,1,0,1:0:0:0:
256,192,63288,1,8,1:0:0:0:
256,192,63375,1,8,1:0:0:0:
256,192,63461,1,0,1:0:0:0:
256,192,63548,1,0,1:0:0:0:
256,192,63635,1,8,1:0:0:0:
256,192,63808,1,0,1:0:0:0:
256,192,63895,1,0,1:0:0:0:
256,192,63982,1,8,1:0:0:0:
256,192,64068,1,8,1:0:0:0:
256,192,64155,1,0,1:0:0:0:
256,192,64328,1,8,1:0:0:0:
256,192,64415,1,0,1:0:0:0:
256,192,64502,1,8,1:0:0:0:
256,192,64589,1,0,1:0:0:0:
256,192,64675,1,8,1:0:0:0:
256,192,64762,1,8,1:0:0:0:
256,192,64849,1,0,1:0:0:0:
256,192,64935,1,0,1:0:0:0:
256,192,65022,1,8,1:0:0:0:
256,192,65109,1,0,1:0:0:0:
256,192,65195,1,8,1:0:0:0:
256,192,65282,1,8,1:0:0:0:
256,192,65369,1,8,1:0:0:0:
256,192,65456,1,0,1:0:0:0:
256,192,65542,1,8,1:0:0:0:
256,192,65629,1,8,1:0:0:0:
256,192,65716,1,0,1:0:0:0:
256,192,65889,1,8,1:0:0:0:
256,192,65932,1,0,1:0:0:0:
256,192,65976,1,0,1:0:0:0:
256,192,66236,1,8,1:0:0:0:
256,192,66279,1,0,1:0:0:0:
256,192,66323,1,0,1:0:0:0:
256,192,66583,1,8,1:0:0:0:
256,192,66626,1,0,1:0:0:0:
256,192,66669,1,0,1:0:0:0:
256,192,66930,1,8,1:0:0:0:
256,192,66973,1,0,1:0:0:0:
256,192,67016,1,0,1:0:0:0:
256,192,67103,1,12,1:0:0:0:
256,192,67276,1,0,1:0:0:0:
256,192,67450,1,8,1:0:0:0:
256,192,67536,1,0,1:0:0:0:
256,192,67623,1,0,1:0:0:0:
256,192,67710,1,0,1:0:0:0:
256,192,67797,1,8,1:0:0:0:
256,192,67970,1,0,1:0:0:0:
256,192,68143,1,8,1:0:0:0:
256,192,68230,1,0,1:0:0:0:
256,192,68317,1,0,1:0:0:0:
256,192,68490,1,8,1:0:0:0:
256,192,68577,1,8,1:0:0:0:
256,192,68664,1,0,1:0:0:0:
256,192,68750,1,8,1:0:0:0:
256,192,68837,1,0,1:0:0:0:
256,192,68924,1,0,1:0:0:0:
256,192,69010,1,8,1:0:0:0:
256,192,69097,1,0,1:0:0:0:
256,192,69184,1,8,1:0:0:0:
256,192,69357,1,0,1:0:0:0:
256,192,69531,1,8,1:0:0:0:
256,192,69617,1,0,1:0:0:0:
256,192,69704,1,8,1:0:0:0:
256,192,69791,1,8,1:0:0:0:
256,192,69878,1,0,1:0:0:0:
256,192,69964,1,0,1:0:0:0:
256,192,70051,1,8,1:0:0:0:
256,192,70224,1,0,1:0:0:0:
256,192,70398,1,0,1:0:0:0:
256,192,70484,1,8,1:0:0:0:
256,192,70571,1,0,1:0:0:0:
256,192,70658,1,0,1:0:0:0:
256,192,70745,1,8,1:0:0:0:
256,192,70918,1,8,1:0:0:0:
256,192,71005,1,8,1:0:0:0:
256,192,71091,1,0,1:0:0:0:
256,192,71265,1,8,1:0:0:0:
256,192,71352,1,0,1:0:0:0:
256,192,71438,1,0,1:0:0:0:
256,192,71525,1,0,1:0:0:0:
256,192,71612,1,8,1:0:0:0:
256,192,71698,1,8,1:0:0:0:
256,192,71785,1,0,1:0:0:0:
256,192,71958,1,0,1:0:0:0:
256,192,72045,1,0,1:0:0:0:
256,192,72132,1,0,1:0:0:0:
256,192,72305,1,8,1:0:0:0:
256,192,72392,1,8,1:0:0:0:
256,192,72479,1,0,1:0:0:0:
256,192,72565,1,0,1:0:0:0:
256,192,72652,1,8,1:0:0:0:
256,192,72826,1,0,1:0:0:0:
256,192,72999,1,0,1:0:0:0:
256,192,73086,1,0,1:0:0:0:
256,192,73172,1,8,1:0:0:0:
256,192,73259,1,0,1:0:0:0:
256,192,73346,1,8,1:0:0:0:
256,192,73432,1,8,1:0:0:0:
256,192,73519,1,0,1:0:0:0:
256,192,73693,1,8,1:0:0:0:
256,192,73779,1,0,1:0:0:0:
256,192,73866,1,8,1:0:0:0:
256,192,74039,1,0,1:0:0:0:
256,192,74126,1,8,1:0:0:0:
256,192,74213,1,0,1:0:0:0:
256,192,74299,1,0,1:0:0:0:
256,192,74386,1,8,1:0:0:0:
256,192,74473,1,8,1:0:0:0:
256,192,74560,1,0,1:0:0:0:
256,192,74646,1,0,1:0:0:0:
256,192,74733,1,8,1:0:0:0:
256,192,74906,1,8,1:0:0:0:
256,192,74993,1,0,1:0:0:0:
256,192,75080,1,8,1:0:0:0:
256,192,75167,1,8,1:0:0:0:
256,192,75253,1,0,1:0:0:0:
256,192,75427,1,8,1:0:0:0:
256,192,75513,1,0,1:0:0:0:
256,192,75600,1,8,1:0:0:0:
256,192,75687,1,0,1:0:0:0:
256,192,75773,1,8,1:0:0:0:
256,192,75860,1,8,1:0:0:0:
256,192,75947,1,0,1:0:0:0:
256,192,76034,1,0,1:0:0:0:
256,192,76120,1,8,1:0:0:0:
256,192,76207,1,0,1:0:0:0:
256,192,76294,1,8,1:0:0:0:
256,192,76380,1,8,1:0:0:0:
256,192,76467,1,8,1:0:0:0:
256,192,76554,1,0,1:0:0:0:
256,192,76641,1,8,1:0:0:0:
256,192,76727,1,8,1:0:0:0:
256,192,76814,1,0,1:0:0:0:
256,192,76901,1,0,1:0:0:0:
256,192,76987,1,8,1:0:0:0:
256,192,77074,1,0,1:0:0:0:
256,192,77161,1,8,1:0:0:0:
256,192,77247,1,0,1:0:0:0:
256,192,77334,1,8,1:0:0:0:
256,192,77421,1,8,1:0:0:0:
256,192,77508,1,0,1:0:0:0:
256,192,77854,1,0,1:0:0:0:
256,192,78201,1,12,1:0:0:0:
256,192,78548,1,8,1:0:0:0:
256,192,78635,1,0,1:0:0:0:
256,192,78721,1,0,1:0:0:0:
256,192,78895,1,8,1:0:0:0:
256,192,78982,1,0,1:0:0:0:
256,192,79068,1,0,1:0:0:0:
256,192,79242,1,8,1:0:0:0:
256,192,79328,1,0,1:0:0:0:
256,192,79415,1,0,1:0:0:0:
256,192,79589,1,8,1:0:0:0:
256,192,79762,1,8,1:0:0:0:
256,192,79935,1,0,1:0:0:0:
256,192,80109,1,0,1:0:0:0:
256,192,80282,1,8,1:0:0:0:
256,192,80456,1,8,1:0:0:0:
256,192,80629,1,0,1:0:0:0:
256,192,80802,1,0,1:0:0:0:
256,192,80976,1,8,1:0:0:0:
256,192,81019,1,0,1:0:0:0:
256,192,81063,1,0,1:0:0:0:
256,192,81323,1,8,1:0:0:0:
256,192,81409,1,8,1:0:0:0:
256,192,81496,1,0,1:0:0:0:
256,192,81669,1,8,1:0:0:0:
256,192,81756,1,8,1:0:0:0:
256,192,81843,1,0,1:0:0:0:
256,192,82016,1,8,1:0:0:0:
256,192,82103,1,8,1:0:0:0:
256,192,82190,1,0,1:0:0:0:
256,192,82363,1,8,1:0:0:0:
256,192,82536,1,8,1:0:0:0:
256,192,82710,1,0,1:0:0:0:
256,192,82883,1,0,1:0:0:0:
256,192,83057,1,8,1:0:0:0:
256,192,83230,1,0,1:0:0:0:
256,192,83404,1,8,1:0:0:0:
256,192,83577,1,0,1:0:0:0:
256,192,83750,1,8,1:0:0:0:
256,192,84097,1,8,1:0:0:0:
256,192,84184,1,8,1:0:0:0:
256,192,84271,1,0,1:0:0:0:
256,192,84444,1,8,1:0:0:0:
256,192,84531,1,0,1:0:0:0:
256,192,84704,1,0,1:0:0:0:
256,192,84791,1,8,1:0:0:0:
256,192,84964,1,0,1:0:0:0:
256,192,85138,1,8,1:0:0:0:
256,192,85224,1,8,1:0:0:0:
256,192,85311,1,0,1:0:0:0:
256,192,85398,1,0,1:0:0:0:
256,192,85484,1,8,1:0:0:0:
256,192,85658,1,0,1:0:0:0:
256,192,85831,1,8,1:0:0:0:
256,192,85918,1,0,1:0:0:0:
256,192,86005,1,0,1:0:0:0:
256,192,86091,1,0,1:0:0:0:
256,192,86178,1,8,1:0:0:0:
256,192,86352,1,0,1:0:0:0:
256,192,86525,1,8,1:0:0:0:
256,192,86698,1,0,1:0:0:0:
256,192,86872,1,8,1:0:0:0:
256,192,86958,1,8,1:0:0:0:
256,192,87045,1,8,1:0:0:0:
256,192,87219,1,0,1:0:0:0:
256,192,87305,1,0,1:0:0:0:
256,192,87392,1,0,1:0:0:0:
256,192,87565,1,8,1:0:0:0:
256,192,87652,1,8,1:0:0:0:
256,192,87739,1,0,1:0:0:0:
256,192,87912,1,0,1:0:0:0:
256,192,87999,1,0,1:0:0:0:
256,192,88086,1,8,1:0:0:0:
256,192,88259,1,0,1:0:0:0:
256,192,88432,1,0,1:0:0:0:
256,192,88606,1,8,1:0:0:0:
256,192,88779,1,8,1:0:0:0:
256,192,88953,1,0,1:0:0:0:
256,192,89126,1,0,1:0:0:0:
256,192,89299,1,12,1:0:0:0:
256,192,89473,1,0,1:0:0:0:
256,192,89646,1,8,1:0:0:0:
256,192,89733,1,8,1:0:0:0:
256,192,89820,1,0,1:0:0:0:
256,192,89993,1,0,1:0:0:0:
256,192,90080,1,0,1:0:0:0:
256,192,90167,1,8,1:0:0:0:
256,192,90340,1,0,1:0:0:0:
256,192,90687,1,8,1:0:0:0:
256,192,90918,1,0,1:0:0:0:
256,192,91149,1,0,1:0:0:0:
256,192,91380,1,8,1:0:0:0:
256,192,91727,1,0,1:0:0:0:
256,192,91901,1,0,1:0:0:0:
256,192,92074,1,8,1:0:0:0:
256,192,92247,1,0,1:0:0:0:
256,192,92421,1,8,1:0:0:0:
256,192,92508,1,8,1:0:0:0:
256,192,92594,1,0,1:0:0:0:
256,192,92768,1,0,1:0:0:0:
256,192,92854,1,0,1:0:0:0:
256,192,92941,1,8,1:0:0:0:
256,192,93115,1,8,1:0:0:0:
256,192,93201,1,0,1:0:0:0:
256,192,93288,1,0,1:0:0:0:
256,192,93461,1,8,1:0:0:0:
256,192,93635,1,8,1:0:0:0:
256,192,93808,1,0,1:0:0:0:
256,192,94155,1,0,1:0:0:0:
256,192,94328,1,0,1:0:0:0:
256,192,94502,1,8,1:0:0:0:
256,192,94849,1,8,1:0:0:0:
256,192,95022,1,0,1:0:0:0:
256,192,95195,1,8,1:0:0:0:
256,192,95282,1,8,1:0:0:0:
256,192,95369,1,0,1:0:0:0:
256,192,95542,1,0,1:0:0:0:
256,192,95629,1,0,1:0:0:0:
256,192,95716,1,8,1:0:0:0:
256,192,95889,1,8,1:0:0:0:
256,192,96063,1,0,1:0:0:0:
256,192,96236,1,8,1:0:0:0:
256,192,96583,1,0,1:0:0:0:
256,192,96756,1,0,1:0:0:0:
256,192,96930,1,8,1:0:0:0:
256,192,97276,1,0,1:0:0:0:
256,192,97450,1,0,1:0:0:0:
256,192,97623,1,8,1:0:0:0:
256,192,97797,1,0,1:0:0:0:
256,192,97970,1,8,1:0:0:0:
256,192,98057,1,8,1:0:0:0:
256,192,98143,1,0,1:0:0:0:
256,192,98317,1,0,1:0:0:0:
256,192,98490,1,8,1:0:0:0:
256,192,98664,1,0,1:0:0:0:
256,192,98750,1,0,1:0:0:0:
256,192,98837,1,8,1:0:0:0:
256,192,99010,1,0,1:0:0:0:
256,192,99184,1,0,1:0:0:0:
256,192,99357,1,8,1:0:0:0:
256,192,99444,1,0,1:0:0:0:
256,192,99531,1,0,1:0:0:0:
256,192,99704,1,8,1:0:0:0:
256,192,99878,1,0,1:0:0:0:
256,192,100051,1,8,1:0:0:0:
256,192,100138,1,8,1:0:0:0:
256,192,100224,1,0,1:0:0:0:
256,192,100311,1,0,1:0:0:0:
256,192,100398,1,12,1:0:0:0:
256,192,100571,1,0,1:0:0:0:
256,192,100745,1,8,1:0:0:0:
256,192,100918,1,0,1:0:0:0:
256,192,101091,1,8,1:0:0:0:
256,192,101438,1,8,1:0:0:0:
256,192,101612,1,8,1:0:0:0:
256,192,101785,1,0,1:0:0:0:
256,192,101958,1,8,1:0:0:0:
256,192,102132,1,0,1:0:0:0:
256,192,102305,1,0,1:0:0:0:
256,192,102479,1,8,1:0:0:0:
256,192,102826,1,0,1:0:0:0:
256,192,102999,1,0,1:0:0:0:
256,192,103172,1,8,1:0:0:0:
256,192,103346,1,8,1:0:0:0:
256,192,103519,1,0,1:0:0:0:
256,192,103693,1,0,1:0:0:0:
256,192,103866,1,8,1:0:0:0:
256,192,104213,1,8,1:0:0:0:
256,192,104386,1,0,1:0:0:0:
256,192,104560,1,8,1:0:0:0:
256,192,104733,1,8,1:0:0:0:
256,192,104906,1,0,1:0:0:0:
256,192,105080,1,0,1:0:0:0:
256,192,105253,1,8,1:0:0:0:
256,192,105600,1,0,1:0:0:0:
256,192,105773,1,0,1:0:0:0:
256,192,105947,1,8,1:0:0:0:
256,192,106120,1,0,1:0:0:0:
256,192,106294,1,8,1:0:0:0:
256,192,106467,1,8,1:0:0:0:
256,192,106641,1,0,1:0:0:0:
256,192,106987,1,8,1:0:0:0:
256,192,107161,1,8,1:0:0:0:
256,192,107334,1,0,1:0:0:0:
256,192,107508,1,0,1:0:0:0:
256,192,107681,1,8,1:0:0:0:
256,192,107854,1,0,1:0:0:0:
256,192,108028,1,8,1:0:0:0:
256,192,108375,1,8,1:0:0:0:
256,192,108548,1,8,1:0:0:0:
256,192,108721,1,8,1:0:0:0:
256,192,108895,1,0,1:0:0:0:
256,192,109068,1,0,1:0:0:0:
256,192,109242,1,0,1:0:0:0:
256,192,109415,1,8,1:0:0:0:
256,192,109762,1,0,1:0:0:0:
256,192,109935,1,8,1:0:0:0:
256,192,110109,1,0,1:0:0:0:
256,192,110282,1,0,1:0:0:0:
256,192,110456,1,0,1:0:0:0:
256,192,110629,1,0,1:0:0:0:
256,192,110802,1,8,1:0:0:0:
256,192,110846,1,8,1:0:0:0:
256,192,110889,1,8,1:0:0:0:
256,192,110932,1,0,1:0:0:0:
256,192,111149,1,8,1:0:0:0:
256,192,111193,1,8,1:0:0:0:
256,192,111236,1,8,1:0:0:0:
256,192,111279,1,0,1:0:0:0:
256,192,111496,1,8,1:0:0:0:
256,192,111583,1,8,1:0:0:0:
256,192,111669,1,0,1:0:0:0:
256,192,111843,1,8,1:0:0:0:
256,192,112016,1,0,1:0:0:0:
256,192,112190,1,8,1:0:0:0:
256,192,112276,1,0,1:0:0:0:
256,192,112363,1,0,1:0:0:0:
256,192,112536,1,8,1:0:0:0:
256,192,112710,1,0,1:0:0:0:
256,192,112797,1,0,1:0:0:0:
256,192,112883,1,8,1:0:0:0:
256,192,113057,1,0,1:0:0:0:
256,192,113230,1,8,1:0:0:0:
256,192,113317,1,0,1:0:0:0:
256,192,113404,1,0,1:0:0:0:
256,192,113490,1,0,1:0:0:0:
256,192,113577,1,8,1:0:0:0:
256,192,113750,1,0,1:0:0:0:
256,192,113924,1,8,1:0:0:0:
256,192,114010,1,0,1:0:0:0:
256,192,114097,1,8,1:0:0:0:
256,192,114271,1,8,1:0:0:0:
256,192,114444,1,0,1:0:0:0:
256,192,114617,1,8,1:0:0:0:
256,192,114704,1,8,1:0:0:0:
256,192,114791,1,0,1:0:0:0:
256,192,114964,1,8,1:0:0:0:
256,192,115051,1,0,1:0:0:0:
256,192,115224,1,0,1:0:0:0:
256,192,115311,1,8,1:0:0:0:
256,192,115398,1,8,1:0:0:0:
256,192,115484,1,0,1:0:0:0:
256,192,115658,1,8,1:0:0:0:
256,192,115831,1,0,1:0:0:0:
256,192,116005,1,8,1:0:0:0:
256,192,116091,1,0,1:0:0:0:
256,192,116178,1,0,1:0:0:0:
256,192,116352,1,8,1:0:0:0:
256,192,116698,1,8,1:0:0:0:
256,192,116872,1,0,1:0:0:0:
256,192,117045,1,8,1:0:0:0:
256,192,117132,1,8,1:0:0:0:
256,192,117219,1,0,1:0:0:0:
256,192,117392,1,8,1:0:0:0:
256,192,117565,1,0,1:0:0:0:
256,192,117739,1,8,1:0:0:0:
256,192,117826,1,8,1:0:0:0:
256,192,117912,1,0,1:0:0:0:
256,192,118086,1,8,1:0:0:0:
256,192,118172,1,8,1:0:0:0:
256,192,118259,1,0,1:0:0:0:
256,192,118346,1,0,1:0:0:0:
256,192,118432,1,8,1:0:0:0:
256,192,118606,1,0,1:0:0:0:
256,192,118779,1,8,1:0:0:0:
256,192,118866,1,0,1:0:0:0:
256,192,118953,1,0,1:0:0:0:
256,192,119039,1,0,1:0:0:0:
256,192,119126,1,8,1:0:0:0:
256,192,119473,1,8,1:0:0:0:
256,192,119560,1,8,1:0:0:0:
256,192,119646,1,0,1:0:0:0:
256,192,119820,1,8,1:0:0:0:
256,192,119993,1,0,1:0:0:0:
256,192,120080,1,0,1:0:0:0:
256,192,120167,1,8,1:0:0:0:
256,192,120340,1,0,1:0:0:0:
256,192,120513,1,8,1:0:0:0:
256,192,120600,1,0,1:0:0:0:
256,192,120687,1,8,1:0:0:0:
256,192,120773,1,0,1:0:0:0:
256,192,120860,1,8,1:0:0:0:
256,192,120947,1,8,1:0:0:0:
256,192,121034,1,0,1:0:0:0:
256,192,121207,1,8,1:0:0:0:
256,192,121380,1,0,1:0:0:0:
256,192,121554,1,8,1:0:0:0:
256,192,121641,1,0,1:0:0:0:
256,192,121727,1,8,1:0:0:0:
256,192,121901,1,8,1:0:0:0:
256,192,122247,1,0,1:0:0:0:
256,192,122421,1,0,1:0:0:0:
256,192,122594,1,12,1:0:0:0:
256,192,122768,1,0,1:0:0:0:
256,192,122941,1,8,1:0:0:0:
256,192,123028,1,8,1:0:0:0:
256,192,123115,1,0,1:0:0:0:
256,192,123288,1,8,1:0:0:0:
256,192,123375,1,8,1:0:0:0:
256,192,123461,1,0,1:0:0:0:
256,192,123548,1,0,1:0:0:0:
256,192,123635,1,8,1:0:0:0:
256,192,123808,1,0,1:0:0:0:
256,192,123895,1,0,1:0:0:0:
256,192,123982,1,8,1:0:0:0:
256,192,124155,1,0,1:0:0:0:
256,192,124328,1,8,1:0:0:0:
256,192,124415,1,0,1:0:0:0:
256,192,124502,1,8,1:0:0:0:
256,192,124589,1,0,1:0:0:0:
256,192,124675,1,8,1:0:0:0:
256,192,124762,1,8,1:0:0:0:
256,192,124849,1,0,1:0:0:0:
256,192,125022,1,8,1:0:0:0:
256,192,125195,1,0,1:0:0:0:
256,192,125369,1,8,1:0:0:0:
256,192,125456,1,0,1:0:0:0:
256,192,125542,1,8,1:0:0:0:
256,192,125716,1,0,1:0:0:0:
256,192,125802,1,0,1:0:0:0:
256,192,125889,1,8,1:0:0:0:
256,192,125976,1,0,1:0:0:0:
256,192,126063,1,8,1:0:0:0:
256,192,126149,1,8,1:0:0:0:
256,192,126236,1,0,1:0:0:0:
256,192,126409,1,8,1:0:0:0:
256,192,126496,1,0,1:0:0:0:
256,192,126583,1,8,1:0:0:0:
256,192,126669,1,8,1:0:0:0:
256,192,126756,1,0,1:0:0:0:
256,192,126930,1,0,1:0:0:0:
256,192,127103,1,8,1:0:0:0:
256,192,127276,1,0,1:0:0:0:
256,192,127363,1,0,1:0:0:0:
256,192,127450,1,8,1:0:0:0:
256,192,127797,1,8,1:0:0:0:
256,192,127970,1,0,1:0:0:0:
256,192,128143,1,8,1:0:0:0:
256,192,128230,1,8,1:0:0:0:
256,192,128317,1,0,1:0:0:0:
256,192,128490,1,8,1:0:0:0:
256,192,128577,1,8,1:0:0:0:
256,192,128664,1,0,1:0:0:0:
256,192,128837,1,8,1:0:0:0:
256,192,129184,1,8,1:0:0:0:
256,192,129271,1,0,1:0:0:0:
256,192,129357,1,0,1:0:0:0:
256,192,129531,1,8,1:0:0:0:
256,192,129704,1,0,1:0:0:0:
256,192,129878,1,8,1:0:0:0:
256,192,129964,1,0,1:0:0:0:
256,192,130051,1,8,1:0:0:0:
256,192,130138,1,8,1:0:0:0:
256,192,130224,1,0,1:0:0:0:
256,192,130311,1,0,1:0:0:0:
256,192,130398,1,8,1:0:0:0:
256,192,130571,1,8,1:0:0:0:
256,192,130658,1,0,1:0:0:0:
256,192,130745,1,8,1:0:0:0:
256,192,130918,1,0,1:0:0:0:
256,192,131091,1,0,1:0:0:0:
256,192,131265,1,0,1:0:0:0:
256,192,131438,1,0,1:0:0:0:
256,192,131612,1,0,1:0:0:0:
256,192,131785,1,0,1:0:0:0:
256,192,131958,1,0,1:0:0:0:
256,192,132132,1,0,1:0:0:0:
256,192,132305,1,8,1:0:0:0:
256,192,132392,1,8,1:0:0:0:
256,192,132479,1,0,1:0:0:0:
256,192,132565,1,0,1:0:0:0:
256,192,132652,1,8,1:0:0:0:
256,192,132739,1,0,1:0:0:0:
256,192,132826,1,8,1:0:0:0:
256,192,132912,1,0,1:0:0:0:
256,192,132999,1,8,1:0:0:0:
256,192,133086,1,8,1:0:0:0:
256,192,133172,1,8,1:0:0:0:
256,192,133259,1,0,1:0:0:0:
256,192,133346,1,8,1:0:0:0:
256,192,133432,1,8,1:0:0:0:
256,192,133519,1,0,1:0:0:0:
256,192,133606,1,0,1:0:0:0:
256,192,133693,1,12,1:0:0:0:
256,192,134039,1,0,1:0:0:0:
256,192,134213,1,0,1:0:0:0:
256,192,134386,1,8,1:0:0:0:
256,192,134733,1,0,1:0:0:0:
256,192,135080,1,8,1:0:0:0:
256,192,135253,1,8,1:0:0:0:
256,192,135427,1,0,1:0:0:0:
256,192,135773,1,8,1:0:0:0:
256,192,136120,1,0,1:0:0:0:
256,192,136294,1,0,1:0:0:0:
256,192,136467,1,8,1:0:0:0:
256,192,136641,1,8,1:0:0:0:
256,192,136814,1,0,1:0:0:0:
256,192,137161,1,8,1:0:0:0:
256,192,137508,1,0,1:0:0:0:
256,192,137681,1,8,1:0:0:0:
256,192,137854,1,0,1:0:0:0:
256,192,138201,1,8,1:0:0:0:
256,192,138548,1,0,1:0:0:0:
256,192,138895,1,8,1:0:0:0:
256,192,139068,1,0,1:0:0:0:
256,192,139242,1,8,1:0:0:0:
256,192,139415,1,8,1:0:0:0:
256,192,139589,1,0,1:0:0:0:
256,192,139935,1,8,1:0:0:0:
256,192,140282,1,0,1:0:0:0:
256,192,140456,1,8,1:0:0:0:
256,192,140629,1,0,1:0:0:0:
256,192,140976,1,0,1:0:0:0:
256,192,141149,1,0,1:0:0:0:
256,192,141323,1,8,1:0:0:0:
256,192,141669,1,8,1:0:0:0:
256,192,141843,1,8,1:0:0:0:
256,192,142016,1,0,1:0:0:0:
256,192,142190,1,0,1:0:0:0:
256,192,142363,1,8,1:0:0:0:
256,192,142710,1,8,1:0:0:0:
256,192,143057,1,0,1:0:0:0:
256,192,143230,1,0,1:0:0:0:
256,192,143404,1,8,1:0:0:0:
256,192,143577,1,0,1:0:0:0:
256,192,143750,1,8,1:0:0:0:
256,192,143924,1,8,1:0:0:0:
256,192,144097,1,0,1:0:0:0:
256,191,144444,1,0,1:0:0:0:
256,191,144617,1,0,1:0:0:0:
256,192,144791,1,12,1:0:0:0:
256,192,144964,1,0,1:0:0:0:
256,192,145138,1,8,1:0:0:0:
256,192,145224,1,8,1:0:0:0:
256,192,145311,1,0,1:0:0:0:
256,192,145398,1,0,1:0:0:0:
256,192,145484,1,8,1:0:0:0:
256,192,145658,1,0,1:0:0:0:
256,192,145831,1,8,1:0:0:0:
256,192,145918,1,8,1:0:0:0:
256,192,146005,1,0,1:0:0:0:
256,192,146178,1,8,1:0:0:0:
256,192,146265,1,0,1:0:0:0:
256,192,146352,1,0,1:0:0:0:
256,192,146438,1,0,1:0:0:0:
256,192,146525,1,8,1:0:0:0:
256,192,146612,1,8,1:0:0:0:
256,192,146698,1,0,1:0:0:0:
256,192,146785,1,0,1:0:0:0:
256,192,146872,1,8,1:0:0:0:
256,192,147045,1,0,1:0:0:0:
256,192,147219,1,0,1:0:0:0:
256,192,147305,1,0,1:0:0:0:
256,192,147392,1,8,1:0:0:0:
256,192,147479,1,0,1:0:0:0:
256,192,147565,1,8,1:0:0:0:
256,192,147652,1,8,1:0:0:0:
256,192,147739,1,0,1:0:0:0:
256,192,147912,1,8,1:0:0:0:
256,192,148086,1,0,1:0:0:0:
256,192,148172,1,0,1:0:0:0:
256,192,148259,1,8,1:0:0:0:
256,192,148346,1,8,1:0:0:0:
256,192,148432,1,0,1:0:0:0:
256,192,148606,1,8,1:0:0:0:
256,192,148693,1,0,1:0:0:0:
256,192,148779,1,0,1:0:0:0:
256,192,148953,1,8,1:0:0:0:
256,192,149039,1,0,1:0:0:0:
256,192,149126,1,8,1:0:0:0:
256,192,149213,1,0,1:0:0:0:
256,192,149299,1,8,1:0:0:0:
256,192,149386,1,8,1:0:0:0:
256,192,149473,1,0,1:0:0:0:
256,192,149560,1,0,1:0:0:0:
256,192,149646,1,8,1:0:0:0:
256,192,149820,1,0,1:0:0:0:
256,192,149993,1,8,1:0:0:0:
256,192,150080,1,0,1:0:0:0:
256,192,150167,1,0,1:0:0:0:
256,192,150253,1,0,1:0:0:0:
256,192,150340,1,8,1:0:0:0:
256,192,150513,1,0,1:0:0:0:
256,192,150687,1,0,1:0:0:0:
256,192,150773,1,8,1:0:0:0:
256,192,150860,1,0,1:0:0:0:
256,192,150947,1,0,1:0:0:0:
256,192,151034,1,8,1:0:0:0:
256,192,151120,1,8,1:0:0:0:
256,192,151207,1,0,1:0:0:0:
256,192,151380,1,8,1:0:0:0:
256,192,151467,1,0,1:0:0:0:
256,192,151554,1,8,1:0:0:0:
256,192,151727,1,0,1:0:0:0:
256,192,151814,1,0,1:0:0:0:
256,192,151901,1,8,1:0:0:0:
256,192,151987,1,0,1:0:0:0:
256,192,152074,1,8,1:0:0:0:
256,192,152161,1,8,1:0:0:0:
256,192,152247,1,0,1:0:0:0:
256,192,152334,1,0,1:0:0:0:
256,192,152421,1,8,1:0:0:0:
256,192,152594,1,0,1:0:0:0:
256,192,152681,1,0,1:0:0:0:
256,192,152768,1,8,1:0:0:0:
256,192,152854,1,8,1:0:0:0:
256,192,152941,1,0,1:0:0:0:
256,192,153115,1,8,1:0:0:0:
256,192,153201,1,0,1:0:0:0:
256,192,153288,1,8,1:0:0:0:
256,192,153375,1,0,1:0:0:0:
256,192,153461,1,8,1:0:0:0:
256,192,153548,1,8,1:0:0:0:
256,192,153635,1,0,1:0:0:0:
256,192,153721,1,0,1:0:0:0:
256,192,153808,1,8,1:0:0:0:
256,192,153895,1,0,1:0:0:0:
256,192,153982,1,8,1:0:0:0:
256,192,154068,1,8,1:0:0:0:
256,192,154155,1,8,1:0:0:0:
256,192,154242,1,0,1:0:0:0:
256,192,154328,1,8,1:0:0:0:
256,192,154415,1,8,1:0:0:0:
256,192,154502,1,0,1:0:0:0:
256,192,154675,1,8,1:0:0:0:
256,192,154719,1,0,1:0:0:0:
256,192,154762,1,0,1:0:0:0:
256,192,155022,1,8,1:0:0:0:
256,192,155065,1,0,1:0:0:0:
256,192,155109,1,0,1:0:0:0:
256,192,155369,1,8,1:0:0:0:
256,192,155412,1,0,1:0:0:0:
256,192,155456,1,0,1:0:0:0:
256,192,155716,1,8,1:0:0:0:
256,192,155759,1,0,1:0:0:0:
256,192,155802,1,0,1:0:0:0:
256,192,155889,1,12,1:0:0:0:
256,192,156063,1,0,1:0:0:0:
256,192,156236,1,8,1:0:0:0:
256,192,156323,1,0,1:0:0:0:
256,192,156409,1,0,1:0:0:0:
256,192,156496,1,0,1:0:0:0:
256,192,156583,1,8,1:0:0:0:
256,192,156756,1,0,1:0:0:0:
256,192,156930,1,8,1:0:0:0:
256,192,157016,1,0,1:0:0:0:
256,192,157103,1,0,1:0:0:0:
256,192,157276,1,8,1:0:0:0:
256,192,157363,1,8,1:0:0:0:
256,192,157450,1,0,1:0:0:0:
256,192,157536,1,8,1:0:0:0:
256,192,157623,1,0,1:0:0:0:
256,192,157710,1,0,1:0:0:0:
256,192,157797,1,8,1:0:0:0:
256,192,157883,1,0,1:0:0:0:
256,192,157970,1,8,1:0:0:0:
256,192,158143,1,0,1:0:0:0:
256,192,158317,1,8,1:0:0:0:
256,192,158404,1,0,1:0:0:0:
256,192,158490,1,8,1:0:0:0:
256,192,158577,1,8,1:0:0:0:
256,192,158664,1,0,1:0:0:0:
256,192,158750,1,0,1:0:0:0:
256,192,158837,1,8,1:0:0:0:
256,192,159010,1,0,1:0:0:0:
256,192,159184,1,0,1:0:0:0:
256,192,159271,1,8,1:0:0:0:
256,192,159357,1,0,1:0:0:0:
256,192,159444,1,0,1:0:0:0:
256,192,159531,1,8,1:0:0:0:
256,192,159704,1,8,1:0:0:0:
256,192,159791,1,8,1:0:0:0:
256,192,159878,1,0,1:0:0:0:
256,192,160051,1,8,1:0:0:0:
256,192,160138,1,0,1:0:0:0:
256,192,160224,1,0,1:0:0:0:
256,192,160311,1,0,1:0:0:0:
256,192,160398,1,8,1:0:0:0:
256,192,160484,1,8,1:0:0:0:
256,192,160571,1,0,1:0:0:0:
256,192,160745,1,0,1:0:0:0:
256,192,160831,1,0,1:0:0:0:
256,192,160918,1,0,1:0:0:0:
256,192,161091,1,8,1:0:0:0:
256,192,161178,1,8,1:0:0:0:
256,192,161265,1,0,1:0:0:0:
256,192,161352,1,0,1:0:0:0:
256,192,161438,1,8,1:0:0:0:
256,192,161612,1,0,1:0:0:0:
256,192,161785,1,0,1:0:0:0:
256,192,161872,1,0,1:0:0:0:
256,192,161958,1,8,1:0:0:0:
256,192,162045,1,0,1:0:0:0:
256,192,162132,1,8,1:0:0:0:
256,192,162219,1,8,1:0:0:0:
256,192,162305,1,0,1:0:0:0:
256,192,162479,1,8,1:0:0:0:
256,192,162565,1,0,1:0:0:0:
256,192,162652,1,8,1:0:0:0:
256,192,162826,1,0,1:0:0:0:
256,192,162912,1,8,1:0:0:0:
256,192,162999,1,0,1:0:0:0:
256,192,163086,1,0,1:0:0:0:
256,192,163172,1,8,1:0:0:0:
256,192,163259,1,8,1:0:0:0:
256,192,163346,1,0,1:0:0:0:
256,192,163432,1,0,1:0:0:0:
256,192,163519,1,8,1:0:0:0:
256,192,163693,1,8,1:0:0:0:
256,192,163779,1,0,1:0:0:0:
256,192,163866,1,8,1:0:0:0:
256,192,163953,1,8,1:0:0:0:
256,192,164039,1,0,1:0:0:0:
256,192,164213,1,8,1:0:0:0:
256,192,164299,1,0,1:0:0:0:
256,192,164386,1,8,1:0:0:0:
256,192,164473,1,0,1:0:0:0:
256,192,164560,1,8,1:0:0:0:
256,192,164646,1,8,1:0:0:0:
256,192,164733,1,0,1:0:0:0:
256,192,164820,1,0,1:0:0:0:
256,192,164906,1,8,1:0:0:0:
256,192,164993,1,0,1:0:0:0:
256,192,165080,1,8,1:0:0:0:
256,192,165167,1,8,1:0:0:0:
256,192,165253,1,8,1:0:0:0:
256,192,165340,1,0,1:0:0:0:
256,192,165427,1,8,1:0:0:0:
256,192,165513,1,8,1:0:0:0:
256,192,165600,1,0,1:0:0:0:
256,192,165687,1,0,1:0:0:0:
256,192,165773,1,8,1:0:0:0:
256,192,165860,1,0,1:0:0:0:
256,192,165947,1,8,1:0:0:0:
256,192,166034,1,0,1:0:0:0:
256,192,166120,1,8,1:0:0:0:
256,192,166207,1,8,1:0:0:0:
256,192,166294,1,0,1:0:0:0:
256,192,166641,1,0,1:0:0:0:
256,192,166987,1,12,1:0:0:0:
256,192,167334,1,8,1:0:0:0:
256,192,167421,1,0,1:0:0:0:
256,192,167508,1,0,1:0:0:0:
256,192,167681,1,8,1:0:0:0:
256,192,167768,1,0,1:0:0:0:
256,192,167854,1,0,1:0:0:0:
256,192,168028,1,8,1:0:0:0:
256,192,168115,1,0,1:0:0:0:
256,192,168201,1,0,1:0:0:0:
256,192,168375,1,8,1:0:0:0:
256,192,168548,1,8,1:0:0:0:
256,192,168591,1,0,1:0:0:0:
256,192,168635,1,0,1:0:0:0:
256,192,168895,1,8,1:0:0:0:
256,192,168938,1,0,1:0:0:0:
256,192,168982,1,0,1:0:0:0:
256,192,169242,1,8,1:0:0:0:
256,192,169285,1,0,1:0:0:0:
256,192,169328,1,0,1:0:0:0:
256,192,169589,1,8,1:0:0:0:
256,192,169632,1,0,1:0:0:0:
256,192,169675,1,0,1:0:0:0:
256,192,169762,1,8,1:0:0:0:
256,192,170109,1,8,1:0:0:0:
256,192,170195,1,8,1:0:0:0:
256,192,170282,1,0,1:0:0:0:
256,192,170456,1,8,1:0:0:0:
256,192,170542,1,8,1:0:0:0:
256,192,170629,1,0,1:0:0:0:
256,192,170802,1,8,1:0:0:0:
256,192,170889,1,8,1:0:0:0:
256,192,170976,1,0,1:0:0:0:
256,192,171149,1,8,1:0:0:0:
256,192,171323,1,0,1:0:0:0:
256,192,171496,1,8,1:0:0:0:
256,192,171669,1,0,1:0:0:0:
256,192,171843,1,8,1:0:0:0:
256,192,172016,1,0,1:0:0:0:
256,192,172190,1,8,1:0:0:0:
256,192,172363,1,0,1:0:0:0:
256,192,172536,1,8,1:0:0:0:
256,192,172883,1,8,1:0:0:0:
256,192,172970,1,8,1:0:0:0:
256,192,173057,1,0,1:0:0:0:
256,192,173230,1,0,1:0:0:0:
256,192,173317,1,0,1:0:0:0:
256,192,173404,1,8,1:0:0:0:
256,192,173577,1,8,1:0:0:0:
256,192,173664,1,0,1:0:0:0:
256,192,173750,1,0,1:0:0:0:
256,192,173924,1,8,1:0:0:0:
256,192,174010,1,0,1:0:0:0:
256,192,174097,1,0,1:0:0:0:
256,192,174184,1,0,1:0:0:0:
256,192,174271,1,8,1:0:0:0:
256,192,174444,1,0,1:0:0:0:
256,192,174617,1,8,1:0:0:0:
256,192,174704,1,0,1:0:0:0:
256,192,174791,1,8,1:0:0:0:
256,192,174878,1,0,1:0:0:0:
256,192,174921,1,0,1:0:0:0:
256,192,174964,1,8,1:0:0:0:
256,192,175138,1,0,1:0:0:0:
256,192,175311,1,8,1:0:0:0:
256,192,175484,1,0,1:0:0:0:
256,192,175658,1,8,1:0:0:0:
256,192,175745,1,8,1:0:0:0:
256,192,175831,1,0,1:0:0:0:
256,192,176005,1,8,1:0:0:0:
256,192,176091,1,8,1:0:0:0:
256,192,176178,1,8,1:0:0:0:
256,192,176352,1,0,1:0:0:0:
256,192,176438,1,0,1:0:0:0:
256,192,176525,1,8,1:0:0:0:
256,192,176698,1,0,1:0:0:0:
256,192,176785,1,0,1:0:0:0:
256,192,176872,1,0,1:0:0:0:
256,192,177045,1,8,1:0:0:0:
256,192,177132,1,0,1:0:0:0:
256,192,177219,1,0,1:0:0:0:
256,192,177392,1,8,1:0:0:0:
256,192,177479,1,0,1:0:0:0:
256,192,177652,1,0,1:0:0:0:
256,192,177739,1,8,1:0:0:0:
256,192,177912,1,0,1:0:0:0:
256,192,178086,1,12,1:0:0:0:
256,192,178259,1,0,1:0:0:0:
256,192,178432,1,8,1:0:0:0:
256,192,178519,1,8,1:0:0:0:
256,192,178606,1,0,1:0:0:0:
256,192,178693,1,0,1:0:0:0:
256,192,178779,1,8,1:0:0:0:
256,192,178953,1,0,1:0:0:0:
256,192,179126,1,8,1:0:0:0:
256,192,179213,1,8,1:0:0:0:
256,192,179299,1,0,1:0:0:0:
256,192,179473,1,8,1:0:0:0:
256,192,179560,1,0,1:0:0:0:
256,192,179646,1,8,1:0:0:0:
256,192,179733,1,8,1:0:0:0:
256,192,179820,1,0,1:0:0:0:
256,192,179906,1,0,1:0:0:0:
256,192,179993,1,8,1:0:0:0:
256,192,180080,1,0,1:0:0:0:
256,192,180167,1,8,1:0:0:0:
256,192,180340,1,0,1:0:0:0:
256,192,180513,1,0,1:0:0:0:
256,192,180600,1,0,1:0:0:0:
256,192,180687,1,8,1:0:0:0:
256,192,180773,1,0,1:0:0:0:
256,192,180860,1,8,1:0:0:0:
256,192,180947,1,8,1:0:0:0:
256,192,181034,1,0,1:0:0:0:
256,192,181207,1,8,1:0:0:0:
256,192,181380,1,0,1:0:0:0:
256,192,181467,1,0,1:0:0:0:
256,192,181554,1,8,1:0:0:0:
256,192,181641,1,8,1:0:0:0:
256,192,181727,1,0,1:0:0:0:
256,192,181901,1,8,1:0:0:0:
256,192,181987,1,0,1:0:0:0:
256,192,182074,1,0,1:0:0:0:
256,192,182247,1,8,1:0:0:0:
256,192,182334,1,0,1:0:0:0:
256,192,182421,1,0,1:0:0:0:
256,192,182508,1,0,1:0:0:0:
256,192,182594,1,8,1:0:0:0:
256,192,182681,1,8,1:0:0:0:
256,192,182768,1,0,1:0:0:0:
256,192,182941,1,0,1:0:0:0:
256,192,183028,1,0,1:0:0:0:
256,192,183115,1,0,1:0:0:0:
256,192,183288,1,8,1:0:0:0:
256,192,183375,1,0,1:0:0:0:
256,192,183461,1,0,1:0:0:0:
256,192,183548,1,0,1:0:0:0:
256,192,183635,1,8,1:0:0:0:
256,192,183808,1,0,1:0:0:0:
256,192,183982,1,0,1:0:0:0:
256,192,184068,1,0,1:0:0:0:
256,192,184155,1,8,1:0:0:0:
256,192,184242,1,8,1:0:0:0:
256,192,184328,1,0,1:0:0:0:
256,192,184415,1,0,1:0:0:0:
256,192,184502,1,8,1:0:0:0:
256,192,184675,1,8,1:0:0:0:
256,192,184762,1,0,1:0:0:0:
256,192,184849,1,8,1:0:0:0:
256,192,185022,1,0,1:0:0:0:
256,192,185109,1,8,1:0:0:0:
256,192,185195,1,0,1:0:0:0:
256,192,185282,1,0,1:0:0:0:
256,192,185369,1,8,1:0:0:0:
256,192,185456,1,8,1:0:0:0:
256,192,185542,1,0,1:0:0:0:
256,192,185629,1,0,1:0:0:0:
256,192,185716,1,8,1:0:0:0:
256,192,185889,1,0,1:0:0:0:
256,192,186063,1,8,1:0:0:0:
256,192,186149,1,8,1:0:0:0:
256,192,186236,1,0,1:0:0:0:
256,192,186409,1,8,1:0:0:0:
256,192,186496,1,0,1:0:0:0:
256,192,186583,1,8,1:0:0:0:
256,192,186669,1,0,1:0:0:0:
256,192,186756,1,8,1:0:0:0:
256,192,186843,1,8,1:0:0:0:
256,192,186930,1,0,1:0:0:0:
256,192,187016,1,0,1:0:0:0:
256,192,187103,1,8,1:0:0:0:
256,192,187190,1,0,1:0:0:0:
256,192,187276,1,8,1:0:0:0:
256,192,187363,1,0,1:0:0:0:
256,192,187450,1,8,1:0:0:0:
256,192,187536,1,8,1:0:0:0:
256,192,187623,1,8,1:0:0:0:
256,192,187710,1,0,1:0:0:0:
256,192,187797,1,8,1:0:0:0:
256,192,187883,1,8,1:0:0:0:
256,192,187970,1,0,1:0:0:0:
256,192,188057,1,0,1:0:0:0:
256,192,188143,1,8,1:0:0:0:
256,192,188230,1,0,1:0:0:0:
256,192,188317,1,8,1:0:0:0:
256,192,188404,1,8,1:0:0:0:
256,192,188490,1,0,1:0:0:0:
256,192,189184,1,4,1:0:0:0:
256,192,189531,1,8,1:0:0:0:
256,192,189617,1,8,1:0:0:0:
256,192,189704,1,0,1:0:0:0:
256,192,189878,1,8,1:0:0:0:
256,192,189964,1,8,1:0:0:0:
256,192,190051,1,8,1:0:0:0:
256,192,190224,1,0,1:0:0:0:
256,192,190311,1,0,1:0:0:0:
256,192,190398,1,8,1:0:0:0:
256,192,190571,1,0,1:0:0:0:
256,192,190658,1,0,1:0:0:0:
256,192,190745,1,0,1:0:0:0:
256,192,190918,1,8,1:0:0:0:
256,192,191005,1,0,1:0:0:0:
256,192,191091,1,8,1:0:0:0:
256,192,191265,1,0,1:0:0:0:
256,192,191352,1,8,1:0:0:0:
256,192,191438,1,0,1:0:0:0:
256,192,191612,1,8,1:0:0:0:
256,192,191785,1,0,1:0:0:0:
256,192,191958,1,8,1:0:0:0:
256,192,192132,1,0,1:0:0:0:
256,192,192305,1,8,1:0:0:0:
256,192,192392,1,8,1:0:0:0:
256,192,192479,1,0,1:0:0:0:
256,192,192652,1,8,1:0:0:0:
256,192,192739,1,8,1:0:0:0:
256,192,192826,1,8,1:0:0:0:
256,192,192999,1,0,1:0:0:0:
256,192,193086,1,0,1:0:0:0:
256,192,193172,1,8,1:0:0:0:
256,192,193346,1,8,1:0:0:0:
256,192,193432,1,8,1:0:0:0:
256,192,193519,1,0,1:0:0:0:
256,192,193606,1,0,1:0:0:0:
256,192,193693,1,8,1:0:0:0:
256,192,193866,1,0,1:0:0:0:
256,192,194039,1,8,1:0:0:0:
256,192,194126,1,0,1:0:0:0:
256,192,194213,1,0,1:0:0:0:
256,192,194299,1,0,1:0:0:0:
256,192,194386,1,8,1:0:0:0:
256,192,194560,1,0,1:0:0:0:
256,192,194733,1,8,1:0:0:0:
256,192,195080,1,0,1:0:0:0:
256,192,195167,1,0,1:0:0:0:
256,192,195253,1,8,1:0:0:0:
256,192,195427,1,8,1:0:0:0:
256,192,195513,1,8,1:0:0:0:
256,192,195600,1,0,1:0:0:0:
256,192,195773,1,8,1:0:0:0:
256,192,195860,1,0,1:0:0:0:
256,192,195947,1,0,1:0:0:0:
256,192,196120,1,8,1:0:0:0:
256,192,196207,1,8,1:0:0:0:
256,192,196294,1,0,1:0:0:0:
256,192,196380,1,0,1:0:0:0:
256,192,196467,1,8,1:0:0:0:
256,192,196641,1,0,1:0:0:0:
256,192,196814,1,8,1:0:0:0:
256,192,196901,1,0,1:0:0:0:
256,192,197074,1,0,1:0:0:0:
256,192,197161,1,8,1:0:0:0:
256,192,197334,1,0,1:0:0:0:
256,192,197508,1,8,1:0:0:0:
256,192,197854,1,8,1:0:0:0:
256,192,197941,1,8,1:0:0:0:
256,192,198028,1,0,1:0:0:0:
256,192,198201,1,8,1:0:0:0:
256,192,198288,1,8,1:0:0:0:
256,192,198375,1,8,1:0:0:0:
256,192,198548,1,0,1:0:0:0:
256,192,198635,1,0,1:0:0:0:
256,192,198721,1,8,1:0:0:0:
256,192,198895,1,0,1:0:0:0:
256,192,198982,1,0,1:0:0:0:
256,192,199068,1,0,1:0:0:0:
256,192,199242,1,8,1:0:0:0:
256,192,199328,1,0,1:0:0:0:
256,192,199415,1,0,1:0:0:0:
256,192,199589,1,8,1:0:0:0:
256,192,199675,1,0,1:0:0:0:
256,192,199849,1,0,1:0:0:0:
256,192,199935,1,8,1:0:0:0:
256,192,200109,1,0,1:0:0:0:
256,192,200282,1,8,1:0:0:0:
256,192,200456,1,0,1:0:0:0:
256,192,200499,1,0,1:0:0:0:
256,192,200542,1,0,1:0:0:0:
256,192,200629,1,8,1:0:0:0:
256,192,200802,1,0,1:0:0:0:
256,192,200846,1,0,1:0:0:0:
256,192,200889,1,0,1:0:0:0:
256,192,200976,1,8,1:0:0:0:
256,192,201149,1,0,1:0:0:0:
256,192,201193,1,0,1:0:0:0:
256,192,201236,1,8,1:0:0:0:
256,192,201279,1,8,1:0:0:0:
256,192,201323,1,8,1:0:0:0:
256,192,201496,1,8,1:0:0:0:
256,192,201539,1,0,1:0:0:0:
256,192,201583,1,0,1:0:0:0:
256,192,201669,1,12,1:0:0:0:
256,192,202016,1,0,1:0:0:0:
256,192,202103,1,0,1:0:0:0:
256,192,202190,1,8,1:0:0:0:
256,192,202363,1,8,1:0:0:0:
256,192,202450,1,8,1:0:0:0:
256,192,202536,1,0,1:0:0:0:
256,192,202710,1,8,1:0:0:0:
256,192,202797,1,0,1:0:0:0:
256,192,202883,1,0,1:0:0:0:
256,192,202970,1,0,1:0:0:0:
256,192,203057,1,8,1:0:0:0:
256,192,203230,1,0,1:0:0:0:
256,192,203404,1,8,1:0:0:0:
256,192,203490,1,8,1:0:0:0:
256,192,203577,1,0,1:0:0:0:
256,192,203750,1,8,1:0:0:0:
256,192,203808,1,8,1:0:0:0:
256,192,203866,1,8,1:0:0:0:
256,192,203924,1,0,1:0:0:0:
256,192,204010,1,0,1:0:0:0:
256,192,204097,1,8,1:0:0:0:
256,192,204271,1,0,1:0:0:0:
256,192,204444,1,8,1:0:0:0:
256,192,204531,1,8,1:0:0:0:
256,192,204617,1,0,1:0:0:0:
256,192,204791,1,0,1:0:0:0:
256,192,204878,1,0,1:0:0:0:
256,192,204964,1,8,1:0:0:0:
256,192,205138,1,8,1:0:0:0:
256,192,205224,1,0,1:0:0:0:
256,192,205398,1,0,1:0:0:0:
256,192,205484,1,8,1:0:0:0:
256,192,205658,1,0,1:0:0:0:
256,192,205831,1,8,1:0:0:0:
256,192,206178,1,0,1:0:0:0:
256,192,206525,1,0,1:0:0:0:
256,192,206612,1,8,1:0:0:0:
256,192,206785,1,8,1:0:0:0:
256,192,206872,1,0,1:0:0:0:
256,192,207045,1,0,1:0:0:0:
256,192,207219,1,8,1:0:0:0:
256,192,207305,1,8,1:0:0:0:
256,192,207392,1,0,1:0:0:0:
256,192,207565,1,0,1:0:0:0:
256,192,207652,1,0,1:0:0:0:
256,192,207739,1,8,1:0:0:0:
256,192,207912,1,8,1:0:0:0:
256,192,207999,1,0,1:0:0:0:
256,192,208172,1,0,1:0:0:0:
256,192,208259,1,8,1:0:0:0:
256,192,208432,1,0,1:0:0:0:
256,192,208606,1,8,1:0:0:0:
256,192,208693,1,0,1:0:0:0:
256,192,208779,1,8,1:0:0:0:
256,192,208953,1,0,1:0:0:0:
256,192,209039,1,8,1:0:0:0:
256,192,209126,1,0,1:0:0:0:
256,192,209299,1,8,1:0:0:0:
256,192,209473,1,0,1:0:0:0:
256,192,209646,1,8,1:0:0:0:
256,192,209733,1,8,1:0:0:0:
256,192,209820,1,8,1:0:0:0:
256,192,209993,1,0,1:0:0:0:
256,192,210080,1,0,1:0:0:0:
256,192,210167,1,8,1:0:0:0:
256,192,210253,1,0,1:0:0:0:
256,192,210340,1,8,1:0:0:0:
256,192,210427,1,8,1:0:0:0:
256,192,210513,1,0,1:0:0:0:
256,192,210600,1,0,1:0:0:0:
256,192,210687,1,8,1:0:0:0:
256,192,210773,1,0,1:0:0:0:
256,192,210947,1,0,1:0:0:0:
256,192,211034,1,8,1:0:0:0:
256,192,211207,1,8,1:0:0:0:
256,192,211294,1,0,1:0:0:0:
