osu file format v14

[General]
AudioFilename: audio.mp3
AudioLeadIn: 0
PreviewTime: 144358
Countdown: 0
SampleSet: Normal
StackLeniency: 0.7
Mode: 1
LetterboxInBreaks: 0
WidescreenStoryboard: 1

[Editor]
DistanceSpacing: 1.2
BeatDivisor: 4
GridSize: 32
TimelineZoom: 1.8

[Metadata]
Title:Magic people
TitleUnicode:Мэджик пипл
Artist:ATL
ArtistUnicode:ATL
Creator:nevqr
Version:Cry's Muzukashii
Source:
Tags:cryceptio clockbite кривой эфир krivoy efir hardstyle acidhouze acidhouse electronic russian русский hip hop hip-hop rap
BeatmapID:4049532
BeatmapSetID:1955209

[Difficulty]
HPDrainRate:6
CircleSize:2
OverallDifficulty:5
ApproachRate:9
SliderMultiplier:1.4
SliderTickRate:1

[Events]
//Background and Video events
0,0,"magicpeople.jpg",0,-120
//Break Periods
//Storyboard Layer 0 (Background)
//Storyboard Layer 1 (Fail)
//Storyboard Layer 2 (Pass)
//Storyboard Layer 3 (Foreground)
//Storyboard Layer 4 (Overlay)
//Storyboard Sound Samples

[TimingPoints]
601,346.820809248555,4,1,0,30,1,0
601,-133.333333333333,4,1,0,30,0,0
1902,346.820809248555,4,1,0,30,1,0
1902,-133.333333333333,4,1,0,30,0,0
6063,346.820809248555,4,1,0,30,1,0
6063,-133.333333333333,4,1,0,30,0,0
11265,-100,4,1,0,30,0,0
11612,-100,4,1,0,60,0,0
42305,-99.3199887548988,4,1,0,60,0,0
42479,-98.3359735027157,4,1,0,60,0,0
42652,-97.2166707117042,4,1,0,60,0,0
42826,-96.0000172234958,4,1,0,60,0,0
42999,-94.7286060695041,4,1,0,60,0,0
43172,-93.4146646054673,4,1,0,60,0,0
43346,-92.0641350453418,4,1,0,60,0,0
43519,-90.7030442942691,4,1,0,60,0,0
43606,-90.014316113758,4,1,0,60,0,0
43693,-89.3239369691782,4,1,0,60,0,0
43866,-87.9492162419822,4,1,0,60,0,0
43953,-87.2582539082478,4,1,0,60,0,0
44039,-86.5683191128044,4,1,0,60,0,0
44213,-85.2014202502512,4,1,0,60,0,0
44560,-82.4913986968702,4,1,0,60,0,0
44906,-79.8403193612775,4,1,0,60,0,0
45600,-80.6036246300137,4,1,0,60,0,0
46294,-81.7482759313878,4,1,0,60,0,0
46641,-82.4115582642059,4,1,0,60,0,0
46987,-83.1258767522161,4,1,0,60,0,0
47681,-84.7083713643907,4,1,0,60,0,0
48375,-86.4843367079196,4,1,0,60,0,0
49068,-88.4512806993015,4,1,0,60,0,0
49415,-89.510723653403,4,1,0,60,0,0
49762,-90.6215397741777,4,1,0,60,0,0
50456,-93.0037851743264,4,1,0,60,0,0
51149,-95.6096433066242,4,1,0,60,0,0
51843,-98.4663404607657,4,1,0,60,0,0
52190,-99.9947820420125,4,1,0,60,0,0
52536,-101.594490404868,4,1,0,60,0,0
52883,-103.264347240482,4,1,0,60,0,0
53230,-105.018180647133,4,1,0,60,0,0
53577,-106.855859237192,4,1,0,60,0,0
53924,-108.78240551995,4,1,0,60,0,0
54271,-110.803324099723,4,1,0,60,0,0
56005,-83.3333333333337,4,1,0,90,0,1
65716,-83.6820083682008,4,1,0,70,0,0
67103,-83.5073068893529,4,1,0,90,0,1
77508,-80,4,1,0,70,0,0
78201,-82.9875518672199,4,1,0,90,0,1
78548,-83.561729275248,4,1,0,90,0,1
78635,-83.7573376339467,4,1,0,90,0,1
78721,-83.9661483180373,4,1,0,90,0,1
78895,-84.4157924782087,4,1,0,90,0,1
79068,-84.9061062577904,4,1,0,90,0,1
79242,-85.4362688099846,4,1,0,90,0,1
79328,-85.714432632863,4,1,0,90,0,1
79415,-85.9976542119921,4,1,0,90,0,1
79589,-86.5950813993765,4,1,0,68,0,0
80976,-83.5073068893528,4,1,0,90,0,1
81063,-83.6025251069266,4,1,0,90,0,1
81323,-84.0857710437621,4,1,0,90,0,1
81409,-84.2804982339561,4,1,0,90,0,1
81496,-84.4907268456771,4,1,0,90,0,1
81669,-84.9462281700922,4,1,0,90,0,1
81843,-85.4402221720496,4,1,0,90,0,1
82016,-85.9712005300828,4,1,0,90,0,1
82103,-86.2513610043056,4,1,0,90,0,1
82190,-86.5399880095353,4,1,0,90,0,1
82363,-87.1383757406762,4,1,0,68,0,0
83750,-83.507306889353,4,1,0,90,0,1
88086,-99.5024875621893,4,1,0,90,0,0
89299,-99.5024875621893,4,1,0,100,0,0
131091,-98.5676420108471,4,1,0,100,0,0
131265,-97.2401092390637,4,1,0,100,0,0
131438,-95.734042232558,4,1,0,100,0,0
131612,-94.1111107493953,4,1,0,100,0,0
131785,-92.4306495005515,4,1,0,100,0,0
131958,-90.7003825998256,4,1,0,100,0,0
132132,-88.9594043386463,4,1,0,100,0,0
132305,-87.2120493715838,4,1,0,100,0,0
132392,-86.3344164783605,4,1,0,100,0,0
132479,-85.4590532588841,4,1,0,100,0,0
132652,-83.7288938440046,4,1,0,100,0,0
132739,-82.8657083740474,4,1,0,100,0,0
132826,-82.0080547219233,4,1,0,100,0,0
132999,-80.3212851405622,4,1,0,100,0,0
133346,-80.5681294985871,4,1,0,100,0,0
133693,-80.9318309918797,4,1,0,100,0,0
134386,-81.8400726350929,4,1,0,100,0,0
135080,-82.9291961453149,4,1,0,100,0,0
135427,-83.5312776451142,4,1,0,100,0,0
135773,-84.1692114757634,4,1,0,100,0,0
136467,-85.5469166714064,4,1,0,100,0,0
137161,-87.0627905742054,4,1,0,100,0,0
137854,-88.7157841904654,4,1,0,100,0,0
138201,-89.5922158978975,4,1,0,100,0,0
138548,-90.5070371236198,4,1,0,100,0,0
139242,-92.4479131188422,4,1,0,100,0,0
139935,-94.5411048538565,4,1,0,100,0,0
140629,-96.8029966431977,4,1,0,100,0,0
140976,-97.9999235765449,4,1,0,100,0,0
141323,-99.2431448337534,4,1,0,100,0,0
141669,-100.534574510346,4,1,0,100,0,0
142016,-101.872342967752,4,1,0,100,0,0
142190,-102.564677444061,4,1,0,100,0,0
142363,-103.266415944094,4,1,0,100,0,0
142710,-104.715417504478,4,1,0,100,0,0
143057,-106.221956715521,4,1,0,100,0,0
143230,-106.995416923072,4,1,0,100,0,0
143404,-107.788849719661,4,1,0,100,0,0
143577,-108.59352082655,4,1,0,100,0,0
143750,-109.414344246513,4,1,0,100,0,0
143924,-110.25662383294,4,1,0,100,0,0
144097,-111.111111111111,4,1,0,100,0,0
144791,-83.5073068893528,4,1,0,90,0,1
154502,-83.5073068893528,4,1,0,70,0,0
155889,-83.1600831600833,4,1,0,90,0,1
166294,-83.3333333333333,4,1,0,70,0,0
166987,-82.9875518672199,4,1,0,90,0,1
167334,-83.6170471509871,4,1,0,90,0,1
167421,-83.831691348919,4,1,0,90,0,1
167508,-84.0609295592352,4,1,0,90,0,1
167681,-84.5549366157443,4,1,0,90,0,1
167854,-85.0974501889705,4,1,0,90,0,1
168028,-85.6779998790787,4,1,0,90,0,1
168115,-85.9845865837151,4,1,0,90,0,1
168201,-86.2969504639032,4,1,0,90,0,1
168375,-86.9565217391304,4,1,0,60,0,0
169762,-82.9875518672199,4,1,0,90,0,1
170109,-83.6742414789312,4,1,0,90,0,1
170195,-83.9086025153435,4,1,0,90,0,1
170282,-84.1560555743555,4,1,0,90,0,1
170456,-84.699089406386,4,1,0,90,0,1
170629,-85.2893106395924,4,1,0,90,0,1
170802,-85.9290342754055,4,1,0,90,0,1
170889,-86.2613956104384,4,1,0,90,0,1
170976,-86.6081770381422,4,1,0,90,0,1
171149,-87.3286175879836,4,1,0,69,0,0
171496,-86.6125217126644,4,1,0,69,0,0
171843,-85.5862747797305,4,1,0,69,0,0
172190,-84.4173648412008,4,1,0,69,0,0
172536,-84.4173648412008,4,1,0,90,0,1
177392,-82.98755186722,4,1,0,79,0,0
178086,-82.98755186722,4,1,0,90,0,1
188490,-83.1600831600832,4,1,0,100,0,0
189184,-83.5073068893529,4,1,0,90,0,1
199849,-84.543585637356,4,1,0,90,0,1
200109,-86.1060823253487,4,1,0,90,0,1
200282,-87.3362445414847,4,1,0,60,0,0
200456,-87.0423438203143,4,1,0,60,0,0
200802,-86.1262576398803,4,1,0,60,0,0
201149,-85.0204279273661,4,1,0,60,0,0
201496,-83.8004525423414,4,1,0,60,0,0
201669,-83.1600831600832,4,1,0,90,0,1
205831,-83.3333333333333,4,1,0,70,0,0
206178,-83.1600831600832,4,1,0,90,0,1
210340,-85.9669409405641,4,1,0,90,0,1
210687,-90.4302005501999,4,1,0,90,0,1
210947,-94.6704132340706,4,1,0,90,0,1
211207,-99.7506234413965,4,1,0,90,0,0

[HitObjects]
96,224,601,5,0,1:0:0:0:
96,224,1207,1,8,1:0:0:0:
96,224,1902,1,0,1:0:0:0:
96,224,2595,1,8,1:0:0:0:
448,64,3289,1,0,1:0:0:0:
96,224,3982,1,8,1:0:0:0:
96,224,4676,1,0,1:0:0:0:
96,224,5370,1,8,1:0:0:0:
256,192,6063,12,0,11091,1:0:0:0:
448,64,11265,5,8,1:0:0:0:
64,320,11612,1,4,1:0:0:0:
96,224,11958,1,0,1:0:0:0:
96,224,12132,1,0,1:0:0:0:
448,64,12305,1,8,1:0:0:0:
96,224,12652,1,0,1:0:0:0:
96,224,12826,1,0,1:0:0:0:
448,64,12999,1,8,1:0:0:0:
448,64,13172,1,8,1:0:0:0:
96,224,13346,1,0,1:0:0:0:
96,224,13519,1,0,1:0:0:0:
448,64,13693,1,8,1:0:0:0:
96,224,14039,1,0,1:0:0:0:
448,64,14386,1,8,1:0:0:0:
96,224,14560,1,0,1:0:0:0:
448,64,14733,1,8,1:0:0:0:
448,64,14906,1,8,1:0:0:0:
96,224,15080,1,0,1:0:0:0:
96,224,15253,1,0,1:0:0:0:
448,64,15427,1,8,1:0:0:0:
448,64,15773,1,8,1:0:0:0:
448,64,16120,1,8,1:0:0:0:
448,64,16467,1,8,1:0:0:0:
448,64,16814,1,8,1:0:0:0:
96,224,16987,1,0,1:0:0:0:
448,64,17161,1,8,1:0:0:0:
448,64,17508,1,8,1:0:0:0:
448,64,17681,1,8,1:0:0:0:
96,224,17854,1,0,1:0:0:0:
448,64,18201,1,8,1:0:0:0:
96,224,18375,1,0,1:0:0:0:
448,64,18548,1,8,1:0:0:0:
96,224,18721,1,0,1:0:0:0:
448,64,18895,1,8,1:0:0:0:
448,64,19068,1,8,1:0:0:0:
96,224,19242,1,0,1:0:0:0:
448,64,19589,1,8,1:0:0:0:
96,224,19935,1,0,1:0:0:0:
448,64,20109,1,8,1:0:0:0:
96,224,20282,1,0,1:0:0:0:
96,224,20456,1,0,1:0:0:0:
448,64,20629,1,8,1:0:0:0:
448,64,20976,1,8,1:0:0:0:
96,224,21323,1,0,1:0:0:0:
448,64,21669,1,8,1:0:0:0:
96,224,21843,1,0,1:0:0:0:
448,64,22016,1,8,1:0:0:0:
448,64,22710,1,8,1:0:0:0:
448,64,23057,1,8,1:0:0:0:
96,224,23404,1,0,1:0:0:0:
96,224,23750,1,0,1:0:0:0:
96,224,23924,1,0,1:0:0:0:
448,64,24097,1,8,1:0:0:0:
96,224,24271,1,0,1:0:0:0:
448,64,24444,1,8,1:0:0:0:
96,224,24617,1,0,1:0:0:0:
448,64,24791,1,8,1:0:0:0:
448,64,25138,1,8,1:0:0:0:
448,64,25224,1,8,1:0:0:0:
448,64,25311,1,8,1:0:0:0:
96,224,25484,1,0,1:0:0:0:
448,64,25831,1,8,1:0:0:0:
448,64,26178,1,8,1:0:0:0:
96,224,26525,1,0,1:0:0:0:
448,64,26698,1,8,1:0:0:0:
96,224,26872,1,0,1:0:0:0:
96,224,27045,1,0,1:0:0:0:
448,64,27219,1,8,1:0:0:0:
96,224,27392,1,0,1:0:0:0:
448,64,27565,1,8,1:0:0:0:
448,64,27652,1,8,1:0:0:0:
448,64,27912,1,8,1:0:0:0:
448,64,28259,1,8,1:0:0:0:
448,64,28606,1,8,1:0:0:0:
448,64,28953,1,8,1:0:0:0:
96,224,29126,1,0,1:0:0:0:
64,64,29299,1,0,1:0:0:0:
96,224,29386,1,0,1:0:0:0:
96,224,29473,1,0,1:0:0:0:
448,64,29646,1,8,1:0:0:0:
64,64,29993,1,0,1:0:0:0:
64,64,30080,1,0,1:0:0:0:
64,64,30167,1,0,1:0:0:0:
448,64,30340,1,8,1:0:0:0:
96,224,30687,1,0,1:0:0:0:
96,224,30860,1,0,0:0:0:0:
448,64,31034,1,8,1:0:0:0:
96,224,31207,1,0,0:0:0:0:
448,64,31380,1,8,1:0:0:0:
96,224,31554,1,0,1:0:0:0:
448,64,31727,1,8,1:0:0:0:
96,224,32074,1,0,1:0:0:0:
96,224,32161,1,0,1:0:0:0:
96,224,32247,1,0,1:0:0:0:
448,64,32421,1,8,1:0:0:0:
96,224,32594,1,0,1:0:0:0:
448,64,32768,1,8,1:0:0:0:
448,64,32941,1,8,1:0:0:0:
448,64,33115,1,8,1:0:0:0:
448,320,33808,1,12,1:0:0:0:
448,64,34155,1,8,1:0:0:0:
448,64,34502,1,8,1:0:0:0:
448,64,34849,1,8,1:0:0:0:
96,224,35022,1,0,1:0:0:0:
96,224,35195,1,0,1:0:0:0:
96,224,35369,1,0,1:0:0:0:
448,64,35542,1,8,1:0:0:0:
448,64,35716,1,8,1:0:0:0:
448,64,35889,1,8,1:0:0:0:
448,64,36236,1,8,1:0:0:0:
448,64,36583,1,8,1:0:0:0:
96,224,36930,1,0,1:0:0:0:
448,64,37103,1,8,1:0:0:0:
448,64,37276,1,8,1:0:0:0:
448,64,37623,1,8,1:0:0:0:
448,64,37797,1,8,1:0:0:0:
96,224,37970,1,0,1:0:0:0:
96,224,38143,1,0,1:0:0:0:
448,64,38317,1,8,1:0:0:0:
96,224,38490,1,0,1:0:0:0:
448,64,38664,1,8,1:0:0:0:
448,64,39010,1,8,1:0:0:0:
448,64,39184,1,8,1:0:0:0:
96,224,39357,1,0,1:0:0:0:
96,224,39531,1,0,1:0:0:0:
448,64,39704,1,8,1:0:0:0:
96,224,39878,1,0,1:0:0:0:
448,64,40051,1,8,1:0:0:0:
448,64,40398,1,8,1:0:0:0:
448,64,40745,1,8,1:0:0:0:
96,224,40918,1,0,1:0:0:0:
448,64,41091,1,8,1:0:0:0:
96,224,41265,1,8,1:0:0:0:
96,224,41438,1,0,1:0:0:0:
96,224,42132,1,0,1:0:0:0:
96,224,42305,1,0,1:0:0:0:
96,224,42479,1,0,1:0:0:0:
96,224,42652,1,0,1:0:0:0:
96,224,42826,1,0,1:0:0:0:
96,224,42999,1,0,1:0:0:0:
96,224,43172,1,0,1:0:0:0:
96,224,43346,1,0,1:0:0:0:
448,64,43519,1,8,1:0:0:0:
448,64,43606,1,8,1:0:0:0:
448,64,43693,1,8,1:0:0:0:
96,224,43866,1,0,1:0:0:0:
96,224,43953,1,0,1:0:0:0:
96,224,44039,1,0,1:0:0:0:
448,64,44213,1,8,1:0:0:0:
448,64,44560,1,8,1:0:0:0:
96,224,44906,1,0,1:0:0:0:
448,64,45600,1,8,1:0:0:0:
96,224,46294,1,0,1:0:0:0:
96,224,46641,1,0,1:0:0:0:
448,64,46987,1,8,1:0:0:0:
96,224,47681,1,0,1:0:0:0:
448,64,48375,1,8,1:0:0:0:
96,224,49068,1,0,1:0:0:0:
448,64,49415,1,8,1:0:0:0:
96,224,49762,1,0,1:0:0:0:
448,64,50456,1,8,1:0:0:0:
96,224,51149,1,0,1:0:0:0:
448,64,51843,1,8,1:0:0:0:
96,224,52190,1,0,1:0:0:0:
96,224,52536,1,0,1:0:0:0:
448,64,52883,1,8,1:0:0:0:
448,64,53230,1,8,1:0:0:0:
96,224,53577,1,0,1:0:0:0:
448,64,53924,1,8,1:0:0:0:
96,224,54271,1,0,1:0:0:0:
448,320,56005,1,12,1:0:0:0:
448,64,56352,1,8,1:0:0:0:
448,64,56698,1,8,1:0:0:0:
448,64,57045,1,8,1:0:0:0:
96,224,57219,1,0,1:0:0:0:
96,224,57392,1,0,1:0:0:0:
96,224,57479,1,0,1:0:0:0:
96,224,57565,1,0,1:0:0:0:
448,64,57739,1,8,1:0:0:0:
96,224,57912,1,0,1:0:0:0:
448,64,58086,1,8,1:0:0:0:
96,224,58432,1,0,1:0:0:0:
448,64,58779,1,8,1:0:0:0:
96,224,58953,1,0,1:0:0:0:
448,64,59126,1,8,1:0:0:0:
96,224,59299,1,0,1:0:0:0:
448,64,59473,1,8,1:0:0:0:
96,224,59646,1,0,1:0:0:0:
96,224,59820,1,0,1:0:0:0:
96,224,59906,1,0,1:0:0:0:
96,224,59993,1,0,1:0:0:0:
448,64,60167,1,8,1:0:0:0:
448,64,60513,1,8,1:0:0:0:
448,64,60860,1,8,1:0:0:0:
448,64,61207,1,8,1:0:0:0:
96,224,61380,1,0,1:0:0:0:
448,64,61554,1,8,1:0:0:0:
96,224,61901,1,0,1:0:0:0:
448,64,62247,1,8,1:0:0:0:
448,64,62594,1,8,1:0:0:0:
448,64,62768,1,8,1:0:0:0:
96,224,62941,1,0,1:0:0:0:
448,64,63115,1,8,1:0:0:0:
96,224,63288,1,0,1:0:0:0:
96,224,63375,1,0,1:0:0:0:
96,224,63461,1,0,1:0:0:0:
448,64,63635,1,8,1:0:0:0:
448,64,63808,1,8,1:0:0:0:
96,224,63982,1,0,1:0:0:0:
96,224,64068,1,0,1:0:0:0:
96,224,64155,1,0,1:0:0:0:
448,64,64328,1,8,1:0:0:0:
448,64,64675,1,8,1:0:0:0:
96,224,64849,1,0,1:0:0:0:
448,64,65022,1,8,1:0:0:0:
448,64,65195,1,8,1:0:0:0:
448,64,65369,1,8,1:0:0:0:
448,64,65456,1,8,1:0:0:0:
448,64,65542,1,8,1:0:0:0:
96,224,65716,1,0,1:0:0:0:
448,320,67103,1,12,1:0:0:0:
448,64,67450,1,8,1:0:0:0:
448,64,67797,1,8,1:0:0:0:
448,64,68143,1,8,1:0:0:0:
96,224,68317,1,0,1:0:0:0:
448,64,68490,1,8,1:0:0:0:
448,64,68577,1,8,1:0:0:0:
448,64,68664,1,8,1:0:0:0:
96,224,68837,1,0,1:0:0:0:
448,64,69010,1,8,1:0:0:0:
448,64,69184,1,8,1:0:0:0:
96,224,69531,1,0,1:0:0:0:
96,224,69878,1,0,1:0:0:0:
448,64,70051,1,8,1:0:0:0:
96,224,70224,1,0,1:0:0:0:
96,224,70398,1,0,1:0:0:0:
96,224,70571,1,0,1:0:0:0:
448,64,70745,1,8,1:0:0:0:
96,224,70918,1,0,1:0:0:0:
96,224,71005,1,0,1:0:0:0:
96,224,71091,1,0,1:0:0:0:
448,64,71265,1,8,1:0:0:0:
448,64,71612,1,8,1:0:0:0:
96,224,71958,1,0,1:0:0:0:
96,224,72045,1,0,1:0:0:0:
96,224,72132,1,0,1:0:0:0:
448,64,72305,1,8,1:0:0:0:
96,224,72479,1,0,1:0:0:0:
448,64,72652,1,8,1:0:0:0:
96,224,72999,1,0,1:0:0:0:
448,64,73346,1,8,1:0:0:0:
448,64,73693,1,8,1:0:0:0:
448,64,73866,1,8,1:0:0:0:
96,224,74039,1,0,1:0:0:0:
96,224,74126,1,0,1:0:0:0:
96,224,74213,1,0,1:0:0:0:
96,224,74386,1,8,1:0:0:0:
96,224,74560,1,0,1:0:0:0:
448,64,74733,1,0,1:0:0:0:
448,64,74906,1,8,1:0:0:0:
448,64,75080,1,8,1:0:0:0:
448,64,75427,1,8,1:0:0:0:
448,64,75600,1,8,1:0:0:0:
448,64,75773,1,8,1:0:0:0:
96,224,75947,1,0,1:0:0:0:
448,64,76120,1,8,1:0:0:0:
448,64,76294,1,8,1:0:0:0:
448,64,76467,1,8,1:0:0:0:
448,64,76554,1,8,1:0:0:0:
448,64,76641,1,8,1:0:0:0:
96,224,76814,1,0,1:0:0:0:
448,64,76987,1,8,1:0:0:0:
448,64,77161,1,8,1:0:0:0:
448,64,77247,1,8,1:0:0:0:
448,64,77334,1,8,1:0:0:0:
96,224,77508,1,0,1:0:0:0:
448,320,78201,1,12,1:0:0:0:
96,224,78548,1,0,1:0:0:0:
96,224,78635,1,0,1:0:0:0:
96,224,78721,1,0,1:0:0:0:
448,64,78895,1,8,1:0:0:0:
96,224,79068,1,0,1:0:0:0:
96,224,79242,1,0,1:0:0:0:
96,224,79328,1,0,1:0:0:0:
96,224,79415,1,0,1:0:0:0:
448,64,79589,1,8,1:0:0:0:
64,64,80976,1,0,1:0:0:0:
64,64,81063,1,0,1:0:0:0:
448,64,81323,1,8,1:0:0:0:
448,64,81409,1,8,1:0:0:0:
448,64,81496,1,8,1:0:0:0:
448,64,81669,1,8,1:0:0:0:
96,224,81843,1,0,1:0:0:0:
96,224,82016,1,0,1:0:0:0:
96,224,82103,1,0,1:0:0:0:
96,224,82190,1,0,1:0:0:0:
448,64,82363,1,8,1:0:0:0:
448,64,83750,1,8,1:0:0:0:
448,64,84097,1,8,1:0:0:0:
96,224,84271,1,0,1:0:0:0:
96,224,84444,1,0,1:0:0:0:
448,64,84704,1,8,1:0:0:0:
96,224,84964,1,0,1:0:0:0:
448,64,85138,1,8,1:0:0:0:
96,224,85311,1,0,1:0:0:0:
448,64,85484,1,8,1:0:0:0:
96,224,85658,1,0,1:0:0:0:
448,64,85831,1,8,1:0:0:0:
96,224,86005,1,0,1:0:0:0:
448,64,86178,1,8,1:0:0:0:
96,224,86352,1,0,1:0:0:0:
448,64,86525,1,8,1:0:0:0:
448,64,86872,1,8,1:0:0:0:
96,224,87219,1,0,1:0:0:0:
96,224,87305,1,0,1:0:0:0:
96,224,87392,1,0,1:0:0:0:
448,64,87565,1,8,1:0:0:0:
96,224,87739,1,0,1:0:0:0:
96,224,87912,1,0,1:0:0:0:
448,320,89299,1,12,1:0:0:0:
96,224,89993,1,0,1:0:0:0:
448,64,90687,1,8,1:0:0:0:
96,224,91034,1,0,1:0:0:0:
448,64,91380,1,8,1:0:0:0:
96,224,91727,1,0,1:0:0:0:
96,224,91901,1,0,1:0:0:0:
448,64,92074,1,8,1:0:0:0:
96,224,92768,1,0,1:0:0:0:
448,64,93461,1,8,1:0:0:0:
96,224,93808,1,0,1:0:0:0:
448,64,94155,1,8,1:0:0:0:
96,224,94328,1,0,1:0:0:0:
96,224,94502,1,0,1:0:0:0:
448,64,94675,1,8,1:0:0:0:
448,64,94849,1,8,1:0:0:0:
96,224,95542,1,0,1:0:0:0:
448,64,96236,1,8,1:0:0:0:
96,224,96583,1,0,1:0:0:0:
448,64,96930,1,8,1:0:0:0:
96,224,97276,1,0,1:0:0:0:
96,224,97450,1,0,1:0:0:0:
448,64,97623,1,8,1:0:0:0:
96,224,98317,1,0,1:0:0:0:
96,224,99010,1,0,1:0:0:0:
448,64,99357,1,8,1:0:0:0:
448,64,99704,1,8,1:0:0:0:
448,64,100051,1,8,1:0:0:0:
96,224,100224,1,0,1:0:0:0:
448,320,100398,1,12,1:0:0:0:
96,224,100745,1,0,1:0:0:0:
448,64,101091,1,8,1:0:0:0:
448,64,101438,1,8,1:0:0:0:
96,224,101785,1,0,1:0:0:0:
448,64,101958,1,8,1:0:0:0:
96,224,102132,1,0,1:0:0:0:
96,224,102305,1,0,1:0:0:0:
448,64,102479,1,8,1:0:0:0:
96,224,102826,1,0,1:0:0:0:
96,224,102999,1,0,1:0:0:0:
448,64,103172,1,8,1:0:0:0:
96,224,103519,1,0,1:0:0:0:
448,64,103866,1,8,1:0:0:0:
448,64,104213,1,8,1:0:0:0:
448,64,104560,1,8,1:0:0:0:
448,64,104733,1,8,1:0:0:0:
96,224,104906,1,0,1:0:0:0:
96,224,105080,1,0,1:0:0:0:
448,64,105253,1,8,1:0:0:0:
96,224,105600,1,0,1:0:0:0:
448,64,105947,1,8,1:0:0:0:
448,64,106294,1,8,1:0:0:0:
448,64,106467,1,8,1:0:0:0:
448,64,106641,1,8,1:0:0:0:
448,64,106987,1,8,1:0:0:0:
96,224,107334,1,0,1:0:0:0:
96,224,107508,1,0,1:0:0:0:
448,64,107681,1,8,1:0:0:0:
96,224,107854,1,0,1:0:0:0:
448,64,108028,1,8,1:0:0:0:
448,64,108375,1,8,1:0:0:0:
448,64,108721,1,8,1:0:0:0:
96,224,109068,1,0,1:0:0:0:
96,224,109242,1,0,1:0:0:0:
448,64,109415,1,8,1:0:0:0:
96,224,109762,1,0,1:0:0:0:
96,224,110109,1,0,1:0:0:0:
64,64,110802,1,0,1:0:0:0:
64,64,111149,1,0,1:0:0:0:
448,320,111496,1,12,1:0:0:0:
448,64,111843,1,8,1:0:0:0:
96,224,112190,1,0,1:0:0:0:
96,224,112536,1,0,1:0:0:0:
96,224,112710,1,0,1:0:0:0:
448,64,112883,1,8,1:0:0:0:
96,224,113057,1,0,1:0:0:0:
448,64,113230,1,8,1:0:0:0:
96,224,113404,1,0,1:0:0:0:
448,64,113577,1,8,1:0:0:0:
448,64,113924,1,8,1:0:0:0:
448,64,114271,1,8,1:0:0:0:
448,64,114617,1,8,1:0:0:0:
96,224,114791,1,0,1:0:0:0:
448,64,114964,1,8,1:0:0:0:
96,224,115138,1,0,1:0:0:0:
448,64,115311,1,8,1:0:0:0:
448,64,115658,1,8,1:0:0:0:
128,224,115831,1,0,1:0:0:0:
448,64,116005,1,8,1:0:0:0:
96,224,116178,1,0,1:0:0:0:
448,64,116352,1,8,1:0:0:0:
448,64,116698,1,8,1:0:0:0:
448,64,117045,1,8,1:0:0:0:
448,64,117392,1,8,1:0:0:0:
96,224,117565,1,0,1:0:0:0:
448,64,117739,1,8,1:0:0:0:
448,64,118086,1,8,1:0:0:0:
96,224,118259,1,0,1:0:0:0:
448,64,118432,1,8,1:0:0:0:
96,224,118606,1,0,1:0:0:0:
448,64,118779,1,8,1:0:0:0:
96,224,118953,1,0,1:0:0:0:
448,64,119126,1,8,1:0:0:0:
96,224,119473,1,0,1:0:0:0:
96,224,119820,1,0,1:0:0:0:
448,64,120167,1,8,1:0:0:0:
96,224,120340,1,0,1:0:0:0:
96,224,120513,1,0,1:0:0:0:
448,64,120687,1,8,1:0:0:0:
448,64,120860,1,8,1:0:0:0:
448,64,121207,1,8,1:0:0:0:
96,224,121380,1,0,1:0:0:0:
96,224,121554,1,0,1:0:0:0:
448,64,121727,1,8,1:0:0:0:
448,64,121901,1,8,1:0:0:0:
448,320,122594,1,12,1:0:0:0:
448,64,122941,1,8,1:0:0:0:
448,64,123288,1,8,1:0:0:0:
448,64,123635,1,8,1:0:0:0:
96,224,123808,1,0,1:0:0:0:
96,224,123982,1,0,1:0:0:0:
448,64,124155,1,0,1:0:0:0:
448,64,124328,1,8,1:0:0:0:
448,64,124502,1,8,1:0:0:0:
448,64,124675,1,8,1:0:0:0:
448,64,125022,1,8,1:0:0:0:
448,64,125369,1,8,1:0:0:0:
96,224,125716,1,0,1:0:0:0:
448,64,125889,1,8,1:0:0:0:
448,64,126063,1,8,1:0:0:0:
448,64,126409,1,8,1:0:0:0:
448,64,126583,1,8,1:0:0:0:
96,224,126756,1,0,1:0:0:0:
448,64,126930,1,8,1:0:0:0:
96,224,127103,1,0,1:0:0:0:
448,64,127276,1,8,1:0:0:0:
96,224,127450,1,0,1:0:0:0:
448,64,127797,1,8,1:0:0:0:
448,64,128143,1,8,1:0:0:0:
448,64,128490,1,8,1:0:0:0:
96,224,128664,1,0,1:0:0:0:
448,64,128837,1,8,1:0:0:0:
448,64,129184,1,8,1:0:0:0:
96,224,129357,1,0,1:0:0:0:
448,64,129531,1,8,1:0:0:0:
96,224,129704,1,0,1:0:0:0:
448,64,129878,1,8,1:0:0:0:
96,224,130051,1,8,1:0:0:0:
96,224,130224,1,0,1:0:0:0:
96,224,130918,1,0,1:0:0:0:
96,224,131091,1,0,1:0:0:0:
96,224,131265,1,0,1:0:0:0:
96,224,131438,1,0,1:0:0:0:
96,224,131612,1,0,1:0:0:0:
96,224,131785,1,0,1:0:0:0:
96,224,131958,1,0,1:0:0:0:
96,224,132132,1,0,1:0:0:0:
448,64,132305,1,8,1:0:0:0:
448,64,132392,1,8,1:0:0:0:
448,64,132479,1,8,1:0:0:0:
96,224,132652,1,0,1:0:0:0:
96,224,132739,1,0,1:0:0:0:
96,224,132826,1,0,1:0:0:0:
448,64,132999,1,8,1:0:0:0:
448,64,133346,1,8,1:0:0:0:
448,320,133693,1,12,1:0:0:0:
448,64,134386,1,8,1:0:0:0:
96,224,135080,1,0,1:0:0:0:
448,64,135427,1,8,1:0:0:0:
96,224,135773,1,0,1:0:0:0:
448,64,136467,1,8,1:0:0:0:
448,64,137161,1,8,1:0:0:0:
96,224,137854,1,0,1:0:0:0:
448,64,138201,1,8,1:0:0:0:
96,224,138548,1,0,1:0:0:0:
448,64,139242,1,8,1:0:0:0:
448,64,139935,1,8,1:0:0:0:
96,224,140629,1,0,1:0:0:0:
96,224,140976,1,0,1:0:0:0:
448,64,141323,1,8,1:0:0:0:
448,64,141669,1,8,1:0:0:0:
96,224,142016,1,0,1:0:0:0:
96,224,142190,1,0,1:0:0:0:
448,64,142363,1,8,1:0:0:0:
448,64,142710,1,8,1:0:0:0:
96,224,143057,1,0,1:0:0:0:
96,224,143230,1,0,1:0:0:0:
448,64,143404,1,8,1:0:0:0:
96,224,143577,1,0,1:0:0:0:
448,64,143750,1,8,1:0:0:0:
448,64,143924,1,8,1:0:0:0:
96,224,144097,1,0,1:0:0:0:
448,320,144791,1,12,1:0:0:0:
448,64,145138,1,8,1:0:0:0:
448,64,145484,1,8,1:0:0:0:
448,64,145831,1,8,1:0:0:0:
96,224,146005,1,0,1:0:0:0:
96,224,146178,1,0,1:0:0:0:
96,224,146265,1,0,1:0:0:0:
96,224,146352,1,0,1:0:0:0:
448,64,146525,1,8,1:0:0:0:
96,224,146698,1,0,1:0:0:0:
448,64,146872,1,8,1:0:0:0:
96,224,147219,1,0,1:0:0:0:
448,64,147565,1,8,1:0:0:0:
96,224,147739,1,0,1:0:0:0:
448,64,147912,1,8,1:0:0:0:
96,224,148086,1,0,1:0:0:0:
448,64,148259,1,8,1:0:0:0:
96,224,148432,1,0,1:0:0:0:
96,224,148606,1,0,1:0:0:0:
96,224,148693,1,0,1:0:0:0:
96,224,148779,1,0,1:0:0:0:
448,64,148953,1,8,1:0:0:0:
448,64,149299,1,8,1:0:0:0:
448,64,149646,1,8,1:0:0:0:
448,64,149993,1,8,1:0:0:0:
96,224,150167,1,0,1:0:0:0:
448,64,150340,1,8,1:0:0:0:
96,224,150687,1,0,1:0:0:0:
448,64,151034,1,8,1:0:0:0:
448,64,151380,1,8,1:0:0:0:
448,64,151554,1,8,1:0:0:0:
96,224,151727,1,0,1:0:0:0:
96,224,151814,1,0,1:0:0:0:
96,224,151901,1,0,1:0:0:0:
448,64,152074,1,8,1:0:0:0:
96,224,152247,1,0,1:0:0:0:
448,64,152421,1,0,1:0:0:0:
448,64,152594,1,8,1:0:0:0:
448,64,152768,1,8,1:0:0:0:
448,64,153115,1,8,1:0:0:0:
448,64,153288,1,8,1:0:0:0:
448,64,153461,1,8,1:0:0:0:
96,224,153635,1,0,1:0:0:0:
448,64,153808,1,8,1:0:0:0:
448,64,153982,1,8,1:0:0:0:
448,64,154155,1,8,1:0:0:0:
448,64,154242,1,8,1:0:0:0:
448,64,154328,1,8,1:0:0:0:
96,224,154502,1,0,1:0:0:0:
448,320,155889,1,12,1:0:0:0:
448,64,156236,1,8,1:0:0:0:
448,64,156583,1,8,1:0:0:0:
448,64,156930,1,8,1:0:0:0:
96,224,157103,1,0,1:0:0:0:
448,64,157276,1,8,1:0:0:0:
448,64,157363,1,8,1:0:0:0:
448,64,157450,1,8,1:0:0:0:
96,224,157623,1,0,1:0:0:0:
448,64,157797,1,8,1:0:0:0:
448,64,157970,1,8,1:0:0:0:
96,224,158317,1,0,1:0:0:0:
96,224,158664,1,0,1:0:0:0:
448,64,158837,1,8,1:0:0:0:
96,224,159010,1,0,1:0:0:0:
96,224,159184,1,0,1:0:0:0:
96,224,159357,1,0,1:0:0:0:
448,64,159531,1,8,1:0:0:0:
96,224,159704,1,0,1:0:0:0:
96,224,159791,1,0,1:0:0:0:
96,224,159878,1,0,1:0:0:0:
448,64,160051,1,8,1:0:0:0:
448,64,160398,1,8,1:0:0:0:
96,224,160745,1,0,1:0:0:0:
96,224,160831,1,0,1:0:0:0:
96,224,160918,1,0,1:0:0:0:
448,64,161091,1,8,1:0:0:0:
96,224,161265,1,0,1:0:0:0:
448,64,161438,1,8,1:0:0:0:
96,224,161785,1,0,1:0:0:0:
448,64,162132,1,8,1:0:0:0:
448,64,162479,1,8,1:0:0:0:
448,64,162652,1,8,1:0:0:0:
96,224,162826,1,0,1:0:0:0:
96,224,162912,1,0,1:0:0:0:
96,224,162999,1,0,1:0:0:0:
448,64,163172,1,8,1:0:0:0:
96,224,163346,1,0,1:0:0:0:
448,64,163519,1,0,1:0:0:0:
448,64,163693,1,8,1:0:0:0:
448,64,163866,1,8,1:0:0:0:
448,64,164213,1,8,1:0:0:0:
448,64,164386,1,8,1:0:0:0:
448,64,164560,1,8,1:0:0:0:
96,224,164733,1,0,1:0:0:0:
448,64,164906,1,8,1:0:0:0:
448,64,165080,1,8,1:0:0:0:
448,64,165253,1,8,1:0:0:0:
448,64,165340,1,8,1:0:0:0:
448,64,165427,1,8,1:0:0:0:
96,224,165600,1,0,1:0:0:0:
448,64,165773,1,8,1:0:0:0:
448,64,165947,1,8,1:0:0:0:
448,64,166034,1,8,1:0:0:0:
448,64,166120,1,8,1:0:0:0:
96,224,166294,1,0,1:0:0:0:
448,320,166987,1,12,1:0:0:0:
96,224,167334,1,0,1:0:0:0:
96,224,167421,1,0,1:0:0:0:
96,224,167508,1,0,1:0:0:0:
448,64,167681,1,8,1:0:0:0:
96,224,167854,1,0,1:0:0:0:
448,64,168028,1,8,1:0:0:0:
448,64,168115,1,8,1:0:0:0:
448,64,168201,1,8,1:0:0:0:
448,64,168375,1,8,1:0:0:0:
448,320,169762,1,12,1:0:0:0:
96,224,170109,1,0,1:0:0:0:
96,224,170195,1,0,1:0:0:0:
96,224,170282,1,0,1:0:0:0:
448,64,170456,1,8,1:0:0:0:
96,224,170629,1,0,1:0:0:0:
96,224,170802,1,0,1:0:0:0:
96,224,170889,1,0,1:0:0:0:
96,224,170976,1,0,1:0:0:0:
448,64,171149,1,8,1:0:0:0:
448,64,171496,1,8,1:0:0:0:
448,64,171843,1,8,1:0:0:0:
448,64,172190,1,8,1:0:0:0:
448,320,172536,1,12,1:0:0:0:
448,64,172883,1,8,1:0:0:0:
448,64,172970,1,8,1:0:0:0:
448,64,173057,1,8,1:0:0:0:
96,224,173230,1,0,1:0:0:0:
448,64,173404,1,8,1:0:0:0:
96,224,173577,1,0,1:0:0:0:
96,224,173664,1,0,1:0:0:0:
96,224,173750,1,0,1:0:0:0:
448,64,173924,1,8,1:0:0:0:
96,224,174097,1,0,1:0:0:0:
448,64,174271,1,8,1:0:0:0:
96,224,174444,1,0,1:0:0:0:
448,64,174617,1,8,1:0:0:0:
96,224,174791,1,0,1:0:0:0:
96,224,174878,1,0,1:0:0:0:
96,224,174964,1,0,1:0:0:0:
96,224,175138,1,0,1:0:0:0:
448,64,175311,1,8,1:0:0:0:
448,64,175658,1,8,1:0:0:0:
96,224,175831,1,0,1:0:0:0:
448,64,176005,1,8,1:0:0:0:
448,64,176178,1,8,1:0:0:0:
96,224,176352,1,0,1:0:0:0:
448,64,176525,1,8,1:0:0:0:
96,224,176698,1,0,1:0:0:0:
448,64,177045,1,8,1:0:0:0:
448,64,177392,1,8,1:0:0:0:
448,320,178086,1,12,1:0:0:0:
448,64,178432,1,8,1:0:0:0:
448,64,178779,1,8,1:0:0:0:
448,64,179126,1,8,1:0:0:0:
96,224,179299,1,0,1:0:0:0:
448,64,179473,1,8,1:0:0:0:
448,64,179560,1,8,1:0:0:0:
448,64,179646,1,8,1:0:0:0:
96,224,179820,1,0,1:0:0:0:
448,64,179993,1,8,1:0:0:0:
448,64,180167,1,8,1:0:0:0:
96,224,180513,1,0,1:0:0:0:
448,64,180860,1,8,1:0:0:0:
448,64,181207,1,8,1:0:0:0:
96,224,181380,1,0,1:0:0:0:
448,64,181554,1,8,1:0:0:0:
96,224,181727,1,0,1:0:0:0:
448,64,181901,1,8,1:0:0:0:
96,224,182074,1,0,1:0:0:0:
96,224,182247,1,0,1:0:0:0:
96,224,182334,1,0,1:0:0:0:
96,224,182421,1,0,1:0:0:0:
448,64,182594,1,8,1:0:0:0:
96,224,182768,1,0,1:0:0:0:
96,224,182941,1,0,1:0:0:0:
96,224,183028,1,0,1:0:0:0:
96,224,183115,1,0,1:0:0:0:
448,64,183288,1,8,1:0:0:0:
448,64,183635,1,8,1:0:0:0:
96,224,183982,1,0,1:0:0:0:
96,224,184328,1,0,1:0:0:0:
96,224,184502,1,0,1:0:0:0:
448,64,184675,1,8,1:0:0:0:
448,64,184849,1,8,1:0:0:0:
96,224,185022,1,0,1:0:0:0:
96,224,185109,1,0,1:0:0:0:
96,224,185195,1,0,1:0:0:0:
448,64,185369,1,8,1:0:0:0:
96,224,185542,1,0,1:0:0:0:
448,64,185716,1,8,1:0:0:0:
96,224,185889,1,0,1:0:0:0:
448,64,186063,1,8,1:0:0:0:
448,64,186409,1,8,1:0:0:0:
448,64,186583,1,8,1:0:0:0:
448,64,186756,1,8,1:0:0:0:
96,224,186930,1,0,1:0:0:0:
448,64,187103,1,8,1:0:0:0:
448,64,187276,1,8,1:0:0:0:
64,64,187450,1,0,1:0:0:0:
64,64,187536,1,0,1:0:0:0:
64,64,187623,1,0,1:0:0:0:
448,64,187797,1,8,1:0:0:0:
96,224,187970,1,0,1:0:0:0:
96,224,188143,1,0,1:0:0:0:
96,224,188230,1,0,1:0:0:0:
96,224,188317,1,0,1:0:0:0:
448,64,188490,1,8,1:0:0:0:
64,320,189184,1,4,1:0:0:0:
96,224,189531,1,0,1:0:0:0:
96,224,189617,1,0,1:0:0:0:
96,224,189704,1,0,1:0:0:0:
448,64,189878,1,8,1:0:0:0:
448,64,190051,1,8,1:0:0:0:
448,64,190224,1,8,1:0:0:0:
448,64,190311,1,8,1:0:0:0:
448,64,190398,1,8,1:0:0:0:
96,224,190571,1,0,1:0:0:0:
448,64,190918,1,8,1:0:0:0:
96,224,191265,1,0,1:0:0:0:
96,224,191438,1,0,1:0:0:0:
448,64,191612,1,8,1:0:0:0:
96,224,191785,1,0,1:0:0:0:
448,64,191958,1,8,1:0:0:0:
96,224,192305,1,0,1:0:0:0:
96,224,192392,1,0,1:0:0:0:
96,224,192479,1,0,1:0:0:0:
448,64,192652,1,8,1:0:0:0:
448,64,192826,1,8,1:0:0:0:
96,224,192999,1,0,1:0:0:0:
96,224,193086,1,0,1:0:0:0:
96,224,193172,1,0,1:0:0:0:
448,64,193346,1,8,1:0:0:0:
96,224,193519,1,0,1:0:0:0:
448,64,193693,1,8,1:0:0:0:
96,224,193866,1,0,1:0:0:0:
448,64,194039,1,8,1:0:0:0:
448,64,194733,1,8,1:0:0:0:
96,224,195080,1,0,1:0:0:0:
96,224,195167,1,0,1:0:0:0:
96,224,195253,1,0,1:0:0:0:
448,64,195427,1,8,1:0:0:0:
96,224,195600,1,0,1:0:0:0:
96,224,195773,1,0,1:0:0:0:
96,224,195860,1,0,1:0:0:0:
96,224,195947,1,0,1:0:0:0:
448,64,196120,1,8,1:0:0:0:
96,224,196294,1,0,1:0:0:0:
448,64,196467,1,8,1:0:0:0:
96,224,196641,1,0,1:0:0:0:
448,64,196814,1,8,1:0:0:0:
96,224,197074,1,0,1:0:0:0:
96,224,197334,1,0,1:0:0:0:
448,64,197508,1,8,1:0:0:0:
448,64,197854,1,8,1:0:0:0:
96,224,198201,1,0,1:0:0:0:
96,224,198288,1,0,1:0:0:0:
96,224,198375,1,0,1:0:0:0:
448,64,198548,1,8,1:0:0:0:
448,64,198721,1,8,1:0:0:0:
96,224,198895,1,0,1:0:0:0:
96,224,198982,1,0,1:0:0:0:
96,224,199068,1,0,1:0:0:0:
96,224,199242,1,0,1:0:0:0:
448,64,199589,1,8,1:0:0:0:
96,224,199849,1,0,1:0:0:0:
96,224,200109,1,0,1:0:0:0:
448,64,200282,1,8,1:0:0:0:
448,64,200456,1,8,1:0:0:0:
448,64,200802,1,8,1:0:0:0:
448,64,201149,1,8,1:0:0:0:
448,64,201496,1,8,1:0:0:0:
448,320,201669,1,12,1:0:0:0:
96,224,202016,1,0,1:0:0:0:
64,64,202363,1,0,1:0:0:0:
64,64,202450,1,0,1:0:0:0:
64,64,202536,1,0,1:0:0:0:
448,64,202710,1,8,1:0:0:0:
448,64,202797,1,8,1:0:0:0:
448,64,202883,1,8,1:0:0:0:
96,224,203057,1,0,1:0:0:0:
448,64,203404,1,8,1:0:0:0:
448,64,203750,1,8,1:0:0:0:
64,64,203924,1,0,1:0:0:0:
64,64,204010,1,0,1:0:0:0:
64,64,204097,1,0,1:0:0:0:
96,224,204271,1,0,1:0:0:0:
448,64,204444,1,8,1:0:0:0:
96,224,204791,1,0,1:0:0:0:
96,224,205138,1,0,1:0:0:0:
448,64,205398,1,8,1:0:0:0:
96,224,205658,1,0,1:0:0:0:
448,64,205831,1,8,1:0:0:0:
96,224,206178,1,0,1:0:0:0:
96,224,206525,1,0,1:0:0:0:
448,64,206785,1,8,1:0:0:0:
96,224,207045,1,0,1:0:0:0:
448,64,207219,1,8,1:0:0:0:
96,224,207565,1,0,1:0:0:0:
448,64,207912,1,8,1:0:0:0:
96,224,208172,1,0,1:0:0:0:
96,224,208432,1,0,1:0:0:0:
448,64,208606,1,8,1:0:0:0:
96,224,208953,1,0,1:0:0:0:
448,64,209299,1,8,1:0:0:0:
448,64,209646,1,8,1:0:0:0:
448,64,209733,1,8,1:0:0:0:
448,64,209820,1,8,1:0:0:0:
96,224,209993,1,0,1:0:0:0:
448,64,210340,1,8,1:0:0:0:
448,64,210687,1,8,1:0:0:0:
448,64,210947,1,8,1:0:0:0:
96,224,211207,1,0,1:0:0:0:
