osu file format v14

[General]
AudioFilename: audio.mp3
AudioLeadIn: 0
PreviewTime: 53627
Countdown: 0
SampleSet: Soft
StackLeniency: 0.7
Mode: 3
LetterboxInBreaks: 0
SpecialStyle: 0
WidescreenStoryboard: 1

[Editor]
DistanceSpacing: 2
BeatDivisor: 6
GridSize: 16
TimelineZoom: 2

[Metadata]
Title:WONDERLAND (Cut Ver.)
TitleUnicode:WONDERLAND (Cut Ver.)
Artist:ATEEZ
ArtistUnicode:에이티즈
Creator:Ilham
Version:JooF's Hard
Source:
Tags:DarkeBluu JooF12 Damaree TREASURE EP.FIN : All To Action KQ엔터테인먼트 Entertainment 이든 EDEN LEEZ BUDDY Ollounder 김홍중 Kim Hong Joong 송민기 Song Min Gi Korean Pop KPop K-Pop SNK AOT Shingeki no Kyojin Attack on Titan AMV Short Version
BeatmapID:3959300
BeatmapSetID:1918638

[Difficulty]
HPDrainRate:7.5
CircleSize:4
OverallDifficulty:7.5
ApproachRate:5
SliderMultiplier:1.4
SliderTickRate:1

[Events]
//Background and Video events
0,0,"background.jpg",0,0
Video,0,"video.mp4"
//Break Periods
//Storyboard Layer 0 (Background)
//Storyboard Layer 1 (Fail)
//Storyboard Layer 2 (Pass)
//Storyboard Layer 3 (Foreground)
//Storyboard Layer 4 (Overlay)
//Storyboard Sound Samples
Sample,18591,0,"56_D4_130_360.wav",100
Sample,20437,0,"56_B3_130_360.wav",100
Sample,22283,0,"56_E4_130_768.wav",100
Sample,27822,0,"56_E3_130_240.wav",100
Sample,39822,0,"56_G6_130_672.wav",100
Sample,40745,0,"56_D4_130_360.wav",100
Sample,42591,0,"56_A3_130_360.wav",100
Sample,44437,0,"56_C4_130_360.wav",100
Sample,44899,0,"56_C4_130_360.wav",100
Sample,45360,0,"56_D6_130_768.wav",100
Sample,45360,0,"56_D4_130_360.wav",100
Sample,45822,0,"clap2.wav",75
Sample,45822,0,"56_D4_130_360.wav",100
Sample,46283,0,"56_E4_130_360.wav",100
Sample,47899,0,"56_F#6_130_96.wav",100
Sample,48130,0,"56_F#6_130_768.wav",100
Sample,48130,0,"56_D4_130_360.wav",100
Sample,49976,0,"56_B6_130_768.wav",100
Sample,49976,0,"56_G3_130_360.wav",100
Sample,51360,0,"56_G6_130_360.wav",100
Sample,51822,0,"56_B6_130_1440.wav",100
Sample,51822,0,"56_E4_130_768.wav",100
Sample,52745,0,"56_D#4_130_768.wav",100
Sample,59668,0,"56_C4_130_360.wav",100
Sample,60130,0,"56_E3_130_360.wav",100
Sample,66745,0,"clap2.wav",75
Sample,66899,0,"clap2.wav",75
Sample,67206,0,"clap2.wav",75
Sample,67360,0,"clap2.wav",75
Sample,67514,0,"56_E3_130_240.wav",100
Sample,68283,0,"56_D3_130_144.wav",100
Sample,68899,0,"56_B3_130_360.wav",100
Sample,69053,0,"snare.wav",30
Sample,69206,0,"snare.wav",30
Sample,76130,0,"56_B3_130_144.wav",100
Sample,76283,0,"56_B3_130_360.wav",100
Sample,77206,0,"56_E3_130_240.wav",100
Sample,77514,0,"56_B3_130_144.wav",100
Sample,78130,0,"56_C4_130_360.wav",100
Sample,79822,0,"56_B3_130_144.wav",100
Sample,79976,0,"56_B3_130_360.wav",100
Sample,80899,0,"56_B3_130_240.wav",100
Sample,81206,0,"56_B3_130_144.wav",100
Sample,82591,0,"56_G3_130_144.wav",100
Sample,82745,0,"snare.wav",60
Sample,82745,0,"56_F#3_130_240.wav",100
Sample,83053,0,"56_D3_130_144.wav",100
Sample,83668,0,"56_B3_130_360.wav",100
Sample,84591,0,"56_B3_130_360.wav",100
Sample,85514,0,"56_B3_130_360.wav",100
Sample,86283,0,"56_B3_130_144.wav",100
Sample,86437,0,"56_B3_130_360.wav",100
Sample,88745,0,"snare.wav",60
Sample,89206,0,"snare.wav",45

[TimingPoints]
130,461.538461538462,4,2,1,25,1,0
1976,-100.0,4,2,1,50,0,0
54591,-100.0,4,2,1,25,0,0
61053,-100.0,4,2,1,50,0,1
90591,-100.0,4,2,1,50,0,0

[HitObjects]
64,192,130,128,0,1976:0:0:0:0:
320,192,1976,1,10,0:0:0:0:
448,192,1976,1,0,0:0:0:100:56_E3_130_360.wav
320,192,2322,1,2,0:0:0:0:
448,192,2322,1,0,0:0:0:0:
64,192,2437,1,8,0:0:0:0:
192,192,2437,1,0,0:0:0:0:
320,192,2668,1,2,0:0:0:0:
448,192,2668,1,0,0:0:0:0:
64,192,2899,1,8,0:0:0:0:
192,192,2899,1,0,0:0:0:0:
320,192,3130,1,2,0:0:0:0:
448,192,3130,1,0,0:0:0:0:
64,192,3360,128,8,3591:0:0:0:0:
192,192,3360,128,0,3591:0:0:0:0:
320,192,3822,1,2,0:0:0:0:
448,192,3822,1,8,0:0:0:0:
320,192,4168,1,2,0:0:0:0:
448,192,4168,1,0,0:0:0:0:
64,192,4283,1,8,0:0:0:0:
192,192,4283,1,0,0:0:0:0:
320,192,4514,1,2,0:0:0:0:
448,192,4514,1,0,0:0:0:0:
64,192,4745,1,8,0:0:0:0:
192,192,4745,1,0,0:0:0:0:
320,192,4976,1,2,0:0:0:0:
448,192,4976,1,0,0:0:0:0:
64,192,5206,1,8,0:0:0:0:
192,192,5206,1,0,0:0:0:0:
64,192,5668,1,2,0:0:0:0:
192,192,5668,1,8,0:0:0:0:
64,192,6014,1,2,0:0:0:0:
192,192,6014,1,0,0:0:0:0:
320,192,6130,1,8,0:0:0:0:
448,192,6130,1,0,0:0:0:0:
64,192,6360,1,2,0:0:0:0:
192,192,6360,1,0,0:0:0:0:
320,192,6591,1,8,0:0:0:0:
448,192,6591,1,0,0:0:0:0:
64,192,6822,1,2,0:0:0:0:
192,192,6822,1,0,0:0:0:0:
320,192,7053,128,8,7283:0:0:0:0:
448,192,7053,128,0,7283:0:0:0:0:
64,192,7514,1,8,0:0:0:0:
192,192,7514,1,2,0:0:0:0:
64,192,7860,1,2,0:0:0:0:
192,192,7860,1,0,0:0:0:0:
320,192,7976,1,8,0:0:0:0:
448,192,7976,1,0,0:0:0:0:
64,192,8206,1,2,0:0:0:0:
192,192,8206,1,0,0:0:0:0:
320,192,8437,1,8,0:0:0:0:
448,192,8437,1,0,0:0:0:0:
64,192,8668,1,2,0:0:0:0:
192,192,8668,1,0,0:0:0:0:
320,192,8899,1,8,0:0:0:0:
448,192,8899,1,0,0:0:0:0:
192,192,9130,1,0,0:0:0:0:
320,192,9245,1,0,0:0:0:0:
64,192,9360,1,10,0:0:0:0:
192,192,9360,1,0,0:0:0:100:56_E4_130_360.wav
64,192,9706,1,2,0:0:0:0:
192,192,9706,1,0,0:0:0:0:
320,192,9822,1,8,0:0:0:0:
448,192,9822,1,0,0:0:0:0:
64,192,10053,1,2,0:0:0:0:
192,192,10053,1,0,0:0:0:0:
448,192,10168,1,0,0:0:0:0:
192,192,10283,1,8,0:0:0:0:
320,192,10283,1,0,0:0:0:0:
64,192,10514,1,2,0:0:0:0:
448,192,10514,1,0,0:0:0:0:
320,192,10745,1,8,0:0:0:0:
448,192,10745,128,0,10976:0:0:0:0:
192,192,10976,1,0,0:0:0:0:
64,192,11206,128,10,11668:0:0:0:0:
320,192,11206,1,0,0:0:0:100:56_D4_130_360.wav
192,192,11437,1,0,0:0:0:0:
448,192,11553,1,2,0:0:0:0:
192,192,11668,1,8,0:0:0:0:
320,192,11668,128,0,11899:0:0:0:0:
64,192,11899,1,2,0:0:0:0:
448,192,11899,128,0,12130:0:0:0:0:
64,192,12130,1,8,0:0:0:0:
192,192,12130,1,0,0:0:0:0:
320,192,12360,1,2,0:0:0:0:
448,192,12360,1,0,0:0:0:0:
64,192,12591,128,8,12822:0:0:0:0:
192,192,12591,1,0,0:0:0:0:
320,192,12822,1,0,0:0:0:0:
64,192,13053,1,10,0:0:0:0:
192,192,13053,128,0,13514:0:0:0:100:56_A3_130_360.wav
320,192,13283,1,0,0:0:0:0:
448,192,13399,1,2,0:0:0:0:
64,192,13514,128,8,13745:0:0:0:0:
320,192,13514,1,0,0:0:0:0:
192,192,13745,1,2,0:0:0:0:
448,192,13745,128,0,13976:0:0:0:0:
64,192,13976,1,8,0:0:0:0:
192,192,14091,1,0,0:0:0:0:
320,192,14206,1,2,0:0:0:0:
448,192,14206,1,0,0:0:0:0:
64,192,14437,128,8,14668:0:0:0:0:
192,192,14437,1,0,0:0:0:0:
448,192,14668,1,0,0:0:0:0:
192,192,14899,128,10,15130:0:0:0:0:
320,192,14899,1,0,0:0:0:100:56_C4_130_360.wav
64,192,15130,128,0,15360:0:0:0:0:
448,192,15245,1,2,0:0:0:0:
192,192,15360,1,8,0:0:0:0:
320,192,15360,128,0,15591:0:0:0:100:56_C4_130_360.wav
192,192,15591,1,2,0:0:0:0:
448,192,15591,128,0,15822:0:0:0:0:
64,192,15822,128,8,16053:0:0:0:0:
320,192,15822,1,0,0:0:0:100:56_D4_130_360.wav
192,192,16053,1,2,0:0:0:0:
448,192,16053,1,0,0:0:0:0:
64,192,16283,128,8,16514:0:0:0:0:
320,192,16283,1,0,0:0:0:100:56_D4_130_360.wav
448,192,16399,1,0,0:0:0:0:
192,192,16514,1,0,0:0:0:0:
64,192,16745,1,10,0:0:0:0:
320,192,16745,1,0,0:0:0:100:56_E6_130_768.wav
448,192,16745,128,0,17668:0:0:0:100:56_E4_130_360.wav
192,192,16976,1,0,0:0:0:0:
320,192,17091,1,2,0:0:0:0:
64,192,17206,1,8,0:0:0:0:
192,192,17206,1,0,0:0:0:0:
64,192,17437,1,2,0:0:0:0:
320,192,17437,1,0,0:0:0:0:
192,192,17668,128,8,18591:0:0:0:0:
320,192,17668,1,0,0:0:0:100:56_G6_130_672.wav
64,192,17899,1,2,0:0:0:0:
448,192,17899,1,0,0:0:0:0:
320,192,18014,1,0,0:0:0:0:
64,192,18130,128,8,18360:0:0:0:0:
448,192,18130,1,0,0:0:0:0:
320,192,18360,1,0,0:0:0:100:56_F#6_130_96.wav
448,192,18476,1,0,0:0:0:100:56_E6_130_96.wav
64,192,18591,128,10,19053:0:0:0:0:
320,192,18591,1,0,0:0:0:100:56_F#6_130_768.wav
192,192,18706,1,0,0:0:0:0:
448,192,18822,1,0,0:0:0:0:
320,192,18937,1,2,0:0:0:0:
192,192,19053,1,8,0:0:0:0:
448,192,19053,128,0,19514:0:0:0:0:
64,192,19283,1,2,0:0:0:0:
192,192,19283,1,0,0:0:0:0:
64,192,19514,1,8,0:0:0:0:
320,192,19514,1,0,0:0:0:0:
192,192,19745,1,2,0:0:0:0:
320,192,19745,1,0,0:0:0:0:
64,192,19976,128,8,20206:0:0:0:0:
448,192,19976,1,0,0:0:0:0:
320,192,20091,1,0,0:0:0:0:
192,192,20206,1,0,0:0:0:100:56_F#6_130_96.wav
320,192,20322,1,0,0:0:0:100:56_A6_130_96.wav
64,192,20437,1,10,0:0:0:0:
448,192,20437,128,0,21360:0:0:0:100:56_B6_130_768.wav
192,192,20668,1,0,0:0:0:0:
64,192,20783,1,2,0:0:0:0:
192,192,20899,1,8,0:0:0:0:
320,192,20899,1,0,0:0:0:0:
64,192,21130,1,2,0:0:0:0:
320,192,21130,1,0,0:0:0:0:
192,192,21360,1,8,0:0:0:0:
320,192,21360,128,0,21822:0:0:0:100:56_A6_130_360.wav
64,192,21591,1,2,0:0:0:0:
192,192,21591,1,0,0:0:0:0:
448,192,21706,1,0,0:0:0:0:
64,192,21822,128,8,22053:0:0:0:0:
192,192,21822,128,0,22283:0:0:0:100:56_G6_130_360.wav
448,192,21937,1,0,0:0:0:0:
320,192,22053,1,0,0:0:0:0:
64,192,22283,128,10,23668:0:0:0:0:
448,192,22283,1,0,0:0:0:100:56_B6_130_1440.wav
192,192,22514,1,0,0:0:0:0:
448,192,22630,1,2,0:0:0:0:
192,192,22745,1,8,0:0:0:0:
320,192,22745,1,0,0:0:0:0:
192,192,22976,1,2,0:0:0:0:
448,192,22976,1,0,0:0:0:0:
320,192,23206,1,8,0:0:0:0:
448,192,23206,1,0,0:0:0:100:56_D#4_130_768.wav
192,192,23437,1,2,0:0:0:0:
320,192,23437,1,0,0:0:0:0:
192,192,23668,1,8,0:0:0:0:
448,192,23668,1,0,0:0:0:0:
320,192,23899,1,0,0:0:0:0:
64,192,24130,1,2,0:0:0:0:
192,192,24130,1,8,0:0:0:0:
448,192,24130,1,0,0:0:0:100:56_E3_130_240.wav
192,192,24360,1,0,0:0:0:0:
320,192,24476,1,2,0:0:0:0:
448,192,24476,1,0,0:0:0:100:56_E3_130_360.wav
64,192,24591,1,8,0:0:0:0:
192,192,24591,1,0,0:0:0:0:
320,192,24822,1,2,0:0:0:0:
448,192,24822,1,0,0:0:0:0:
64,192,25053,1,8,0:0:0:0:
192,192,25053,1,0,0:0:0:0:
64,192,25283,1,2,0:0:0:0:
320,192,25283,1,0,0:0:0:0:
320,192,25514,1,8,0:0:0:0:
448,192,25514,1,0,0:0:0:0:
192,192,25745,1,0,0:0:0:0:
64,192,25976,1,2,0:0:0:0:
320,192,25976,1,8,0:0:0:0:
192,192,26206,1,0,0:0:0:0:
320,192,26322,1,2,0:0:0:0:
448,192,26322,1,0,0:0:0:0:
64,192,26437,1,8,0:0:0:0:
192,192,26437,1,0,0:0:0:0:
320,192,26668,1,2,0:0:0:0:
448,192,26668,1,0,0:0:0:0:
192,192,26783,1,0,0:0:0:0:
64,192,26899,1,8,0:0:0:0:
448,192,26899,1,0,0:0:0:0:
192,192,27130,1,2,0:0:0:0:
320,192,27130,1,0,0:0:0:0:
64,192,27360,1,8,0:0:0:0:
448,192,27360,1,0,0:0:0:0:
192,192,27591,1,0,0:0:0:100:56_F#5_130_96.wav
320,192,27706,1,0,0:0:0:100:56_A5_130_96.wav
64,192,27822,1,10,0:0:0:0:
448,192,27822,1,0,0:0:0:100:56_B5_130_1440.wav
320,192,28053,1,0,0:0:0:0:
64,192,28168,1,2,0:0:0:0:
192,192,28168,1,0,0:0:0:100:56_E3_130_360.wav
320,192,28283,1,8,0:0:0:0:
448,192,28283,1,0,0:0:0:0:
64,192,28514,1,2,0:0:0:0:
192,192,28514,1,0,0:0:0:0:
320,192,28745,1,8,0:0:0:0:
448,192,28745,1,0,0:0:0:0:
192,192,28976,1,2,0:0:0:0:
448,192,28976,1,0,0:0:0:0:
64,192,29206,1,8,0:0:0:0:
192,192,29206,1,0,0:0:0:0:
320,192,29437,1,0,0:0:0:0:
192,192,29668,1,8,0:0:0:0:
448,192,29668,1,2,0:0:0:0:
64,192,29899,1,0,0:0:0:0:
320,192,30014,1,2,0:0:0:0:
448,192,30014,1,0,0:0:0:0:
64,192,30130,1,8,0:0:0:0:
192,192,30130,1,0,0:0:0:0:
192,192,30360,1,2,0:0:0:0:
320,192,30360,1,0,0:0:0:0:
64,192,30476,1,0,0:0:0:0:
320,192,30591,1,8,0:0:0:0:
448,192,30591,1,0,0:0:0:0:
64,192,30822,1,2,0:0:0:0:
448,192,30822,1,0,0:0:0:0:
192,192,31053,128,8,31283:0:0:0:0:
320,192,31053,1,0,0:0:0:0:
64,192,31283,1,0,0:0:0:0:
320,192,31514,1,10,0:0:0:0:
448,192,31514,128,0,31745:0:0:0:100:56_E3_130_240.wav
64,192,31860,1,2,0:0:0:0:
192,192,31860,1,0,0:0:0:100:56_E3_130_360.wav
320,192,31976,1,8,0:0:0:0:
448,192,31976,1,0,0:0:0:0:
64,192,32206,1,2,0:0:0:0:
192,192,32206,128,0,32437:0:0:0:0:
320,192,32437,1,8,0:0:0:0:
448,192,32437,1,0,0:0:0:0:
192,192,32668,1,2,0:0:0:0:
320,192,32668,1,0,0:0:0:0:
64,192,32899,128,8,33130:0:0:0:0:
192,192,32899,1,0,0:0:0:0:
448,192,33130,1,0,0:0:0:0:
64,192,33360,1,8,0:0:0:0:
192,192,33360,1,2,0:0:0:0:
320,192,33591,128,0,33822:0:0:0:0:
64,192,33706,1,2,0:0:0:0:
192,192,33822,1,8,0:0:0:0:
448,192,33822,1,0,0:0:0:0:
64,192,34053,1,2,0:0:0:0:
320,192,34053,1,0,0:0:0:0:
192,192,34283,128,8,34514:0:0:0:0:
448,192,34283,1,0,0:0:0:0:
64,192,34514,1,2,0:0:0:0:
320,192,34514,1,0,0:0:0:0:
192,192,34745,1,8,0:0:0:0:
448,192,34745,1,0,0:0:0:0:
448,192,34976,128,0,35206:0:0:0:100:56_F#5_130_96.wav
192,192,35091,1,0,0:0:0:100:56_A5_130_96.wav
64,192,35206,1,10,0:0:0:0:
320,192,35206,1,0,0:0:0:100:56_B5_130_1440.wav
192,192,35437,1,0,0:0:0:0:
320,192,35553,1,2,0:0:0:0:
448,192,35553,1,0,0:0:0:0:
64,192,35668,1,8,0:0:0:0:
192,192,35668,1,0,0:0:0:0:
320,192,35899,1,2,0:0:0:0:
448,192,35899,1,0,0:0:0:0:
64,192,36130,1,8,0:0:0:0:
192,192,36130,1,0,0:0:0:0:
64,192,36360,1,2,0:0:0:0:
448,192,36360,1,0,0:0:0:0:
192,192,36591,1,8,0:0:0:0:
320,192,36591,1,0,0:0:0:0:
64,192,36822,1,0,0:0:0:0:
448,192,37053,128,0,37514:0:0:0:0:
192,192,37514,128,0,37745:0:0:0:0:
320,192,37745,128,0,37976:0:0:0:0:
64,192,37976,128,0,38899:0:0:0:0:
192,192,38899,1,2,0:0:0:0:
320,192,38899,1,0,0:0:0:100:56_E6_130_768.wav
448,192,38899,128,0,39822:0:0:0:100:56_E4_130_360.wav
64,192,39360,1,0,0:0:0:0:
320,192,39822,128,0,40745:0:0:0:65:clap.wav
192,192,40283,1,0,0:0:0:0:
64,192,40514,1,0,0:0:0:100:56_F#6_130_96.wav
448,192,40630,1,0,0:0:0:100:56_E6_130_96.wav
192,192,40745,128,0,41668:0:0:0:100:56_F#6_130_1440.wav
320,192,41206,1,0,0:0:0:0:
64,192,41668,128,0,42591:0:0:0:65:clap.wav
448,192,41668,1,0,0:0:0:0:
192,192,42130,1,0,0:0:0:0:
448,192,42360,1,0,0:0:0:100:56_F#6_130_96.wav
320,192,42476,1,0,0:0:0:100:56_E6_130_96.wav
192,192,42591,128,2,43514:0:0:0:0:
448,192,42591,1,0,0:0:0:100:56_A6_130_672.wav
64,192,43053,1,0,0:0:0:0:
320,192,43514,128,0,44437:0:0:0:65:clap.wav
448,192,43514,1,0,0:0:0:100:56_E6_130_672.wav
64,192,43976,1,0,0:0:0:0:
448,192,44437,128,0,45360:0:0:0:100:56_G6_130_672.wav
192,192,44899,1,0,0:0:0:65:clap.wav
64,192,45360,128,0,46283:0:0:0:65:clap.wav
448,192,45822,1,0,0:0:0:65:clap.wav
192,192,45937,1,0,0:0:0:75:clap2.wav
320,192,46053,1,0,0:0:0:75:clap2.wav
448,192,46168,1,0,0:0:0:75:clap2.wav
192,192,46283,1,6,0:0:0:0:
320,192,46283,1,0,0:0:0:100:56_E6_130_768.wav
64,192,46630,1,2,0:0:0:0:
192,192,46630,1,0,0:0:0:75:clap2.wav
320,192,46976,1,2,0:0:0:0:
448,192,46976,1,0,0:0:0:75:clap2.wav
64,192,47437,1,2,0:0:0:0:
448,192,47437,1,0,0:0:0:75:clap2.wav
192,192,47899,1,0,0:0:0:75:clap2.wav
320,192,47976,1,0,0:0:0:0:
192,192,48053,1,0,0:0:0:0:
64,192,48130,1,2,0:0:0:0:
448,192,48130,1,0,0:0:0:75:clap2.wav
320,192,48476,1,2,0:0:0:0:
448,192,48476,1,0,0:0:0:75:clap2.wav
64,192,48822,1,2,0:0:0:0:
192,192,48822,1,0,0:0:0:75:clap2.wav
320,192,49053,1,0,0:0:0:100:56_D4_130_360.wav
64,192,49283,1,2,0:0:0:0:
192,192,49283,1,0,0:0:0:75:clap2.wav
320,192,49399,1,0,0:0:0:75:clap2.wav
448,192,49399,1,0,0:0:0:0:
192,192,49745,1,0,0:0:0:100:56_F#6_130_96.wav
64,192,49860,1,0,0:0:0:100:56_A6_130_96.wav
320,192,49976,1,2,0:0:0:0:
448,192,49976,1,0,0:0:0:75:clap2.wav
64,192,50322,1,2,0:0:0:0:
192,192,50322,1,0,0:0:0:75:clap2.wav
64,192,50668,1,2,0:0:0:0:
448,192,50668,1,0,0:0:0:75:clap2.wav
320,192,51014,1,2,0:0:0:0:
448,192,51014,1,0,0:0:0:75:clap2.wav
64,192,51360,1,2,0:0:0:0:
192,192,51360,1,0,0:0:0:75:clap2.wav
448,192,51591,1,0,0:0:0:75:clap2.wav
320,192,51668,1,0,0:0:0:0:
192,192,51745,1,0,0:0:0:0:
64,192,51822,1,0,0:0:0:75:clap2.wav
448,192,51937,1,0,0:0:0:75:clap2.wav
320,192,52053,1,0,0:0:0:75:clap2.wav
192,192,52168,1,0,0:0:0:75:clap2.wav
320,192,52283,1,0,0:0:0:75:clap2.wav
448,192,52399,1,0,0:0:0:75:clap2.wav
64,192,52514,1,0,0:0:0:75:clap2.wav
192,192,52630,1,0,0:0:0:75:clap2.wav
320,192,52745,1,0,0:0:0:75:clap2.wav
192,192,52860,1,0,0:0:0:75:clap2.wav
64,192,52976,1,0,0:0:0:75:clap2.wav
192,192,53206,1,0,0:0:0:75:clap2.wav
320,192,53322,1,0,0:0:0:75:clap2.wav
448,192,53437,1,0,0:0:0:75:clap2.wav
64,192,53668,128,4,54130:0:0:0:0:
192,192,53783,128,0,54591:0:0:0:0:
320,192,54591,1,0,0:0:0:75:clap2.wav
448,192,54591,1,0,0:0:0:0:
64,192,55053,1,0,0:0:0:0:
448,192,55514,1,0,0:0:0:0:
192,192,55976,1,0,0:0:0:0:
320,192,56437,1,0,0:0:0:75:clap2.wav
448,192,56437,1,0,0:0:0:0:
64,192,56899,1,0,0:0:0:0:
448,192,57360,1,0,0:0:0:0:
192,192,57822,1,0,0:0:0:100:56_B3_130_360.wav
320,192,58283,1,0,0:0:0:75:clap2.wav
448,192,58283,1,0,0:0:0:100:56_B3_130_360.wav
64,192,58745,1,0,0:0:0:100:56_B3_130_360.wav
320,192,59206,1,0,0:0:0:60:snare.wav
448,192,59206,1,0,0:0:0:100:56_C4_130_360.wav
192,192,59360,1,0,0:0:0:60:snare.wav
320,192,59514,1,0,0:0:0:60:snare.wav
64,192,59668,1,0,0:0:0:45:snare.wav
448,192,59822,1,0,0:0:0:45:snare.wav
192,192,59976,1,0,0:0:0:45:snare.wav
320,192,60130,1,0,0:0:0:30:snare.wav
64,192,60283,1,0,0:0:0:30:snare.wav
448,192,60437,1,0,0:0:0:30:snare.wav
320,192,60591,1,0,0:0:0:30:snare.wav
192,192,60745,1,0,0:0:0:30:snare.wav
64,192,60899,1,0,0:0:0:30:snare.wav
192,192,61053,1,2,0:0:0:0:
320,192,61053,1,4,0:0:0:0:
448,192,61053,128,0,61514:0:0:0:100:56_E3_130_240.wav
320,192,61360,1,0,0:0:0:100:56_B3_130_144.wav
64,192,61514,128,0,61745:0:0:0:100:56_B3_130_360.wav
320,192,61822,1,0,0:0:0:0:
64,192,61976,1,0,0:0:0:75:clap2.wav
192,192,61976,128,0,62206:0:0:0:100:56_B3_130_360.wav
320,192,62437,128,2,62668:0:0:0:0:
448,192,62437,1,0,0:0:0:100:56_E3_130_240.wav
192,192,62745,1,0,0:0:0:100:56_B3_130_144.wav
448,192,62899,128,0,63130:0:0:0:100:56_C4_130_360.wav
64,192,63053,1,2,0:0:0:0:
192,192,63206,1,2,0:0:0:0:
64,192,63360,128,2,63591:0:0:0:0:
320,192,63360,1,0,0:0:0:100:56_C4_130_360.wav
192,192,63668,1,0,0:0:0:0:
320,192,63822,1,0,0:0:0:75:clap2.wav
448,192,63822,128,0,64283:0:0:0:100:56_E3_130_240.wav
64,192,64053,1,2,0:0:0:0:
192,192,64130,1,0,0:0:0:0:
320,192,64206,1,0,0:0:0:0:
64,192,64283,1,0,0:0:0:75:clap2.wav
192,192,64283,1,0,0:0:0:0:
320,192,64437,1,0,0:0:0:75:clap2.wav
192,192,64591,1,0,0:0:0:75:clap2.wav
64,192,64745,128,2,65206:0:0:0:0:
448,192,64745,1,0,0:0:0:100:56_E3_130_240.wav
192,192,65053,1,0,0:0:0:100:56_B3_130_144.wav
448,192,65206,128,0,65437:0:0:0:100:56_B3_130_360.wav
192,192,65514,1,0,0:0:0:0:
320,192,65668,128,0,65899:0:0:0:75:clap2.wav
448,192,65668,1,0,0:0:0:0:
64,192,65822,1,0,0:0:0:65:bass.wav
448,192,65976,1,0,0:0:0:65:bass.wav
64,192,66130,1,0,0:0:0:65:bass.wav
192,192,66130,128,0,66360:0:0:0:100:56_B3_130_360.wav
448,192,66437,1,0,0:0:0:0:
64,192,66591,128,0,66822:0:0:0:65:bass.wav
192,192,66591,1,0,0:0:0:75:clap2.wav
448,192,66745,1,0,0:0:0:65:bass.wav
320,192,66899,1,0,0:0:0:65:bass.wav
192,192,67053,128,0,67283:0:0:0:65:bass.wav
448,192,67053,1,0,0:0:0:75:clap2.wav
64,192,67206,1,0,0:0:0:65:bass.wav
320,192,67360,1,0,0:0:0:65:bass.wav
64,192,67514,128,0,67976:0:0:0:65:bass.wav
448,192,67514,1,0,0:0:0:75:clap2.wav
192,192,67822,1,0,0:0:0:100:56_G3_130_144.wav
320,192,67976,1,0,0:0:0:60:snare.wav
448,192,67976,1,0,0:0:0:100:56_F#3_130_240.wav
192,192,68130,1,0,0:0:0:60:snare.wav
320,192,68283,1,0,0:0:0:60:snare.wav
64,192,68437,1,0,0:0:0:45:snare.wav
448,192,68437,128,0,68899:0:0:0:100:56_E3_130_360.wav
320,192,68591,1,0,0:0:0:45:snare.wav
192,192,68745,1,0,0:0:0:45:snare.wav
64,192,68899,128,0,69130:0:0:0:30:snare.wav
192,192,69053,1,2,0:0:0:0:
448,192,69206,1,2,0:0:0:0:
64,192,69360,1,2,0:0:0:0:
192,192,69360,128,4,69591:0:0:0:0:
320,192,69360,1,0,0:0:0:100:56_B3_130_360.wav
192,192,69822,1,2,0:0:0:0:
320,192,69822,128,0,70053:0:0:0:100:56_B3_130_360.wav
64,192,70130,1,0,0:0:0:0:
448,192,70283,128,0,70514:0:0:0:100:56_B3_130_360.wav
192,192,70437,1,2,0:0:0:0:
64,192,70591,1,2,0:0:0:0:
192,192,70745,128,2,70976:0:0:0:0:
448,192,70745,1,0,0:0:0:100:56_B3_130_360.wav
64,192,71053,1,0,0:0:0:0:
320,192,71206,1,0,0:0:0:75:clap2.wav
448,192,71206,128,0,71668:0:0:0:100:56_B3_130_240.wav
192,192,71437,1,2,0:0:0:0:
64,192,71514,1,0,0:0:0:100:56_B3_130_144.wav
320,192,71591,1,0,0:0:0:0:
64,192,71668,1,0,0:0:0:65:tom1.wav
192,192,71668,1,0,0:0:0:100:56_B3_130_360.wav
320,192,71822,1,0,0:0:0:65:tom2.wav
192,192,71976,1,0,0:0:0:65:tom3.wav
320,192,72130,1,0,0:0:0:65:bass.wav
448,192,72130,1,0,0:0:0:0:
320,192,72283,1,0,0:0:0:65:bass.wav
448,192,72283,1,0,0:0:0:0:
192,192,72437,1,0,0:0:0:65:bass.wav
320,192,72437,1,0,0:0:0:0:
64,192,72591,1,0,0:0:0:65:bass.wav
192,192,72591,1,0,0:0:0:0:
64,192,73053,1,0,0:0:0:65:bass.wav
192,192,73053,1,0,0:0:0:60:snare.wav
64,192,73206,1,0,0:0:0:65:bass.wav
192,192,73206,1,0,0:0:0:60:snare.wav
192,192,73360,1,0,0:0:0:65:bass.wav
320,192,73360,1,0,0:0:0:60:snare.wav
320,192,73514,1,0,0:0:0:65:bass.wav
448,192,73514,1,0,0:0:0:60:snare.wav
320,192,73976,1,0,0:0:0:65:bass.wav
448,192,73976,1,0,0:0:0:60:snare.wav
320,192,74130,1,0,0:0:0:65:bass.wav
448,192,74130,1,0,0:0:0:60:snare.wav
64,192,74283,1,0,0:0:0:65:bass.wav
192,192,74283,1,0,0:0:0:60:snare.wav
64,192,74437,1,0,0:0:0:65:bass.wav
192,192,74437,1,0,0:0:0:45:snare.wav
320,192,74591,1,0,0:0:0:65:bass.wav
448,192,74591,1,0,0:0:0:45:snare.wav
320,192,74745,1,0,0:0:0:65:bass.wav
448,192,74745,1,0,0:0:0:45:snare.wav
64,192,74899,1,0,0:0:0:30:snare.wav
192,192,74899,1,0,0:0:0:0:
320,192,75053,1,0,0:0:0:30:snare.wav
192,192,75206,1,0,0:0:0:30:snare.wav
320,192,75360,1,0,0:0:0:30:snare.wav
448,192,75360,1,0,0:0:0:0:
320,192,75514,1,0,0:0:0:30:snare.wav
448,192,75514,1,0,0:0:0:0:
64,192,75668,1,0,0:0:0:30:snare.wav
192,192,75668,1,0,0:0:0:0:
64,192,75822,128,2,76283:0:0:0:0:
192,192,75822,1,4,0:0:0:0:
448,192,75822,1,0,0:0:0:100:56_E3_130_240.wav
320,192,76130,1,2,0:0:0:0:
192,192,76283,1,2,0:0:0:0:
448,192,76283,128,0,76514:0:0:0:30:hat open.wav
192,192,76591,1,0,0:0:0:0:
320,192,76745,128,2,76976:0:0:0:0:
448,192,76745,1,0,0:0:0:100:56_B3_130_360.wav
64,192,77206,1,2,0:0:0:0:
192,192,77206,128,0,77437:0:0:0:30:hat open.wav
448,192,77360,1,0,0:0:0:75:clap2.wav
320,192,77514,1,0,0:0:0:75:clap2.wav
64,192,77668,128,2,77899:0:0:0:0:
448,192,77668,1,0,0:0:0:100:56_C4_130_360.wav
320,192,77976,1,0,0:0:0:0:
192,192,78130,1,2,0:0:0:0:
448,192,78130,128,0,78360:0:0:0:30:hat open.wav
320,192,78437,1,0,0:0:0:0:
64,192,78591,128,2,79053:0:0:0:0:
192,192,78591,1,0,0:0:0:100:56_E3_130_240.wav
320,192,78899,1,2,0:0:0:0:
192,192,79053,1,2,0:0:0:0:
448,192,79053,1,0,0:0:0:30:hat open.wav
64,192,79206,1,0,0:0:0:75:clap2.wav
320,192,79360,1,0,0:0:0:65:tom3.wav
64,192,79514,1,2,0:0:0:0:
448,192,79514,128,0,79976:0:0:0:100:56_E3_130_240.wav
192,192,79822,1,2,0:0:0:0:
64,192,79976,128,2,80206:0:0:0:0:
320,192,79976,1,0,0:0:0:30:hat open.wav
320,192,80283,1,0,0:0:0:0:
64,192,80437,1,2,0:0:0:0:
192,192,80437,128,0,80668:0:0:0:100:56_B3_130_360.wav
320,192,80899,128,2,81130:0:0:0:0:
448,192,80899,1,0,0:0:0:30:hat open.wav
64,192,81206,1,0,0:0:0:75:clap2.wav
320,192,81360,1,2,0:0:0:0:
448,192,81360,128,0,81591:0:0:0:100:56_C4_130_360.wav
192,192,81668,1,2,0:0:0:0:
64,192,81822,1,2,0:0:0:0:
320,192,81822,128,0,82053:0:0:0:30:hat open.wav
64,192,82130,1,2,0:0:0:0:
192,192,82283,1,2,0:0:0:0:
448,192,82283,128,0,82745:0:0:0:100:56_E3_130_240.wav
320,192,82591,1,2,0:0:0:0:
64,192,82745,1,2,0:0:0:0:
192,192,82745,1,0,0:0:0:30:hat open.wav
320,192,82899,1,0,0:0:0:60:snare.wav
192,192,83053,1,0,0:0:0:60:snare.wav
64,192,83206,128,4,83668:0:0:0:0:
320,192,83206,1,2,0:0:0:0:
448,192,83206,1,0,0:0:0:100:56_E3_130_360.wav
192,192,83514,1,2,0:0:0:0:
320,192,83668,1,2,0:0:0:0:
448,192,83668,128,0,83899:0:0:0:30:hat open.wav
64,192,83976,1,0,0:0:0:0:
320,192,84130,128,2,84360:0:0:0:0:
448,192,84130,1,0,0:0:0:100:56_B3_130_360.wav
192,192,84591,128,2,84822:0:0:0:0:
320,192,84591,1,0,0:0:0:30:hat open.wav
448,192,84899,1,2,0:0:0:0:
64,192,85053,128,2,85283:0:0:0:0:
320,192,85053,1,0,0:0:0:100:56_B3_130_360.wav
448,192,85360,1,0,0:0:0:0:
64,192,85514,1,2,0:0:0:0:
320,192,85514,128,0,85745:0:0:0:30:hat open.wav
192,192,85822,1,0,0:0:0:0:
64,192,85976,128,2,86437:0:0:0:0:
320,192,85976,1,0,0:0:0:100:56_B3_130_240.wav
448,192,86283,1,2,0:0:0:0:
192,192,86437,1,2,0:0:0:0:
320,192,86437,1,0,0:0:0:30:hat open.wav
64,192,86899,1,2,0:0:0:0:
192,192,86899,1,0,0:0:0:0:
320,192,87053,1,0,0:0:0:0:
64,192,87206,1,2,0:0:0:0:
192,192,87206,1,0,0:0:0:0:
320,192,87360,1,2,0:0:0:0:
448,192,87360,1,0,0:0:0:30:hat open.wav
320,192,87822,1,0,0:0:0:65:bass.wav
448,192,87822,1,0,0:0:0:60:snare.wav
320,192,87976,1,0,0:0:0:65:bass.wav
448,192,87976,1,0,0:0:0:60:snare.wav
192,192,88130,1,0,0:0:0:65:bass.wav
320,192,88130,1,0,0:0:0:60:snare.wav
64,192,88283,1,0,0:0:0:65:bass.wav
192,192,88283,1,0,0:0:0:60:snare.wav
64,192,88745,1,2,0:0:0:0:
192,192,88745,1,0,0:0:0:65:bass.wav
64,192,88899,1,0,0:0:0:65:bass.wav
192,192,88899,1,0,0:0:0:60:snare.wav
320,192,89053,1,0,0:0:0:65:bass.wav
448,192,89053,1,0,0:0:0:60:snare.wav
320,192,89206,1,2,0:0:0:0:
448,192,89206,1,0,0:0:0:65:bass.wav
64,192,89360,1,0,0:0:0:65:bass.wav
192,192,89360,1,0,0:0:0:45:snare.wav
64,192,89514,1,0,0:0:0:65:bass.wav
192,192,89514,1,0,0:0:0:45:snare.wav
320,192,89668,1,2,0:0:0:0:
448,192,89668,1,0,0:0:0:75:clap2.wav
192,192,89822,1,0,0:0:0:0:
320,192,89976,1,0,0:0:0:0:
64,192,90130,128,2,90591:0:0:0:0:
448,192,90130,128,0,90591:0:0:0:0:
192,192,90591,128,2,91053:0:0:0:0:
320,192,90591,128,0,91053:0:0:0:100:56_E3_130_360.wav
