osu file format v14

[General]
AudioFilename: audio.mp3
AudioLeadIn: 0
PreviewTime: 53627
Countdown: 0
SampleSet: Soft
StackLeniency: 0.7
Mode: 3
LetterboxInBreaks: 0
SpecialStyle: 0
WidescreenStoryboard: 1

[Editor]
DistanceSpacing: 2
BeatDivisor: 4
GridSize: 16
TimelineZoom: 1.3

[Metadata]
Title:WONDERLAND (Cut Ver.)
TitleUnicode:WONDERLAND (Cut Ver.)
Artist:ATEEZ
ArtistUnicode:에이티즈
Creator:Ilham
Version:Easy
Source:
Tags:DarkeBluu JooF12 Damaree TREASURE EP.FIN : All To Action KQ엔터테인먼트 Entertainment 이든 EDEN LEEZ BUDDY Ollounder 김홍중 Kim Hong Joong 송민기 Song Min Gi Korean Pop KPop K-Pop SNK AOT Shingeki no Kyojin Attack on Titan AMV Short Version
BeatmapID:3959299
BeatmapSetID:1918638

[Difficulty]
HPDrainRate:6.5
CircleSize:4
OverallDifficulty:6.5
ApproachRate:5
SliderMultiplier:1.4
SliderTickRate:1

[Events]
//Background and Video events
0,0,"background.jpg",0,0
Video,0,"video.mp4"
//Break Periods
//Storyboard Layer 0 (Background)
//Storyboard Layer 1 (Fail)
//Storyboard Layer 2 (Pass)
//Storyboard Layer 3 (Foreground)
//Storyboard Layer 4 (Overlay)
//Storyboard Sound Samples
Sample,14899,0,"56_C4_130_360.wav",100
Sample,15360,0,"56_C4_130_360.wav",100
Sample,15822,0,"56_D4_130_360.wav",100
Sample,16283,0,"56_D4_130_360.wav",100
Sample,16745,0,"56_E4_130_360.wav",100
Sample,17668,0,"56_G6_130_672.wav",100
Sample,18591,0,"56_D4_130_360.wav",100
Sample,20437,0,"56_B3_130_360.wav",100
Sample,21360,0,"56_A6_130_360.wav",100
Sample,21822,0,"56_G6_130_360.wav",100
Sample,22283,0,"56_B6_130_1440.wav",100
Sample,22283,0,"56_E4_130_768.wav",100
Sample,23206,0,"56_D#4_130_768.wav",100
Sample,27822,0,"56_E3_130_240.wav",100
Sample,35206,0,"56_B5_130_1440.wav",100
Sample,38899,0,"56_E4_130_360.wav",100
Sample,39822,0,"56_G6_130_672.wav",100
Sample,40745,0,"56_D4_130_360.wav",100
Sample,42591,0,"56_A3_130_360.wav",100
Sample,43514,0,"56_E6_130_672.wav",100
Sample,44437,0,"56_C4_130_360.wav",100
Sample,44899,0,"56_C4_130_360.wav",100
Sample,45360,0,"56_D6_130_768.wav",100
Sample,45360,0,"56_D4_130_360.wav",100
Sample,45822,0,"clap2.wav",75
Sample,45822,0,"56_D4_130_360.wav",100
Sample,46283,0,"56_E4_130_360.wav",100
Sample,47899,0,"56_F#6_130_96.wav",100
Sample,48130,0,"56_F#6_130_768.wav",100
Sample,48130,0,"56_D4_130_360.wav",100
Sample,49976,0,"clap2.wav",75
Sample,49976,0,"56_B6_130_768.wav",100
Sample,49976,0,"56_G3_130_360.wav",100
Sample,50899,0,"56_A6_130_360.wav",100
Sample,51360,0,"clap2.wav",75
Sample,51360,0,"56_G6_130_360.wav",100
Sample,51822,0,"56_B6_130_1440.wav",100
Sample,51822,0,"56_E4_130_768.wav",100
Sample,52745,0,"56_D#4_130_768.wav",100
Sample,58283,0,"56_B3_130_360.wav",100
Sample,59668,0,"56_C4_130_360.wav",100
Sample,60130,0,"56_E3_130_360.wav",100
Sample,61976,0,"56_B3_130_360.wav",100
Sample,62437,0,"56_E3_130_240.wav",100
Sample,63360,0,"56_C4_130_360.wav",100
Sample,63822,0,"56_E3_130_240.wav",100
Sample,66130,0,"56_B3_130_360.wav",100
Sample,66591,0,"clap2.wav",75
Sample,67053,0,"clap2.wav",75
Sample,67514,0,"clap2.wav",75
Sample,67514,0,"56_E3_130_240.wav",100
Sample,67976,0,"56_F#3_130_240.wav",100
Sample,68899,0,"56_B3_130_360.wav",100
Sample,69822,0,"56_B3_130_360.wav",100
Sample,70745,0,"56_B3_130_360.wav",100
Sample,71206,0,"56_B3_130_240.wav",100
Sample,71668,0,"56_B3_130_360.wav",100
Sample,76130,0,"56_B3_130_144.wav",100
Sample,76283,0,"hat open.wav",30
Sample,76283,0,"56_B3_130_360.wav",100
Sample,76745,0,"56_B3_130_360.wav",100
Sample,77206,0,"hat open.wav",30
Sample,77206,0,"56_E3_130_240.wav",100
Sample,77514,0,"56_B3_130_144.wav",100
Sample,77668,0,"56_C4_130_360.wav",100
Sample,78130,0,"hat open.wav",30
Sample,78130,0,"56_C4_130_360.wav",100
Sample,78591,0,"56_E3_130_240.wav",100
Sample,79053,0,"hat open.wav",30
Sample,79822,0,"56_B3_130_144.wav",100
Sample,79976,0,"hat open.wav",30
Sample,79976,0,"56_B3_130_360.wav",100
Sample,80437,0,"56_B3_130_360.wav",100
Sample,80899,0,"hat open.wav",30
Sample,80899,0,"56_B3_130_240.wav",100
Sample,81206,0,"56_B3_130_144.wav",100
Sample,81360,0,"56_C4_130_360.wav",100
Sample,81822,0,"hat open.wav",30
Sample,82283,0,"56_E3_130_240.wav",100
Sample,82745,0,"hat open.wav",30
Sample,82745,0,"snare.wav",60
Sample,82745,0,"56_F#3_130_240.wav",100
Sample,83053,0,"56_D3_130_144.wav",100
Sample,83668,0,"hat open.wav",30
Sample,83668,0,"56_B3_130_360.wav",100
Sample,84130,0,"56_B3_130_360.wav",100
Sample,84591,0,"hat open.wav",30
Sample,84591,0,"56_B3_130_360.wav",100
Sample,85053,0,"56_B3_130_360.wav",100
Sample,85514,0,"hat open.wav",30
Sample,85514,0,"56_B3_130_360.wav",100
Sample,85976,0,"56_B3_130_240.wav",100
Sample,86437,0,"hat open.wav",30
Sample,86437,0,"56_B3_130_360.wav",100
Sample,88745,0,"snare.wav",60
Sample,89206,0,"snare.wav",45
Sample,89668,0,"clap2.wav",75

[TimingPoints]
130,461.538461538462,4,2,1,25,1,0
1976,-100.0,4,2,1,50,0,0
54591,-100.0,4,2,1,25,0,0
61053,-100.0,4,2,1,50,0,1
90591,-100.0,4,2,1,50,0,0

[HitObjects]
192,192,130,128,0,1976:0:0:0:0:
64,192,1976,1,10,0:0:0:0:
448,192,1976,1,0,0:0:0:100:56_E3_130_360.wav
320,192,2437,1,8,0:0:0:0:
192,192,2899,1,8,0:0:0:0:
64,192,3360,1,8,0:0:0:0:
320,192,3822,1,2,0:0:0:0:
448,192,3822,1,8,0:0:0:0:
64,192,4283,1,8,0:0:0:0:
320,192,4745,1,8,0:0:0:0:
192,192,5206,1,8,0:0:0:0:
64,192,5668,1,2,0:0:0:0:
448,192,5668,1,8,0:0:0:0:
192,192,6130,1,8,0:0:0:0:
320,192,6591,1,8,0:0:0:0:
64,192,7053,1,8,0:0:0:0:
192,192,7514,1,8,0:0:0:0:
448,192,7514,1,2,0:0:0:0:
320,192,7976,1,8,0:0:0:0:
64,192,8437,1,8,0:0:0:0:
192,192,8668,1,2,0:0:0:0:
448,192,8899,1,8,0:0:0:0:
320,192,9130,1,0,0:0:0:0:
64,192,9360,1,10,0:0:0:0:
192,192,9360,1,0,0:0:0:100:56_E4_130_360.wav
448,192,9822,1,8,0:0:0:0:
64,192,10283,1,8,0:0:0:0:
320,192,10745,1,8,0:0:0:0:
192,192,11206,1,10,0:0:0:0:
448,192,11206,1,0,0:0:0:100:56_D4_130_360.wav
64,192,11668,1,8,0:0:0:0:
320,192,12130,1,8,0:0:0:0:
448,192,12591,1,8,0:0:0:0:
64,192,13053,1,10,0:0:0:0:
192,192,13053,1,0,0:0:0:100:56_A3_130_360.wav
320,192,13514,1,8,0:0:0:0:
64,192,13976,1,8,0:0:0:0:
448,192,14437,1,8,0:0:0:0:
192,192,14899,128,10,15360:0:0:0:0:
320,192,15360,128,8,15822:0:0:0:0:
64,192,15822,128,8,16283:0:0:0:0:
448,192,16283,128,8,16745:0:0:0:0:
64,192,16745,128,10,17668:0:0:0:0:
192,192,16745,1,0,0:0:0:100:56_E6_130_768.wav
448,192,17206,1,8,0:0:0:0:
320,192,17668,128,8,18130:0:0:0:0:
64,192,18130,1,8,0:0:0:0:
192,192,18360,1,0,0:0:0:100:56_F#6_130_96.wav
64,192,18591,1,10,0:0:0:0:
448,192,18591,128,0,19514:0:0:0:100:56_F#6_130_768.wav
192,192,19053,1,8,0:0:0:0:
64,192,19514,1,8,0:0:0:0:
320,192,19976,1,8,0:0:0:0:
192,192,20206,1,0,0:0:0:100:56_F#6_130_96.wav
320,192,20437,1,10,0:0:0:0:
448,192,20437,128,0,20899:0:0:0:100:56_B6_130_768.wav
64,192,20899,128,8,21360:0:0:0:0:
320,192,21360,128,8,21822:0:0:0:0:
192,192,21822,128,8,22283:0:0:0:0:
64,192,22283,128,10,23668:0:0:0:0:
448,192,22745,1,8,0:0:0:0:
320,192,23206,1,8,0:0:0:0:
192,192,23668,1,8,0:0:0:0:
64,192,24130,1,10,0:0:0:0:
448,192,24130,1,0,0:0:0:100:56_E3_130_240.wav
192,192,24591,1,8,0:0:0:0:
448,192,24822,1,2,0:0:0:0:
320,192,25053,1,8,0:0:0:0:
448,192,25514,1,8,0:0:0:0:
64,192,25976,1,10,0:0:0:0:
320,192,26437,1,8,0:0:0:0:
64,192,26668,1,2,0:0:0:0:
192,192,26899,1,8,0:0:0:0:
320,192,27360,1,8,0:0:0:0:
192,192,27591,1,0,0:0:0:100:56_F#5_130_96.wav
64,192,27822,1,10,0:0:0:0:
448,192,27822,1,0,0:0:0:100:56_B5_130_1440.wav
320,192,28283,1,8,0:0:0:0:
192,192,28745,1,8,0:0:0:0:
64,192,28976,1,2,0:0:0:0:
448,192,29206,1,8,0:0:0:0:
64,192,29668,1,10,0:0:0:0:
320,192,30130,1,8,0:0:0:0:
448,192,30360,1,2,0:0:0:0:
192,192,30591,128,8,31053:0:0:0:0:
320,192,31053,128,8,31514:0:0:0:0:
64,192,31514,1,10,0:0:0:0:
448,192,31514,1,0,0:0:0:100:56_E3_130_240.wav
192,192,31976,1,8,0:0:0:0:
448,192,32437,1,8,0:0:0:0:
320,192,32668,1,2,0:0:0:0:
64,192,32899,1,8,0:0:0:0:
448,192,33360,1,10,0:0:0:0:
64,192,33822,1,8,0:0:0:0:
192,192,34053,1,2,0:0:0:0:
448,192,34283,1,8,0:0:0:0:
192,192,34745,1,8,0:0:0:0:
64,192,34976,1,0,0:0:0:100:56_F#5_130_96.wav
320,192,35206,128,10,37053:0:0:0:0:
192,192,35668,1,8,0:0:0:0:
448,192,36130,1,8,0:0:0:0:
64,192,36591,1,8,0:0:0:0:
192,192,37053,128,0,38899:0:0:0:0:
64,192,38899,1,2,0:0:0:0:
448,192,38899,128,0,39822:0:0:0:100:56_E6_130_768.wav
64,192,39822,128,0,40514:0:0:0:65:clap.wav
192,192,40514,1,0,0:0:0:100:56_F#6_130_96.wav
320,192,40745,128,0,42360:0:0:0:100:56_F#6_130_1440.wav
64,192,41668,1,0,0:0:0:65:clap.wav
192,192,42360,1,0,0:0:0:100:56_F#6_130_96.wav
64,192,42591,1,2,0:0:0:0:
448,192,42591,128,0,43514:0:0:0:100:56_A6_130_672.wav
192,192,43514,1,0,0:0:0:65:clap.wav
320,192,43976,1,0,0:0:0:0:
64,192,44437,128,0,44899:0:0:0:100:56_G6_130_672.wav
448,192,44899,128,0,45360:0:0:0:65:clap.wav
192,192,45360,128,0,45822:0:0:0:65:clap.wav
320,192,45822,128,0,46283:0:0:0:65:clap.wav
64,192,46283,128,6,47206:0:0:0:0:
192,192,46283,1,0,0:0:0:100:56_E6_130_768.wav
448,192,47206,128,0,47899:0:0:0:100:56_G6_130_672.wav
192,192,47899,1,0,0:0:0:75:clap2.wav
64,192,48130,1,2,0:0:0:0:
320,192,48130,128,0,49053:0:0:0:75:clap2.wav
192,192,49053,128,0,49514:0:0:0:100:56_D4_130_360.wav
64,192,49514,128,0,49976:0:0:0:100:56_B3_130_360.wav
320,192,49976,128,2,50437:0:0:0:0:
192,192,50437,128,0,50899:0:0:0:0:
448,192,50899,128,0,51360:0:0:0:75:clap2.wav
64,192,51360,128,2,51822:0:0:0:0:
448,192,51822,1,0,0:0:0:75:clap2.wav
320,192,52283,1,0,0:0:0:75:clap2.wav
64,192,52745,1,0,0:0:0:75:clap2.wav
192,192,53206,1,0,0:0:0:75:clap2.wav
448,192,53668,1,4,0:0:0:0:
64,192,54591,1,0,0:0:0:75:clap2.wav
320,192,55514,1,0,0:0:0:0:
192,192,56437,1,0,0:0:0:75:clap2.wav
448,192,57360,1,0,0:0:0:0:
64,192,58283,1,0,0:0:0:75:clap2.wav
192,192,59206,1,0,0:0:0:60:snare.wav
448,192,59206,128,0,59668:0:0:0:100:56_C4_130_360.wav
64,192,59668,128,0,60130:0:0:0:45:snare.wav
320,192,60130,128,0,60591:0:0:0:30:snare.wav
192,192,60591,128,0,61053:0:0:0:30:snare.wav
64,192,61053,1,6,0:0:0:0:
448,192,61053,1,0,0:0:0:100:56_E3_130_240.wav
320,192,61360,1,0,0:0:0:100:56_B3_130_144.wav
192,192,61514,1,0,0:0:0:100:56_B3_130_360.wav
448,192,61976,1,0,0:0:0:75:clap2.wav
64,192,62437,1,2,0:0:0:0:
192,192,62745,1,0,0:0:0:100:56_B3_130_144.wav
448,192,62899,1,0,0:0:0:100:56_C4_130_360.wav
64,192,63360,1,2,0:0:0:0:
192,192,63822,1,0,0:0:0:75:clap2.wav
448,192,64283,128,0,64745:0:0:0:75:clap2.wav
64,192,64745,1,2,0:0:0:0:
192,192,64745,1,0,0:0:0:100:56_E3_130_240.wav
320,192,65053,1,0,0:0:0:100:56_B3_130_144.wav
192,192,65206,1,0,0:0:0:100:56_B3_130_360.wav
64,192,65668,128,0,66130:0:0:0:75:clap2.wav
320,192,66130,1,0,0:0:0:65:bass.wav
192,192,66591,128,0,67053:0:0:0:65:bass.wav
448,192,67053,128,0,67514:0:0:0:65:bass.wav
320,192,67514,1,0,0:0:0:65:bass.wav
192,192,67976,128,0,68437:0:0:0:60:snare.wav
64,192,68437,1,0,0:0:0:45:snare.wav
320,192,68437,1,0,0:0:0:100:56_E3_130_360.wav
448,192,68745,1,0,0:0:0:45:snare.wav
192,192,68899,1,0,0:0:0:30:snare.wav
320,192,69360,1,6,0:0:0:0:
448,192,69360,1,0,0:0:0:100:56_B3_130_360.wav
64,192,69822,1,2,0:0:0:0:
192,192,70130,1,0,0:0:0:0:
448,192,70283,1,0,0:0:0:100:56_B3_130_360.wav
320,192,70745,1,2,0:0:0:0:
64,192,71206,128,0,71668:0:0:0:75:clap2.wav
448,192,71668,1,0,0:0:0:65:tom1.wav
64,192,72130,1,0,0:0:0:65:bass.wav
320,192,72130,128,0,72591:0:0:0:0:
64,192,72591,1,0,0:0:0:65:bass.wav
448,192,72591,1,0,0:0:0:0:
192,192,73053,128,0,73514:0:0:0:65:bass.wav
448,192,73053,1,0,0:0:0:60:snare.wav
64,192,73514,1,0,0:0:0:65:bass.wav
448,192,73514,1,0,0:0:0:60:snare.wav
64,192,73976,1,0,0:0:0:65:bass.wav
320,192,73976,128,0,74437:0:0:0:60:snare.wav
64,192,74437,1,0,0:0:0:65:bass.wav
192,192,74437,128,0,74899:0:0:0:45:snare.wav
448,192,74899,128,0,75360:0:0:0:30:snare.wav
64,192,75360,128,0,75822:0:0:0:30:snare.wav
320,192,75822,1,6,0:0:0:0:
448,192,75822,1,0,0:0:0:100:56_E3_130_240.wav
192,192,76130,1,2,0:0:0:0:
448,192,76283,1,2,0:0:0:0:
64,192,76745,1,2,0:0:0:0:
320,192,77206,1,2,0:0:0:0:
192,192,77360,1,0,0:0:0:75:clap2.wav
448,192,77514,1,0,0:0:0:75:clap2.wav
64,192,77668,1,2,0:0:0:0:
320,192,78130,1,2,0:0:0:0:
192,192,78591,1,2,0:0:0:0:
448,192,79053,128,2,79514:0:0:0:0:
64,192,79514,1,2,0:0:0:0:
192,192,79514,1,0,0:0:0:100:56_E3_130_240.wav
320,192,79822,1,2,0:0:0:0:
192,192,79976,1,2,0:0:0:0:
448,192,80437,1,2,0:0:0:0:
192,192,80899,1,2,0:0:0:0:
448,192,81053,1,0,0:0:0:75:clap2.wav
64,192,81206,1,0,0:0:0:75:clap2.wav
320,192,81360,1,2,0:0:0:0:
192,192,81822,1,2,0:0:0:0:
448,192,82283,1,2,0:0:0:0:
64,192,82745,1,2,0:0:0:0:
192,192,82899,1,0,0:0:0:60:snare.wav
320,192,83053,1,0,0:0:0:60:snare.wav
64,192,83206,1,6,0:0:0:0:
448,192,83206,1,0,0:0:0:100:56_E3_130_360.wav
192,192,83514,1,2,0:0:0:0:
320,192,83668,1,2,0:0:0:0:
64,192,84130,1,2,0:0:0:0:
320,192,84591,1,2,0:0:0:0:
448,192,84899,1,2,0:0:0:0:
192,192,85053,1,2,0:0:0:0:
64,192,85514,1,2,0:0:0:0:
448,192,85976,1,2,0:0:0:0:
192,192,86437,128,2,86899:0:0:0:0:
320,192,86899,128,2,87360:0:0:0:0:
448,192,86899,1,0,0:0:0:0:
64,192,87360,1,2,0:0:0:0:
192,192,87360,1,0,0:0:0:30:hat open.wav
64,192,87822,1,0,0:0:0:65:bass.wav
448,192,87822,128,0,88283:0:0:0:60:snare.wav
192,192,88283,1,0,0:0:0:65:bass.wav
320,192,88283,1,0,0:0:0:60:snare.wav
64,192,88745,128,2,89206:0:0:0:0:
320,192,88745,1,0,0:0:0:65:bass.wav
192,192,89206,1,2,0:0:0:0:
448,192,89206,128,0,89668:0:0:0:65:bass.wav
192,192,89668,1,2,0:0:0:0:
320,192,90130,1,2,0:0:0:0:
64,192,90591,128,2,91053:0:0:0:0:
448,192,90591,128,0,91053:0:0:0:100:56_E3_130_360.wav
