osu file format v14

[General]
AudioFilename: audio.mp3
AudioLeadIn: 0
PreviewTime: 31663
Countdown: 0
SampleSet: None
StackLeniency: 0.2
Mode: 0
LetterboxInBreaks: 1
CountdownOffset: 1
WidescreenStoryboard: 0

[Editor]
Bookmarks: 26998,76531
DistanceSpacing: 1.2
BeatDivisor: 4
GridSize: 16
TimelineZoom: 1

[Metadata]
Title:Around The World (Nightcore Mix)
TitleUnicode:Around The World (Nightcore Mix)
Artist:ATC
ArtistUnicode:ATC
Creator:Sakurauchi Riko
Version:AR8.5
Source:
Tags:phyloukz
BeatmapID:1987391
BeatmapSetID:951667

[Difficulty]
HPDrainRate:6
CircleSize:4.2
OverallDifficulty:8
ApproachRate:8.5
SliderMultiplier:1.6
SliderTickRate:2

[Events]
//Background and Video events
0,0,"bg.jpg",0,0
//Break Periods
//Storyboard Layer 0 (Background)
//Storyboard Layer 1 (Fail)
//Storyboard Layer 2 (Pass)
//Storyboard Layer 3 (Foreground)
//Storyboard Sound Samples

[TimingPoints]
7047,381.849424043785,4,2,0,70,1,0
7047,-166.666666666667,4,2,0,70,0,0
19266,-100,4,2,0,70,0,0
31485,-100,4,2,0,70,0,0
43704,-100,4,2,0,70,0,1
54396,-100,4,2,0,70,0,0
55923,-125,4,2,0,70,0,0
68142,-100,4,2,0,70,0,0
80362,-100,4,2,0,70,0,0
92581,-100,4,2,0,70,0,0
104800,-100,4,2,0,70,0,1
115492,-100,4,2,0,70,0,0
117019,-100,4,2,0,70,0,0
130766,-83.3333333333333,4,2,0,70,0,0
142985,-100,4,2,0,70,0,0
155204,-66.6666666666667,4,2,0,70,0,1
167423,-100,4,2,0,70,0,0
167614,-100,4,2,0,50,0,0
173533,-100,4,2,0,30,0,0

[Colours]
Combo1 : 57,65,119
Combo2 : 11,166,135
Combo3 : 252,226,124

[HitObjects]
256,192,937,12,0,3992,0:0:0:0:
256,192,4087,12,0,6856,0:0:0:0:
68,195,7047,6,0,L|115:201,1,47.9999985351563
232,125,7428,1,0,0:0:0:0:
158,139,7619,1,0,0:0:0:0:
281,226,7810,2,0,B|305:235|316:254|316:254|285:262|273:282|273:282|294:297|300:318|300:318|282:341|286:374,1,191.999994140625
362,363,8765,1,0,0:0:0:0:
209,337,8956,2,0,L|145:327,1,47.9999985351563
137,256,9338,2,0,L|73:246,1,47.9999985351563
141,108,9719,1,0,0:0:0:0:
128,179,9910,1,0,0:0:0:0:
130,31,10101,6,0,L|194:41,1,47.9999985351563
295,16,10483,1,0,0:0:0:0:
245,77,10674,1,0,0:0:0:0:
378,68,10865,2,0,B|383:93|400:106|400:106|412:77|434:68|434:68|446:91|465:101|465:101|491:86|523:96,1,191.999994140625
482,10,11820,1,0,0:0:0:0:
502,169,12011,2,0,L|489:228,1,47.9999985351563
411,214,12392,2,0,L|424:273,1,47.9999985351563
268,275,12774,1,0,0:0:0:0:
342,257,12965,1,0,0:0:0:0:
200,316,13156,6,0,L|187:257,1,47.9999985351563
189,142,13538,1,0,0:0:0:0:
142,206,13729,1,0,0:0:0:0:
135,42,13920,2,0,P|182:30|246:46,2,95.9999970703126
93,104,14874,1,0,0:0:0:0:
189,142,15065,2,0,L|257:131,1,47.9999985351563
315,84,15447,2,0,L|383:73,1,47.9999985351563
493,148,15829,1,0,0:0:0:0:
418,136,16020,1,0,0:0:0:0:
431,256,16211,6,0,L|419:315,1,47.9999985351563
279,321,16593,1,0,0:0:0:0:
359,352,16784,1,0,0:0:0:0:
144,374,16975,2,0,P|105:359|35:369,2,95.9999970703126
179,281,17929,1,0,0:0:0:0:
146,196,18120,1,0,0:0:0:0:
179,281,18311,1,0,0:0:0:0:
146,196,18502,1,0,0:0:0:0:
199,119,18693,1,0,0:0:0:0:
295,120,18884,1,0,0:0:0:0:
338,203,19075,1,0,0:0:0:0:
286,290,19266,6,0,L|301:381,1,80
424,259,19648,2,0,L|437:180,1,80
300,269,20029,2,0,L|315:360,1,80
442,236,20411,2,0,L|455:157,1,80
462,219,20793,2,0,L|475:140,1,80
324,24,21175,2,0,L|229:57,1,80
256,249,21557,2,0,L|303:184,1,80
224,25,21939,2,0,L|209:114,1,80
462,219,22320,6,0,L|475:140,1,80
317,250,22702,2,0,L|330:328,1,80
442,236,23084,2,0,L|455:157,1,80
300,269,23466,2,0,L|313:347,1,80
286,290,23848,2,0,L|299:368,1,80
75,190,24230,2,0,L|138:261,1,80
0,332,24612,2,0,L|107:345,1,80
259,164,24993,2,0,L|163:153,1,80
342,79,25375,5,0,0:0:0:0:
451,128,25566,1,0,0:0:0:0:
434,242,25757,2,0,L|427:289,1,40
281,303,25948,1,0,0:0:0:0:
277,282,26044,2,0,L|257:152,1,120
96,208,26521,2,0,L|204:232,1,80
160,129,26903,1,0,0:0:0:0:
35,279,27094,5,0,0:0:0:0:
203,321,27285,2,0,L|293:300,1,80
367,181,27666,1,0,0:0:0:0:
460,228,27857,1,0,0:0:0:0:
460,329,28048,1,0,0:0:0:0:
363,364,28239,1,0,0:0:0:0:
174,225,28430,5,0,0:0:0:0:
156,322,28621,1,0,0:0:0:0:
66,262,28812,2,0,L|59:206,1,40
119,121,29003,1,0,0:0:0:0:
139,106,29098,2,0,L|281:136,1,120
305,10,29576,2,0,L|195:31,1,80
292,224,29957,5,0,0:0:0:0:
459,262,30148,1,0,0:0:0:0:
490,269,30339,1,0,0:0:0:0:
349,343,30530,1,0,0:0:0:0:
332,339,30626,1,0,0:0:0:0:
299,302,30721,5,0,0:0:0:0:
263,334,30817,1,0,0:0:0:0:
215,338,30912,1,0,0:0:0:0:
173,313,31008,1,0,0:0:0:0:
129,332,31103,1,0,0:0:0:0:
42,242,31294,1,0,0:0:0:0:
122,97,31485,5,0,0:0:0:0:
184,134,31676,5,0,0:0:0:0:
275,87,31771,1,0,0:0:0:0:
201,115,31867,1,0,0:0:0:0:
302,212,32058,5,0,0:0:0:0:
318,222,32153,2,0,P|351:192|439:201,1,120
389,269,32630,1,0,0:0:0:0:
433,174,32821,1,0,0:0:0:0:
483,77,33012,1,0,0:0:0:0:
255,6,33203,5,0,0:0:0:0:
275,87,33299,1,0,0:0:0:0:
293,68,33394,1,0,0:0:0:0:
176,56,33585,1,0,0:0:0:0:
96,124,33776,1,0,0:0:0:0:
173,35,33967,1,0,0:0:0:0:
261,103,34158,1,0,0:0:0:0:
115,132,34349,1,0,0:0:0:0:
212,253,34540,5,0,0:0:0:0:
168,315,34731,5,0,0:0:0:0:
82,308,34826,1,0,0:0:0:0:
155,337,34922,1,0,0:0:0:0:
285,285,35112,5,0,0:0:0:0:
299,266,35208,2,0,B|318:235|318:235|296:134,1,120
383,300,35685,1,0,0:0:0:0:
270,306,35876,1,0,0:0:0:0:
168,315,36067,1,0,0:0:0:0:
431,163,36258,5,0,0:0:0:0:
457,245,36353,1,0,0:0:0:0:
478,228,36449,1,0,0:0:0:0:
409,173,36640,1,0,0:0:0:0:
463,44,36831,1,0,0:0:0:0:
326,61,37022,5,0,0:0:0:0:
299,139,37117,1,0,0:0:0:0:
282,51,37213,1,0,0:0:0:0:
134,94,37404,2,0,L|63:102,1,40
170,69,37594,5,0,0:0:0:0:
201,234,37785,5,0,0:0:0:0:
148,229,37881,1,0,0:0:0:0:
64,220,37976,1,0,0:0:0:0:
206,257,38167,5,0,0:0:0:0:
211,278,38263,2,0,P|272:285|317:340,1,120
232,364,38740,1,0,0:0:0:0:
338,328,38931,1,0,0:0:0:0:
445,295,39122,1,0,0:0:0:0:
268,112,39313,5,0,0:0:0:0:
258,190,39504,1,0,0:0:0:0:
402,220,39695,5,0,0:0:0:0:
365,233,39790,1,0,0:0:0:0:
425,258,39886,1,0,0:0:0:0:
334,162,40076,1,0,0:0:0:0:
218,206,40267,1,0,0:0:0:0:
127,110,40458,2,0,L|86:66,1,40
119,147,40649,5,0,0:0:0:0:
235,335,40840,5,0,0:0:0:0:
227,283,40936,1,0,0:0:0:0:
218,206,41031,1,0,0:0:0:0:
345,369,41222,5,0,0:0:0:0:
364,348,41317,2,0,B|392:321|392:321|496:336,1,120
446,230,41795,1,0,0:0:0:0:
466,130,41986,1,0,0:0:0:0:
486,34,42177,1,0,0:0:0:0:
242,81,42368,5,0,0:0:0:0:
225,74,42463,1,0,0:0:0:0:
208,65,42558,2,0,L|170:49,1,40
133,67,42749,1,0,0:0:0:0:
172,89,42845,1,0,0:0:0:0:
177,131,42940,1,0,0:0:0:0:
137,225,43036,5,0,0:0:0:0:
185,206,43131,1,0,0:0:0:0:
235,219,43227,1,0,0:0:0:0:
264,262,43322,1,0,0:0:0:0:
192,352,43513,1,0,0:0:0:0:
210,328,43609,1,0,0:0:0:0:
192,281,43704,5,0,0:0:0:0:
12,225,43895,1,0,0:0:0:0:
192,281,44086,1,0,0:0:0:0:
12,225,44277,1,0,0:0:0:0:
347,188,44468,5,0,0:0:0:0:
381,325,44659,1,0,0:0:0:0:
347,188,44850,1,0,0:0:0:0:
381,325,45041,1,0,0:0:0:0:
481,80,45231,5,0,0:0:0:0:
466,169,45422,1,0,0:0:0:0:
481,80,45613,1,0,0:0:0:0:
466,169,45804,1,0,0:0:0:0:
347,188,45995,5,0,0:0:0:0:
292,49,46186,1,0,0:0:0:0:
123,25,46377,1,0,0:0:0:0:
1,239,46568,1,0,0:0:0:0:
154,345,46759,5,0,0:0:0:0:
130,116,46950,1,0,0:0:0:0:
154,345,47141,1,0,0:0:0:0:
130,116,47332,1,0,0:0:0:0:
363,291,47523,5,0,0:0:0:0:
189,263,47713,1,0,0:0:0:0:
363,291,47904,1,0,0:0:0:0:
189,263,48095,1,0,0:0:0:0:
501,179,48286,5,0,0:0:0:0:
394,199,48477,1,0,0:0:0:0:
501,179,48668,1,0,0:0:0:0:
394,199,48859,1,0,0:0:0:0:
429,78,49050,6,0,L|413:-9,1,80
462,275,49432,2,0,L|476:353,1,80
456,251,49718,1,0,0:0:0:0:
394,199,49814,5,0,0:0:0:0:
243,273,50005,1,0,0:0:0:0:
90,205,50195,1,0,0:0:0:0:
25,53,50386,1,0,0:0:0:0:
197,170,50577,5,0,0:0:0:0:
243,273,50768,1,0,0:0:0:0:
188,370,50959,1,0,0:0:0:0:
72,384,51150,1,0,0:0:0:0:
321,235,51341,5,0,0:0:0:0:
385,276,51532,1,0,0:0:0:0:
456,251,51723,1,0,0:0:0:0:
465,177,51914,1,0,0:0:0:0:
0,124,52105,5,0,0:0:0:0:
130,45,52296,1,0,0:0:0:0:
273,93,52487,1,0,0:0:0:0:
321,235,52678,1,0,0:0:0:0:
95,373,52868,5,0,0:0:0:0:
296,164,53059,1,0,0:0:0:0:
148,211,53250,1,0,0:0:0:0:
436,255,53441,1,0,0:0:0:0:
121,291,53632,5,0,0:0:0:0:
263,80,53823,1,0,0:0:0:0:
245,223,54014,1,0,0:0:0:0:
157,0,54205,1,0,0:0:0:0:
321,235,54396,5,0,0:0:0:0:
436,255,54587,1,0,0:0:0:0:
393,146,54778,1,0,0:0:0:0:
368,305,54969,2,0,L|360:358,1,40
265,371,55160,5,0,0:0:0:0:
223,360,55255,1,0,0:0:0:0:
157,304,55350,1,0,0:0:0:0:
177,299,55446,1,0,0:0:0:0:
101,384,55541,5,0,0:0:0:0:
174,209,55732,1,0,0:0:0:0:
195,169,55828,1,0,0:0:0:0:
189,138,55923,6,0,P|178:118|136:99,1,64
60,118,56305,1,0,0:0:0:0:
85,43,56496,1,0,0:0:0:0:
258,90,56687,2,0,P|308:94|348:29,2,128
428,147,57642,2,0,L|503:129,2,64
352,163,58214,1,0,0:0:0:0:
405,221,58405,1,0,0:0:0:0:
428,147,58596,1,0,0:0:0:0:
400,239,58787,5,0,0:0:0:0:
392,270,58883,1,0,0:0:0:0:
383,300,58978,1,0,0:0:0:0:
321,357,59169,1,0,0:0:0:0:
246,336,59360,1,0,0:0:0:0:
230,260,59551,1,0,0:0:0:0:
53,296,59742,6,0,B|127:326|127:326|181:311,2,128
39,216,60696,1,0,0:0:0:0:
113,237,60887,1,0,0:0:0:0:
53,296,61078,1,0,0:0:0:0:
95,159,61269,1,0,0:0:0:0:
113,88,61460,5,0,0:0:0:0:
138,83,61556,2,0,L|197:71,1,32
302,189,61746,1,0,0:0:0:0:
259,174,61842,1,0,0:0:0:0:
215,184,61937,1,0,0:0:0:0:
188,220,62033,6,0,P|189:253|159:299,1,64
380,207,62415,2,0,P|381:174|351:128,1,64
299,355,62797,2,0,B|363:378|361:336|426:356,2,128
248,287,63751,1,0,0:0:0:0:
332,280,63942,1,0,0:0:0:0:
299,355,64133,1,0,0:0:0:0:
283,218,64324,5,0,0:0:0:0:
314,150,64515,1,0,0:0:0:0:
345,80,64706,1,0,0:0:0:0:
423,81,64897,1,0,0:0:0:0:
238,154,65088,6,0,L|179:155,1,32
154,38,65279,2,0,L|95:39,1,32
81,186,65469,2,0,L|105:98,1,64
168,268,65756,1,0,0:0:0:0:
164,283,65851,2,0,B|140:368|140:368|92:389,2,128
379,230,67283,5,0,0:0:0:0:
423,261,67379,1,0,0:0:0:0:
397,258,67474,1,0,0:0:0:0:
373,268,67570,1,0,0:0:0:0:
344,299,67665,5,0,0:0:0:0:
411,331,67761,1,0,0:0:0:0:
298,184,67951,1,0,0:0:0:0:
361,30,68142,5,0,0:0:0:0:
415,96,68333,1,0,0:0:0:0:
329,105,68524,2,0,L|225:117,1,80
142,238,68906,2,0,B|115:262|115:262|24:252|24:252|-1:221,2,160
90,114,69861,2,0,L|104:20,2,80
175,85,70434,1,0,0:0:0:0:
257,62,70624,1,0,0:0:0:0:
321,121,70815,1,0,0:0:0:0:
338,38,71006,1,0,0:0:0:0:
288,264,71197,5,0,0:0:0:0:
324,341,71388,1,0,0:0:0:0:
507,264,71579,1,0,0:0:0:0:
471,341,71770,1,0,0:0:0:0:
407,102,71961,2,0,P|440:118|377:176,2,160
234,337,72916,2,0,L|137:323,2,80
126,247,73488,1,0,0:0:0:0:
71,312,73679,1,0,0:0:0:0:
154,325,73870,1,0,0:0:0:0:
101,170,74061,1,0,0:0:0:0:
95,152,74157,1,0,0:0:0:0:
80,104,74252,5,0,0:0:0:0:
256,164,74443,1,0,0:0:0:0:
170,60,74634,1,0,0:0:0:0:
205,243,74825,1,0,0:0:0:0:
387,94,75016,2,0,B|425:78|464:97|464:97|483:54|533:52,2,160
423,168,75970,1,0,0:0:0:0:
347,20,76161,2,0,P|313:51|302:87,1,80
249,145,76543,1,0,0:0:0:0:
169,135,76734,1,0,0:0:0:0:
143,59,76925,1,0,0:0:0:0:
201,1,77116,1,0,0:0:0:0:
280,222,77307,5,0,0:0:0:0:
181,291,77498,1,0,0:0:0:0:
0,192,77689,1,0,0:0:0:0:
98,292,77880,1,0,0:0:0:0:
377,289,78070,2,0,B|457:289|457:289|509:362,2,160
280,222,79025,5,0,0:0:0:0:
296,174,79216,1,0,0:0:0:0:
406,90,79407,1,0,0:0:0:0:
435,116,79502,1,0,0:0:0:0:
503,80,79598,5,0,0:0:0:0:
451,61,79693,1,0,0:0:0:0:
402,70,79789,1,0,0:0:0:0:
372,95,79884,1,0,0:0:0:0:
361,125,79980,1,0,0:0:0:0:
211,81,80171,1,0,0:0:0:0:
238,74,80266,1,0,0:0:0:0:
284,94,80362,5,0,0:0:0:0:
164,186,80553,5,0,0:0:0:0:
70,166,80648,1,0,0:0:0:0:
86,189,80743,1,0,0:0:0:0:
127,258,80934,5,0,0:0:0:0:
118,275,81030,2,0,B|96:316|96:316|131:382,1,120
208,255,81507,1,0,0:0:0:0:
268,151,81698,1,0,0:0:0:0:
337,18,81889,1,0,0:0:0:0:
333,100,82080,5,0,0:0:0:0:
201,82,82271,1,0,0:0:0:0:
91,158,82462,5,0,0:0:0:0:
58,123,82557,1,0,0:0:0:0:
107,111,82653,1,0,0:0:0:0:
61,238,82844,1,0,0:0:0:0:
0,53,83035,1,0,0:0:0:0:
201,82,83225,1,0,0:0:0:0:
326,304,83416,5,0,0:0:0:0:
409,246,83607,5,0,0:0:0:0:
440,255,83703,1,0,0:0:0:0:
371,316,83798,1,0,0:0:0:0:
294,170,83989,5,0,0:0:0:0:
287,147,84085,2,0,B|274:106|274:106|309:27,1,120
396,156,84562,1,0,0:0:0:0:
276,108,84753,1,0,0:0:0:0:
88,194,84944,1,0,0:0:0:0:
71,275,85135,5,0,0:0:0:0:
150,253,85326,5,0,0:0:0:0:
224,317,85421,1,0,0:0:0:0:
200,313,85517,1,0,0:0:0:0:
256,223,85707,1,0,0:0:0:0:
356,335,85898,5,0,0:0:0:0:
382,340,85994,1,0,0:0:0:0:
458,357,86089,1,0,0:0:0:0:
436,279,86280,2,0,L|420:217,1,40
375,63,86471,5,0,0:0:0:0:
301,163,86662,5,0,0:0:0:0:
295,135,86758,1,0,0:0:0:0:
362,107,86853,1,0,0:0:0:0:
256,223,87044,5,0,0:0:0:0:
232,227,87139,2,0,B|152:234|152:234|121:279,1,120
114,127,87617,1,0,0:0:0:0:
152,234,87808,1,0,0:0:0:0:
198,384,87999,1,0,0:0:0:0:
199,305,88190,5,0,0:0:0:0:
327,319,88380,5,0,0:0:0:0:
353,323,88476,2,0,L|422:335,1,40
273,203,88762,1,0,0:0:0:0:
199,305,88953,1,0,0:0:0:0:
32,284,89144,5,0,0:0:0:0:
24,263,89240,1,0,0:0:0:0:
75,293,89335,1,0,0:0:0:0:
273,203,89526,5,0,0:0:0:0:
338,112,89717,5,0,0:0:0:0:
310,30,89812,1,0,0:0:0:0:
297,51,89908,1,0,0:0:0:0:
133,74,90099,1,0,0:0:0:0:
109,82,90194,2,0,B|75:88|75:88|8:21,1,120
65,178,90672,1,0,0:0:0:0:
198,197,90862,1,0,0:0:0:0:
453,230,91053,1,0,0:0:0:0:
327,143,91244,5,0,0:0:0:0:
332,164,91340,1,0,0:0:0:0:
371,197,91435,5,0,0:0:0:0:
341,240,91531,1,0,0:0:0:0:
292,244,91626,1,0,0:0:0:0:
295,267,91722,1,0,0:0:0:0:
280,319,91817,5,0,0:0:0:0:
310,364,91913,1,0,0:0:0:0:
362,368,92008,1,0,0:0:0:0:
381,354,92103,1,0,0:0:0:0:
360,314,92199,5,0,0:0:0:0:
301,322,92294,1,0,0:0:0:0:
228,331,92390,1,0,0:0:0:0:
149,337,92485,1,0,0:0:0:0:
92,276,92581,5,0,0:0:0:0:
192,205,92772,1,0,0:0:0:0:
396,68,92963,2,0,P|443:75|473:103,1,80
420,186,93249,1,0,0:0:0:0:
410,144,93344,5,0,0:0:0:0:
279,98,93535,1,0,0:0:0:0:
192,205,93726,1,0,0:0:0:0:
260,321,93917,1,0,0:0:0:0:
398,292,94108,1,0,0:0:0:0:
192,205,94299,5,0,0:0:0:0:
56,212,94490,1,0,0:0:0:0:
20,213,94585,1,0,0:0:0:0:
40,243,94681,1,0,0:0:0:0:
116,89,94872,1,0,0:0:0:0:
143,42,94967,1,0,0:0:0:0:
90,43,95063,1,0,0:0:0:0:
339,203,95254,1,0,0:0:0:0:
420,198,95349,1,0,0:0:0:0:
373,132,95445,1,0,0:0:0:0:
289,318,95636,5,0,0:0:0:0:
233,179,95826,1,0,0:0:0:0:
154,4,96017,2,0,L|52:10,1,80
10,93,96304,1,0,0:0:0:0:
64,91,96399,5,0,0:0:0:0:
119,259,96590,1,0,0:0:0:0:
289,318,96781,1,0,0:0:0:0:
452,238,96972,1,0,0:0:0:0:
496,66,97163,1,0,0:0:0:0:
215,133,97354,5,0,0:0:0:0:
243,138,97449,1,0,0:0:0:0:
285,113,97545,1,0,0:0:0:0:
312,119,97640,1,0,0:0:0:0:
343,126,97736,1,0,0:0:0:0:
357,118,97927,6,0,L|310:107,1,40
225,149,98118,2,0,L|178:138,1,40
33,151,98309,1,0,0:0:0:0:
41,190,98404,1,0,0:0:0:0:
73,218,98499,1,0,0:0:0:0:
151,211,98595,5,0,0:0:0:0:
190,279,98690,1,0,0:0:0:0:
73,218,98881,1,0,0:0:0:0:
253,7,99072,2,0,L|345:-13,1,80
361,85,99359,1,0,0:0:0:0:
307,73,99454,5,0,0:0:0:0:
230,210,99645,1,0,0:0:0:0:
155,348,99836,1,0,0:0:0:0:
230,210,100027,1,0,0:0:0:0:
307,73,100218,1,0,0:0:0:0:
371,302,100409,5,0,0:0:0:0:
390,300,100504,1,0,0:0:0:0:
438,266,100600,1,0,0:0:0:0:
453,264,100695,1,0,0:0:0:0:
501,329,100791,1,0,0:0:0:0:
400,187,100981,1,0,0:0:0:0:
351,132,101077,1,0,0:0:0:0:
423,116,101172,1,0,0:0:0:0:
371,302,101363,5,0,0:0:0:0:
331,306,101459,1,0,0:0:0:0:
278,253,101554,1,0,0:0:0:0:
238,257,101650,1,0,0:0:0:0:
197,367,101745,5,0,0:0:0:0:
132,205,101936,1,0,0:0:0:0:
53,20,102127,2,0,L|8:108,1,80
119,153,102413,1,0,0:0:0:0:
106,102,102509,5,0,0:0:0:0:
251,36,102700,1,0,0:0:0:0:
406,76,102891,1,0,0:0:0:0:
489,205,103082,1,0,0:0:0:0:
248,375,103273,5,0,0:0:0:0:
130,206,104418,5,0,0:0:0:0:
234,250,104609,1,0,0:0:0:0:
209,253,104704,1,0,0:0:0:0:
296,314,104800,5,0,0:0:0:0:
31,141,104991,1,0,0:0:0:0:
296,314,105182,1,0,0:0:0:0:
31,141,105373,1,0,0:0:0:0:
423,225,105564,5,0,0:0:0:0:
451,55,105755,1,0,0:0:0:0:
423,225,105946,1,0,0:0:0:0:
451,55,106136,1,0,0:0:0:0:
249,44,106327,5,0,0:0:0:0:
293,165,106518,1,0,0:0:0:0:
249,44,106709,1,0,0:0:0:0:
293,165,106900,1,0,0:0:0:0:
255,366,107091,5,0,0:0:0:0:
319,298,107282,1,0,0:0:0:0:
282,195,107473,1,0,0:0:0:0:
13,113,107664,1,0,0:0:0:0:
319,298,107855,5,0,0:0:0:0:
384,6,108046,1,0,0:0:0:0:
319,298,108237,1,0,0:0:0:0:
384,6,108428,1,0,0:0:0:0:
184,183,108618,5,0,0:0:0:0:
155,30,108809,1,0,0:0:0:0:
184,183,109000,1,0,0:0:0:0:
155,30,109191,1,0,0:0:0:0:
86,260,109382,5,0,0:0:0:0:
10,173,109573,1,0,0:0:0:0:
86,260,109764,1,0,0:0:0:0:
10,173,109955,1,0,0:0:0:0:
162,351,110146,5,0,0:0:0:0:
278,378,110337,1,0,0:0:0:0:
444,260,110528,1,0,0:0:0:0:
410,23,110719,1,0,0:0:0:0:
428,0,110814,1,0,0:0:0:0:
354,95,110910,5,0,0:0:0:0:
196,40,111100,1,0,0:0:0:0:
57,132,111291,1,0,0:0:0:0:
67,299,111482,1,0,0:0:0:0:
333,363,111673,5,0,0:0:0:0:
294,239,111864,1,0,0:0:0:0:
163,211,112055,1,0,0:0:0:0:
67,299,112246,1,0,0:0:0:0:
341,150,112437,5,0,0:0:0:0:
392,205,112628,1,0,0:0:0:0:
466,199,112819,1,0,0:0:0:0:
510,132,113010,1,0,0:0:0:0:
203,338,113201,5,0,0:0:0:0:
89,225,113392,1,0,0:0:0:0:
112,60,113582,1,0,0:0:0:0:
412,0,113773,1,0,0:0:0:0:
212,104,113964,5,0,0:0:0:0:
405,254,114155,1,0,0:0:0:0:
260,237,114346,1,0,0:0:0:0:
506,144,114537,1,0,0:0:0:0:
236,171,114728,5,0,0:0:0:0:
86,298,114919,1,0,0:0:0:0:
203,284,115110,1,0,0:0:0:0:
31,194,115301,1,0,0:0:0:0:
274,5,115492,5,0,0:0:0:0:
307,86,115683,1,0,0:0:0:0:
348,163,115874,2,0,L|373:217,1,40
313,261,116065,1,0,0:0:0:0:
274,251,116160,1,0,0:0:0:0:
235,180,116255,1,0,0:0:0:0:
195,187,116351,1,0,0:0:0:0:
156,195,116446,1,0,0:0:0:0:
116,203,116542,5,0,0:0:0:0:
154,216,116637,1,0,0:0:0:0:
20,264,116828,5,0,0:0:0:0:
14,305,116924,1,0,0:0:0:0:
33,340,117019,1,0,0:0:0:0:
111,365,117210,1,0,0:0:0:0:
173,297,117401,1,0,0:0:0:0:
299,330,117592,1,0,0:0:0:0:
210,287,117783,5,0,0:0:0:0:
249,217,117974,1,0,0:0:0:0:
177,151,118165,1,0,0:0:0:0:
207,26,118356,5,0,0:0:0:0:
236,100,118547,1,0,0:0:0:0:
177,151,118737,1,0,0:0:0:0:
111,107,118928,1,0,0:0:0:0:
129,28,119119,1,0,0:0:0:0:
455,130,119310,5,0,0:0:0:0:
392,180,119501,1,0,0:0:0:0:
310,131,119692,1,0,0:0:0:0:
167,186,119883,1,0,0:0:0:0:
275,145,120074,5,0,0:0:0:0:
316,219,120265,1,0,0:0:0:0:
259,298,120456,1,0,0:0:0:0:
340,384,120647,1,0,0:0:0:0:
291,310,120838,5,0,0:0:0:0:
221,337,121029,1,0,0:0:0:0:
169,271,121219,1,0,0:0:0:0:
44,332,121410,1,0,0:0:0:0:
151,300,121601,5,0,0:0:0:0:
92,251,121792,1,0,0:0:0:0:
146,163,121983,1,0,0:0:0:0:
65,47,122174,1,0,0:0:0:0:
294,132,122365,5,0,0:0:0:0:
387,177,122556,1,0,0:0:0:0:
470,111,122747,1,0,0:0:0:0:
399,270,122938,5,0,0:0:0:0:
402,285,123129,1,0,0:0:0:0:
311,232,123511,5,0,0:0:0:0:
299,325,123701,1,0,0:0:0:0:
89,296,123892,1,0,0:0:0:0:
111,291,124083,1,0,0:0:0:0:
145,294,124274,1,0,0:0:0:0:
179,326,124465,1,0,0:0:0:0:
185,348,124656,5,0,0:0:0:0:
145,210,124848,1,0,0:0:0:0:
236,106,125039,1,0,0:0:0:0:
377,126,125229,1,0,0:0:0:0:
384,151,125420,5,0,0:0:0:0:
242,81,125611,1,0,0:0:0:0:
60,7,125802,1,0,0:0:0:0:
248,56,125993,1,0,0:0:0:0:
473,0,126184,5,0,0:0:0:0:
480,24,126374,1,0,0:0:0:0:
487,49,126565,1,0,0:0:0:0:
494,74,126756,1,0,0:0:0:0:
405,225,126947,5,0,0:0:0:0:
398,201,127137,1,0,0:0:0:0:
391,176,127328,1,0,0:0:0:0:
384,151,127519,5,0,0:0:0:0:
377,126,127615,1,0,0:0:0:0:
371,99,127711,1,0,0:0:0:0:
329,79,127806,1,0,0:0:0:0:
224,159,127997,5,0,0:0:0:0:
195,173,128093,1,0,0:0:0:0:
146,149,128188,1,0,0:0:0:0:
91,298,128379,5,0,0:0:0:0:
138,276,128475,1,0,0:0:0:0:
206,318,128570,1,0,0:0:0:0:
222,332,128761,5,0,0:0:0:0:
260,255,128856,2,0,L|249:232,7,20
271,229,129238,5,0,0:0:0:0:
271,229,130766,5,0,0:0:0:0:
330,172,130957,5,0,0:0:0:0:
301,86,131052,1,0,0:0:0:0:
328,97,131148,1,0,0:0:0:0:
397,131,131338,5,0,0:0:0:0:
421,130,131434,2,0,L|468:126,1,47.9999985351563
330,172,131720,1,0,0:0:0:0:
243,131,131911,1,0,0:0:0:0:
218,7,132102,1,0,0:0:0:0:
397,131,132293,1,0,0:0:0:0:
164,293,132484,6,0,L|105:334,1,47.9999985351563
0,249,132675,1,0,0:0:0:0:
122,278,132866,5,0,0:0:0:0:
166,339,132961,1,0,0:0:0:0:
93,345,133057,1,0,0:0:0:0:
82,188,133248,1,0,0:0:0:0:
235,249,133439,1,0,0:0:0:0:
93,345,133630,1,0,0:0:0:0:
219,88,133821,5,0,0:0:0:0:
322,80,134011,5,0,0:0:0:0:
296,46,134107,1,0,0:0:0:0:
224,73,134202,1,0,0:0:0:0:
350,126,134393,5,0,0:0:0:0:
362,144,134489,2,0,L|424:135,1,47.9999985351563
470,43,134775,1,0,0:0:0:0:
421,155,134966,1,0,0:0:0:0:
372,279,135157,1,0,0:0:0:0:
167,318,135348,1,0,0:0:0:0:
217,208,135539,5,0,0:0:0:0:
299,218,135730,1,0,0:0:0:0:
195,294,135921,1,0,0:0:0:0:
36,195,136112,1,0,0:0:0:0:
32,78,136303,1,0,0:0:0:0:
136,130,136493,1,0,0:0:0:0:
36,195,136684,1,0,0:0:0:0:
131,10,136875,5,0,0:0:0:0:
182,68,137066,5,0,0:0:0:0:
217,78,137162,1,0,0:0:0:0:
303,25,137257,1,0,0:0:0:0:
244,126,137448,5,0,0:0:0:0:
253,146,137544,2,0,L|280:200,1,47.9999985351563
354,332,137830,1,0,0:0:0:0:
353,238,138021,1,0,0:0:0:0:
447,211,138212,1,0,0:0:0:0:
505,287,138403,1,0,0:0:0:0:
451,368,138594,5,0,0:0:0:0:
373,318,138785,5,0,0:0:0:0:
387,272,138975,5,0,0:0:0:0:
473,218,139166,1,0,0:0:0:0:
435,50,139357,1,0,0:0:0:0:
422,123,139548,5,0,0:0:0:0:
444,130,139644,1,0,0:0:0:0:
488,145,139739,1,0,0:0:0:0:
197,216,139930,5,0,0:0:0:0:
110,184,140121,5,0,0:0:0:0:
43,239,140216,1,0,0:0:0:0:
52,273,140312,1,0,0:0:0:0:
97,138,140503,5,0,0:0:0:0:
91,117,140598,2,0,L|72:56,1,47.9999985351563
197,216,140885,1,0,0:0:0:0:
286,141,141076,1,0,0:0:0:0:
404,38,141267,1,0,0:0:0:0:
259,134,141457,1,0,0:0:0:0:
494,300,141648,5,0,0:0:0:0:
494,300,141839,1,0,0:0:0:0:
423,212,142030,5,0,0:0:0:0:
411,245,142126,1,0,0:0:0:0:
374,336,142221,1,0,0:0:0:0:
290,357,142412,5,0,0:0:0:0:
207,383,142508,1,0,0:0:0:0:
281,324,142603,1,0,0:0:0:0:
230,153,142794,1,0,0:0:0:0:
39,124,142985,6,0,L|-18:115,1,40
45,143,143176,2,0,L|-8:134,1,40
122,50,143367,2,0,L|191:40,1,40
238,176,143558,1,0,0:0:0:0:
247,202,143653,2,0,B|315:226|305:192|364:204,1,120
338,286,144130,1,0,0:0:0:0:
375,180,144321,1,0,0:0:0:0:
425,22,144512,1,0,0:0:0:0:
503,242,144703,6,0,L|447:246,1,40
512,267,144894,2,0,L|456:271,1,40
243,356,145085,1,0,0:0:0:0:
256,355,145181,1,0,0:0:0:0:
304,352,145276,6,0,L|362:349,1,40
188,184,145467,2,0,L|130:187,1,40
68,288,145658,2,0,L|77:238,1,40
83,315,145849,2,0,L|92:265,1,40
210,76,146040,6,0,L|239:117,1,40
240,70,146231,2,0,L|269:111,1,40
456,11,146422,2,0,L|427:52,1,40
382,203,146612,1,0,0:0:0:0:
395,219,146708,2,0,B|441:284|441:284|441:329,1,120
492,199,147185,1,0,0:0:0:0:
347,314,147376,1,0,0:0:0:0:
94,260,147567,1,0,0:0:0:0:
189,264,147758,6,0,L|196:328,1,40
214,282,147949,2,0,L|221:346,1,40
141,178,148140,1,0,0:0:0:0:
151,162,148235,1,0,0:0:0:0:
178,117,148331,6,0,L|233:114,1,40
379,45,148522,2,0,L|311:38,1,40
476,207,148713,1,0,0:0:0:0:
487,181,148904,5,0,0:0:0:0:
459,255,148999,1,0,0:0:0:0:
435,332,149094,6,0,L|378:338,1,40
425,360,149285,2,0,L|371:365,1,40
276,189,149476,2,0,L|330:194,1,40
140,280,149667,1,0,0:0:0:0:
122,291,149763,2,0,B|59:313|60:274|-17:300,1,120
86,208,150240,1,0,0:0:0:0:
232,275,150431,1,0,0:0:0:0:
487,181,150622,1,0,0:0:0:0:
393,177,150813,6,0,L|385:231,1,40
365,192,151004,2,0,L|357:246,1,40
442,100,151195,1,0,0:0:0:0:
436,81,151290,1,0,0:0:0:0:
421,29,151386,6,0,L|367:18,1,40
232,95,151577,2,0,L|178:84,1,40
96,23,151767,2,0,L|103:67,1,40
79,50,151958,2,0,L|86:94,1,40
175,356,152149,6,0,L|182:312,1,40
158,329,152340,2,0,L|165:285,1,40
36,229,152531,2,0,L|85:206,1,40
281,237,152722,1,0,0:0:0:0:
296,256,152818,2,0,B|344:318|344:318|415:318,1,120
405,186,153295,1,0,0:0:0:0:
427,15,153486,1,0,0:0:0:0:
54,102,153677,5,0,0:0:0:0:
172,131,154059,1,0,0:0:0:0:
337,58,154822,5,0,0:0:0:0:
464,276,155109,1,0,0:0:0:0:
427,295,155204,6,0,P|376:274|247:304,1,180.000006866455
342,355,155586,1,0,0:0:0:0:
86,298,155777,2,0,P|137:319|266:289,1,180.000006866455
170,233,156159,1,0,0:0:0:0:
31,151,156350,1,0,0:0:0:0:
256,16,156541,6,0,P|309:54|255:131,1,180.000006866455
156,71,156922,1,0,0:0:0:0:
485,195,157113,1,0,0:0:0:0:
254,131,157304,2,0,P|201:169|255:246,1,180.000006866455
349,192,157686,1,0,0:0:0:0:
156,71,157877,1,0,0:0:0:0:
84,363,158068,6,0,B|142:332|199:361|199:361|256:388|315:364|315:364|369:338|432:365,1,360.000013732911
256,277,158832,1,0,0:0:0:0:
256,52,159023,2,0,B|273:109|236:115|256:172,1,120.000004577637
172,81,159404,1,0,0:0:0:0:
337,23,159595,1,0,0:0:0:0:
512,233,159786,1,0,0:0:0:0:
441,150,159977,6,0,L|455:74,1,60.0000022888184
410,116,160168,2,0,L|421:57,1,60.0000022888184
327,276,160359,1,0,0:0:0:0:
302,293,160455,1,0,0:0:0:0:
209,293,160550,6,0,L|128:247,1,60.0000022888184
43,35,160741,2,0,L|121:78,1,60.0000022888184
118,240,160932,2,0,L|132:167,1,60.0000022888184
133,88,161123,2,0,L|119:161,1,60.0000022888184
4,349,161314,6,0,L|20:269,1,60.0000022888184
22,383,161505,2,0,L|38:303,1,60.0000022888184
200,139,161696,2,0,L|211:197,1,60.0000022888184
446,294,161886,1,0,0:0:0:0:
416,318,161982,2,0,B|331:344|333:280|235:319,1,180.000006866455
457,121,162459,1,0,0:0:0:0:
378,225,162650,1,0,0:0:0:0:
51,175,162841,1,0,0:0:0:0:
10,99,163032,6,0,L|89:89,1,60.0000022888184
21,56,163223,2,0,L|80:48,1,60.0000022888184
184,146,163414,1,0,0:0:0:0:
215,152,163509,1,0,0:0:0:0:
297,153,163605,6,0,L|376:143,1,60.0000022888184
487,0,163796,2,0,L|408:10,1,60.0000022888184
319,97,163987,2,0,L|289:173,1,60.0000022888184
297,245,164178,2,0,L|319:189,1,60.0000022888184
439,311,164368,6,0,L|469:387,1,60.0000022888184
479,329,164559,2,0,L|509:405,1,60.0000022888184
297,245,164750,2,0,L|212:263,1,60.0000022888184
0,298,164941,1,0,0:0:0:0:
45,289,165037,2,0,B|96:280|96:280|128:142,1,180.000006866455
464,41,165514,1,0,0:0:0:0:
376,140,165705,1,0,0:0:0:0:
1,67,165896,1,0,0:0:0:0:
114,58,166087,6,0,L|90:164,1,60.0000022888184
137,91,166278,2,0,L|113:197,1,60.0000022888184
205,301,166469,1,0,0:0:0:0:
214,272,166564,1,0,0:0:0:0:
297,245,166660,6,0,L|321:351,1,60.0000022888184
459,216,166850,2,0,L|421:276,1,60.0000022888184
499,371,167041,2,0,L|420:385,1,60.0000022888184
350,106,167232,1,0,0:0:0:0:
368,59,167328,1,0,0:0:0:0:
376,38,167423,5,0,0:0:0:0:
429,100,167614,1,0,0:0:0:0:
350,106,167805,1,0,0:0:0:0:
270,115,167996,1,0,0:0:0:0:
35,131,168187,1,0,0:0:0:0:
114,125,168378,1,0,0:0:0:0:
83,199,168569,1,0,0:0:0:0:
3,207,168760,1,0,0:0:0:0:
229,339,168951,1,0,0:0:0:0:
308,349,169142,1,0,0:0:0:0:
387,359,169333,1,0,0:0:0:0:
418,285,169524,1,0,0:0:0:0:
510,30,169714,1,0,0:0:0:0:
484,105,169905,1,0,0:0:0:0:
510,30,170096,1,0,0:0:0:0:
484,105,170287,1,0,0:0:0:0:
167,191,170478,1,0,0:0:0:0:
198,265,170669,1,0,0:0:0:0:
245,200,170860,1,0,0:0:0:0:
323,213,171051,1,0,0:0:0:0:
512,249,171242,1,0,0:0:0:0:
433,234,171433,1,0,0:0:0:0:
461,309,171624,1,0,0:0:0:0:
512,249,171815,1,0,0:0:0:0:
269,64,172005,1,0,0:0:0:0:
296,138,172196,1,0,0:0:0:0:
323,213,172387,1,0,0:0:0:0:
245,200,172578,1,0,0:0:0:0:
0,161,172769,1,0,0:0:0:0:
78,175,172960,1,0,0:0:0:0:
0,161,173151,1,0,0:0:0:0:
78,175,173342,1,0,0:0:0:0:
245,200,173533,5,0,0:0:0:0:
267,233,173724,1,0,0:0:0:0:
272,272,173915,1,0,0:0:0:0:
263,311,174106,1,0,0:0:0:0:
267,233,174297,1,0,0:0:0:0:
302,250,174487,1,0,0:0:0:0:
341,247,174678,1,0,0:0:0:0:
374,225,174869,1,0,0:0:0:0:
272,272,175060,1,0,0:0:0:0:
235,255,175251,1,0,0:0:0:0:
195,259,175442,1,0,0:0:0:0:
167,287,175633,1,0,0:0:0:0:
318,173,175824,1,0,0:0:0:0:
325,133,176015,1,0,0:0:0:0:
334,94,176206,1,0,0:0:0:0:
344,55,176397,1,0,0:0:0:0:
152,115,176588,1,0,0:0:0:0:
114,129,176779,1,0,0:0:0:0:
74,125,176969,1,0,0:0:0:0:
45,97,177160,1,0,0:0:0:0:
114,129,177351,1,0,0:0:0:0:
90,161,177542,1,0,0:0:0:0:
85,200,177733,1,0,0:0:0:0:
103,235,177924,1,0,0:0:0:0:
74,125,178115,1,0,0:0:0:0:
98,93,178306,1,0,0:0:0:0:
103,54,178497,1,0,0:0:0:0:
85,19,178688,1,0,0:0:0:0:
297,105,178879,1,0,0:0:0:0:
334,94,179070,1,0,0:0:0:0:
372,84,179261,1,0,0:0:0:0:
452,61,179452,5,0,0:0:0:0:
