osu file format v14

[General]
AudioFilename: okami no uta.mp3
AudioLeadIn: 0
PreviewTime:552
Countdown: 0
SampleSet: Soft
StackLeniency: 0.5
Mode: 0
LetterboxInBreaks: 0
WidescreenStoryboard: 1

[Editor]
Bookmarks: 622,4943,9230,17802,28496,52070,56356,71101,75655,84222,101416,110033,120707,144324,156429,161419,170016,189299,193606,202087,206523,208501,212106,218965
DistanceSpacing: 0.8
BeatDivisor: 6
GridSize: 16
TimelineZoom: 3.7

[Metadata]
Title:Ookami no Uta
TitleUnicode:狼の詩
Artist:ATARASHII GAKKO!
ArtistUnicode:新しい学校のリーダーズ
Creator:Fisky
Version:laura's Insane
Source:
Tags:yudragen laura- -tatsuo jasontime12345 Mizunashi Akari atarashii gakkou no leaders new school wakage gaitaru suzuka H ZETTRIO 阿久悠 ZETT M j-pop jpop pop jazz japanese piano victor entertainment single 2018
BeatmapID:3447308
BeatmapSetID:1562875

[Difficulty]
HPDrainRate:4.5
CircleSize:4
OverallDifficulty:7.5
ApproachRate:9
SliderMultiplier:2
SliderTickRate:1

[Events]
//Background and Video events
0,0,"bg okami no uta.jpg",0,0
//Break Periods
2,144458,152724
//Storyboard Layer 0 (Background)
//Storyboard Layer 1 (Fail)
//Storyboard Layer 2 (Pass)
//Storyboard Layer 3 (Foreground)
//Storyboard Layer 4 (Overlay)
//Storyboard Sound Samples

[TimingPoints]
622,277.777777777778,4,2,1,60,1,0
622,-100,4,2,1,60,0,0
1733,269.058295964126,4,2,1,60,1,0
2808,266.903914590747,4,2,1,60,1,0
4142,-108.539716911403,4,2,1,60,0,0
4573,266.903914590747,4,2,1,60,1,0
4928,-104.032857862542,4,2,1,80,0,0
5113,269.299820466786,4,2,1,80,1,0
5382,-111.111111111111,4,2,1,80,0,0
6016,263.736263736264,4,2,1,80,1,0
7067,270.27027027027,4,2,1,80,1,0
9230,263.157894736842,4,2,1,80,1,0
9230,-111.111111111111,4,2,1,80,0,0
10283,259.74025974026,4,2,1,80,1,0
10283,-111.111111111111,4,2,1,80,0,0
10672,-100,4,2,1,80,0,0
11323,272.108843537415,4,2,1,80,1,0
11323,-111.111111111111,4,2,1,80,0,0
12417,264.31718061674,4,2,1,80,1,0
12417,-111.111111111111,4,2,1,80,0,0
12813,-100,4,2,1,80,0,0
13473,269.058295964126,4,2,1,80,1,0
13473,-111.111111111111,4,2,1,80,0,0
14549,250,4,2,1,80,1,0
14549,-111.111111111111,4,2,1,80,0,0
14965,-92.5925925925926,4,2,1,80,0,0
15235,257.510729613734,4,2,1,80,1,0
15580,288.461538461538,4,2,1,80,1,0
16736,266.666666666667,4,2,1,80,1,0
17802,275.229357798165,4,2,1,80,1,0
18903,264.900662251656,4,2,1,80,1,0
19432,-90.9090909090909,4,2,1,80,0,0
19962,260.869565217392,4,2,1,80,1,0
19962,-100,4,2,1,80,0,0
21018,263.157894736842,4,2,1,80,1,0
21281,-90.9090909090909,4,2,1,80,0,0
22070,267.857142857143,4,2,1,80,1,0
23141,260.869565217391,4,2,1,80,1,0
23401,-90.9090909090909,4,2,1,80,0,0
24196,270.27027027027,4,2,1,80,1,0
25282,260.869565217391,4,2,1,80,1,0
26326,284.36018957346,4,2,1,80,1,0
26326,-83.3333333333333,4,2,1,80,0,0
26753,257.510729613734,4,2,1,80,1,0
27140,283.018867924528,4,2,1,80,1,0
27140,-125,4,2,1,80,0,0
27894,317.460317460317,4,2,1,80,1,0
28000,247.933884297521,4,2,1,80,1,0
28496,361.44578313253,4,2,1,80,1,0
28677,269.058295964126,4,2,1,80,1,0
29306,240,4,2,1,80,1,0
29466,260.869565217391,4,2,1,80,1,0
30119,294.117647058824,4,2,1,80,1,0
30266,267.857142857143,4,2,1,80,1,0
30804,262.008733624454,4,2,1,80,1,0
31458,306.122448979592,4,2,1,80,1,0
31611,257.510729613734,4,2,1,80,1,0
32771,337.078651685393,4,2,1,60,1,0
32771,-66.6666666666667,4,2,1,60,0,0
32940,265.486725663717,4,2,1,60,1,0
33605,312.5,4,2,1,60,1,0
33605,-66.6666666666667,4,2,1,60,0,0
33761,248.96265560166,4,2,1,60,1,0
34384,337.078651685393,4,2,1,60,1,0
34384,-66.6666666666667,4,2,1,60,0,0
34553,248.96265560166,4,2,1,60,1,0
34927,288.461538461538,4,2,1,60,1,0
35071,269.058295964126,4,2,1,60,1,0
35744,298.507462686567,4,2,1,60,1,0
35893,263.157894736842,4,2,1,60,1,0
36551,304.568527918782,4,2,1,60,1,0
36703,267.857142857143,4,2,1,60,1,0
37105,317.460317460317,4,2,1,60,1,0
37264,255.31914893617,4,2,1,60,1,0
37264,-200,4,2,1,60,0,0
37902,300,4,2,1,60,1,0
38052,262.008733624454,4,2,1,60,1,0
38052,-200,4,2,1,60,0,0
38706,301.507537688442,4,2,1,60,1,0
38857,258.620689655172,4,2,1,60,1,0
39376,269.058295964126,4,2,1,60,1,0
41524,263.157894736842,4,2,1,60,1,0
41524,-200,4,2,1,60,0,0
42183,288.461538461538,4,2,1,60,1,0
42327,265.486725663717,4,2,1,60,1,0
42327,-200,4,2,1,60,0,0
43518,243.90243902439,4,2,1,60,1,0
43640,272.727272727273,4,2,1,60,1,0
44453,270.02700270027,4,2,1,60,1,0
45803,-200,4,2,1,60,0,0
46474,298.507462686567,4,2,1,60,1,0
46623,260.869565217391,4,2,1,60,1,0
46623,-200,4,2,1,60,0,0
47274,306.122448979592,4,2,1,60,1,0
47427,257.510729613734,4,2,1,60,1,0
47944,268.000714668572,4,2,1,60,1,0
48754,262.008733624454,4,2,1,60,1,0
49540,272.727272727273,4,2,1,60,1,0
49949,317.460317460317,4,2,1,60,1,0
50108,255.31914893617,4,2,1,60,1,0
50108,-200,4,2,1,60,0,0
50745,304.568527918782,4,2,1,60,1,0
50897,258.620689655172,4,2,1,60,1,0
50897,-200,4,2,1,60,0,0
51674,322.58064516129,4,2,1,60,1,0
51835,235.294117647059,4,2,1,60,1,0
52070,270.27027027027,4,2,1,70,1,0
52070,-83.3333333333333,4,2,1,70,0,0
53291,256.410256410256,4,2,1,70,1,0
54190,271.493212669683,4,2,1,70,1,0
54190,-83.3333333333333,4,2,1,70,0,0
56356,268.456375838926,4,2,1,80,1,1
56356,-90.9090909090909,4,2,1,80,0,1
58503,-88.8888888888889,4,2,1,80,0,1
60651,262.582056892779,4,2,1,80,1,1
60651,-93.0232558139535,4,2,1,80,0,1
61876,-88.8888888888889,4,2,1,80,0,1
62801,258.620689655172,4,2,1,80,1,1
63858,264.31718061674,4,2,1,80,1,1
64034,-90.9090909090909,4,2,1,80,0,1
64918,267.857142857143,4,2,1,80,1,1
65855,-83.3333333333333,4,2,1,80,0,1
66703,-100,4,2,1,80,0,1
66946,262.008733624454,4,2,1,80,1,1
66946,-83.3333333333333,4,2,1,80,0,1
67339,-90.9090909090909,4,2,1,80,0,1
67995,265.486725663717,4,2,1,80,1,1
67995,-83.3333333333333,4,2,1,80,0,1
69198,271.985494106981,4,2,1,80,1,1
71101,-100,4,2,1,80,0,0
72456,271.493212669683,4,2,1,80,1,0
73541,263.736263736264,4,2,1,80,1,0
75123,-111.111111111111,4,2,1,80,0,0
75655,260.869565217391,4,2,1,80,1,0
75655,-111.111111111111,4,2,1,80,0,0
76699,265.486725663717,4,2,1,80,1,0
76699,-111.111111111111,4,2,1,80,0,0
77097,-100,4,2,1,80,0,0
77761,267.857142857143,4,2,1,80,1,0
77761,-111.111111111111,4,2,1,80,0,0
79234,-100,4,2,1,80,0,0
79899,270.27027027027,4,2,1,80,1,0
79899,-111.111111111111,4,2,1,80,0,0
80980,260.869565217391,4,2,1,80,1,0
80980,-111.111111111111,4,2,1,80,0,0
81371,-100,4,2,1,80,0,0
82022,295.566502463054,4,2,1,80,1,0
82612,276.497695852535,4,2,1,80,1,0
83165,251.046025104603,4,2,1,80,1,0
83668,276.497695852535,4,2,1,80,1,0
83668,-125,4,2,1,80,0,0
84222,269.058295964126,4,2,1,80,1,0
85300,260.869565217391,4,2,1,80,1,0
86345,267.857142857143,4,2,1,80,1,0
88488,273.972602739726,4,2,1,80,1,0
89037,260.869565217391,4,2,1,80,1,0
89559,267.857142857143,4,2,1,80,1,0
90632,275.229357798165,4,2,1,80,1,0
91457,254.237288135593,4,2,1,80,1,0
91711,269.058295964126,4,2,1,80,1,0
92788,267.857142857143,4,2,1,80,1,0
96002,264.31718061674,4,2,1,80,1,0
97057,284.36018957346,4,2,1,80,1,0
98099,266.666666666667,4,2,1,80,1,0
99167,271.493212669683,4,2,1,80,1,0
101066,280.373831775701,4,2,1,80,1,0
101346,-98.7966666666667,4,2,1,80,0,0
101623,295.566502463054,4,2,1,80,1,0
101919,269.058295964126,4,2,1,80,1,0
102188,304.568527918782,4,2,1,80,1,0
102340,269.058295964126,4,2,1,80,1,0
103414,242.914979757085,4,2,1,80,1,0
103779,287.081339712919,4,2,1,80,1,0
104210,257.510729613734,4,2,1,80,1,0
104596,320.855614973262,4,2,1,80,1,0
104756,271.493212669683,4,2,1,80,1,0
105300,255.31914893617,4,2,1,80,1,0
105640,271.493212669683,4,2,1,80,1,0
106182,301.507537688442,4,2,1,80,1,0
106634,264.31718061674,4,2,1,80,1,0
107692,257.510729613734,4,2,1,80,1,0
108335,-83.3333333333333,4,2,1,40,0,0
108723,310.880829015544,4,2,1,80,1,0
109968,263.736263736264,4,2,1,80,1,0
111550,-90.9090909090909,4,2,1,80,0,0
112076,265.486725663717,4,2,1,80,1,0
113137,262.008733624455,4,2,1,80,1,0
113399,-90.9090909090909,4,2,1,80,0,0
114209,260.869565217392,4,2,1,80,1,0
114209,-100,4,2,1,80,0,0
115280,262.008733624454,4,2,1,80,1,0
115542,-90.9090909090909,4,2,1,80,0,0
116340,262.582056892779,4,2,1,80,1,0
117424,260.869565217391,4,2,1,80,1,0
118468,271.493212669683,4,2,1,80,1,0
118468,-83.3333333333333,4,2,1,80,0,0
118872,-100,4,2,1,80,0,0
119279,-125,4,2,1,80,0,0
120003,-125,4,2,1,50,0,0
120093,-125,4,2,1,80,0,0
120636,-125,4,2,1,60,0,0
120780,260.869565217391,4,2,1,60,1,0
121432,301.507537688442,4,2,1,60,1,0
121583,258.620689655172,4,2,1,60,1,0
122229,294.117647058824,4,2,1,60,1,0
122376,280.373831775701,4,2,1,60,1,0
122797,324.324324324324,4,2,1,60,1,0
122959,256.410256410256,4,2,1,60,1,0
123599,306.122448979592,4,2,1,60,1,0
123752,259.74025974026,4,2,1,60,1,0
124402,306.122448979592,4,2,1,60,1,0
124555,259.74025974026,4,2,1,60,1,0
124944,315.789473684211,4,2,1,60,1,0
124944,-68.0031687227278,4,2,1,60,0,0
125102,262.008733624454,4,2,1,60,1,0
125756,312.5,4,2,1,60,1,0
125756,-66.6666666666667,4,2,1,60,0,0
125757,-65.2975225537426,4,2,1,60,0,0
125912,257.510729613734,4,2,1,60,1,0
126554,-66.6666666666667,4,2,1,60,0,0
127072,346.820809248555,4,2,1,60,1,0
127245,277.777777777778,4,2,1,60,1,0
127894,250,4,2,1,60,1,0
128061,260.869565217391,4,2,1,60,1,0
128712,300,4,2,1,60,1,0
128862,260.869565217391,4,2,1,60,1,0
129253,314.13612565445,4,2,1,60,1,0
129410,256.410256410256,4,2,1,60,1,0
130050,355.029585798817,4,2,1,60,1,0
130227,255.31914893617,4,2,1,60,1,0
130866,292.682926829268,4,2,1,60,1,0
131012,252.100840336134,4,2,1,60,1,0
131012,-125,4,2,1,60,0,0
131390,281.69014084507,4,2,1,60,1,0
131531,269.058295964126,4,2,1,60,1,0
132341,264.31718061674,4,2,1,60,1,0
133134,270.27027027027,4,2,1,60,1,0
133540,317.460317460317,4,2,1,60,1,0
133699,262.008733624454,4,2,1,60,1,0
135139,317.460317460317,4,2,1,60,1,0
135298,255.31914893617,4,2,1,60,1,0
135298,-125,4,2,1,60,0,0
135812,265.486725663717,4,2,1,60,1,0
136477,315.789473684211,4,2,1,60,1,0
136635,262.008733624454,4,2,1,60,1,0
137289,331.491712707182,4,2,1,60,1,0
137455,257.510729613734,4,2,1,60,1,0
138615,355.029585798817,4,2,1,60,1,0
138792,240.963855421687,4,2,1,60,1,0
139395,352.941176470588,4,2,1,60,1,0
139571,251.046025104603,4,2,1,60,1,0
139571,-125,4,2,1,60,0,0
139948,294.117647058824,4,2,1,60,1,0
140095,326.086956521739,4,2,1,60,1,0
140748,368.098159509202,4,2,1,60,1,0
140932,252.100840336134,4,2,1,60,1,0
141561,306.122448979592,4,2,1,60,1,0
141714,260.869565217391,4,2,1,60,1,0
142106,348.837209302326,4,2,1,60,1,0
142280,255.31914893617,4,2,1,60,1,0
142916,342.857142857143,4,2,1,60,1,0
143090,265.486725663717,4,2,1,60,1,0
143754,252.100840336134,4,2,1,60,1,0
143754,-166.666666666667,4,2,1,60,0,0
144258,266.075388026608,4,2,1,60,1,0
148512,269.058295964126,4,2,1,60,1,0
150669,264.31718061674,4,2,1,60,1,0
152786,269.058295964126,4,2,1,60,1,0
153593,-142.857142857143,4,2,1,60,0,0
154941,266.666666666667,4,2,1,60,1,0
154941,-142.857142857143,4,2,1,60,0,0
157070,271.493212669683,4,2,1,60,1,0
158155,-142.857142857143,4,2,1,60,0,0
158698,-125,4,2,1,60,0,0
159106,-100,4,2,1,60,0,0
159240,267.857142857143,4,2,1,60,1,0
160845,252.100840336134,4,2,1,60,1,0
161349,280.373831775701,4,2,1,70,1,0
161349,-83.3333333333333,4,2,1,70,0,0
162468,262.008733624454,4,2,1,70,1,0
163516,276.497695852535,4,2,1,70,1,0
163516,-83.3333333333333,4,2,1,70,0,0
164345,262.008733624454,4,2,1,70,1,0
164345,-83.3333333333333,4,2,1,70,0,0
165130,269.058295964126,4,2,1,70,1,0
165666,-100,4,2,1,60,0,0
165667,263.157894736842,4,2,1,60,1,0
166718,276.497695852535,4,2,1,60,1,0
167826,265.486725663717,4,2,1,60,1,0
168887,-83.3333333333333,4,2,1,60,0,0
169950,266.666666666667,4,2,1,80,1,1
169950,-90.9090909090909,4,2,1,80,0,1
172083,-88.8888888888889,4,2,1,80,0,1
177594,-90.9090909090909,4,2,1,80,0,1
179194,-100,4,2,1,80,0,1
179420,263.157894736842,4,2,1,80,1,1
179420,-83.3333333333333,4,2,1,80,0,1
180297,-100,4,2,1,80,0,1
180473,275.229357798165,4,2,1,80,1,1
180473,-83.3333333333333,4,2,1,80,0,1
180885,-90.9090909090909,4,2,1,80,0,1
181574,265.486725663717,4,2,1,80,1,1
181574,-83.3333333333333,4,2,1,80,0,1
182771,270.27027027027,4,2,1,80,1,1
183851,260.869565217391,4,2,1,80,1,1
184893,268.456375838926,4,2,1,80,1,1
185966,-83.3333333333333,4,2,1,80,0,1
187039,273.972602739726,4,2,1,80,1,1
188203,-100,4,2,1,90,0,1
189162,-100,4,2,1,90,0,0
190323,275.229357798165,4,2,1,90,1,0
191422,260.869565217391,4,2,1,90,1,0
192465,269.058295964126,4,2,1,90,1,0
193003,-111.111111111111,4,2,1,80,0,0
193541,262.008733624454,4,2,1,80,1,0
194591,258.620689655172,4,2,1,80,1,0
194591,-83.3333333333333,4,2,1,80,0,0
195627,266.075388026607,4,2,1,80,1,0
196691,-83.3333333333333,4,2,1,80,0,0
197755,-100,4,2,1,80,0,0
198819,-83.3333333333333,4,2,1,80,0,0
200076,263.157894736842,4,2,1,80,1,0
202049,269.058295964126,4,2,1,80,1,0
202318,-90.9090909090909,4,2,1,80,0,0
202990,269.662921348315,4,2,1,80,1,0
203349,-83.3333333333333,4,2,1,80,0,0
206358,264.31718061674,4,2,1,80,1,0
207943,256.959314775161,4,2,1,80,1,0
208953,377.358490566038,4,2,1,80,1,0
209079,376.175548589341,4,2,1,80,1,0
209831,437.956204379562,4,2,1,80,1,0
210707,681.818181818182,4,2,1,80,1,0
212072,410.958904109589,4,2,1,80,1,0
212892,231.660231660232,4,2,1,80,1,0
213124,226.415094339623,4,2,1,80,1,0
213809,247.933884297521,4,2,1,80,1,0
214057,211.267605633803,4,2,1,80,1,0
214694,192.926045016077,4,2,1,80,1,0
214887,235.294117647059,4,2,1,80,1,0

[Colours]
Combo1 : 73,199,83
Combo2 : 253,112,96
Combo3 : 253,135,85

[HitObjects]
70,103,622,6,0,L|137:-42,1,133.333333333333,6|0,3:2|2:0,2:0:0:0:
192,384,2808,2,0,L|185:314,4,50,2|0|0|0|0,1:2|3:0|3:0|3:0|3:0,2:0:0:0:
126,283,3208,5,0,3:0:0:0:
239,254,3341,2,0,L|258:186,3,50,0|0|0|0,3:0|3:0|3:0|3:0,2:0:0:0:
291,174,3608,2,0,L|326:113,3,50,0|0|0|0,3:0|3:0|3:0|3:0,2:0:0:0:
332,83,3875,1,4,3:0:0:0:
159,189,4142,6,0,B|133:201|103:200|103:200|102:152|154:116|154:116|111:83|111:83|157:80|185:50,1,297.552523497264,4|0,3:1|1:0,2:0:0:0:
213,16,4661,1,0,1:2:0:0:
309,97,4839,5,0,1:0:0:0:
309,97,4928,2,0,P|366:72|436:63,1,133.25277178277,6|0,3:2|1:0,2:0:0:0:
272,219,5382,2,0,P|221:228|253:336,1,180,2|0,1:2|1:0,2:0:0:0:
282,340,5741,1,6,3:0:0:0:
457,201,6016,2,0,L|311:250,1,133.333333333333,6|0,3:0|1:0,2:0:0:0:
259,170,6279,2,0,L|84:157,1,133.333333333333,4|4,3:0|1:2,2:0:0:0:
319,65,6543,2,0,L|425:-27,1,133.333333333333,6|0,3:0|1:0,2:0:0:0:
202,93,6807,2,0,L|150:240,1,133.333333333333,4|0,3:0|2:0,2:0:0:0:
181,303,7067,5,2,1:3:0:0:
87,0,7607,1,2,1:3:0:0:
256,384,8148,5,0,1:2:0:0:
364,311,8328,1,6,1:2:0:0:
188,185,8598,1,0,1:0:0:0:
241,191,8688,1,0,1:0:0:0:
294,197,8778,1,0,1:0:0:0:
182,267,8958,1,0,1:0:0:0:
241,109,9139,5,4,1:3:0:0:
241,109,9230,2,0,P|232:46|202:-2,1,120,6|2,3:2|1:2,2:0:0:0:
322,240,9668,1,2,1:2:0:0:
322,240,9756,2,0,P|335:214|440:169,1,120,4|0,3:0|1:0,2:0:0:0:
247,384,10194,1,2,1:2:0:0:
247,384,10283,2,0,P|212:338|141:321,1,120,4|2,3:0|1:3,2:0:0:0:
401,341,10672,6,0,B|419:347|419:347|424:261|364:201|364:201|397:220|441:219,1,233.333333333333,4|0,3:1|1:0,2:0:0:0:
467,209,11062,1,4,3:0:0:0:
380,74,11235,5,0,1:0:0:0:
380,74,11323,2,0,P|412:25|470:0,1,120,6|0,3:2|1:0,2:0:0:0:
221,108,11776,1,2,1:2:0:0:
221,108,11867,2,0,P|248:58|225:-9,1,120,4|0,3:0|1:0,2:0:0:0:
103,238,12320,1,2,1:2:0:0:
103,238,12417,2,0,P|63:193|45:127,1,120,12|8,3:0|3:0,2:0:0:0:
80,384,12813,6,0,B|54:353|76:318|76:318|108:306|151:323|173:359,1,166.666666666667,4|0,3:1|2:0,2:0:0:0:
188,349,13077,1,2,1:2:0:0:
241,289,13209,1,0,1:0:0:0:
395,334,13386,5,2,2:0:0:0:
395,334,13473,2,0,P|451:308|536:299,1,120,6|2,3:2|1:2,2:0:0:0:
247,244,13921,1,2,1:2:0:0:
247,244,14011,2,0,P|196:208|146:139,1,120,4|0,3:0|1:0,2:0:0:0:
431,142,14459,1,2,1:2:0:0:
431,142,14549,2,0,P|457:85|466:0,1,120,6|8,3:0|3:0,2:0:0:0:
446,272,14965,6,0,B|434:285|417:288|417:288|391:286|371:266|371:266|344:322|272:342|272:342|280:321,1,234.000005712891,4|0,3:1|1:0,2:0:0:0:
270,271,15321,1,6,3:0:0:0:
224,60,15580,5,2,1:2:0:0:
120,0,15772,2,0,L|17:37,1,100,4|0,1:2|2:0,2:0:0:0:
220,190,16156,1,2,1:2:0:0:
307,107,16349,2,0,L|406:115,1,100,4|0,1:2|2:0,2:0:0:0:
82,165,16736,5,2,1:2:0:0:
200,147,16913,2,0,L|151:101,1,66.6666666666667,4|4,1:2|3:0,2:0:0:0:
252,34,17180,1,0,1:0:0:0:
220,332,17447,1,0,1:0:0:0:
203,277,17536,1,0,1:0:0:0:
290,175,17713,5,0,1:2:0:0:
290,175,17802,2,0,P|331:230|349:301,1,133.333333333333,4|0,3:1|1:0,2:0:0:0:
369,193,18077,2,0,P|353:128|351:61,1,133.333333333333,12|0,3:0|1:2,2:0:0:0:
402,0,18352,2,0,P|383:68|362:138,1,133.333333333333,12|0,3:0|1:0,2:0:0:0:
287,147,18627,2,0,P|296:231|298:286,1,133.333333333333,12|0,3:0|1:0,2:0:0:0:
215,213,18903,2,0,P|244:153|273:93,1,133.333333333333,4|0,3:0|1:0,2:0:0:0:
135,219,19167,2,0,P|129:303|121:357,1,133.333333333333,4|0,3:0|1:0,2:0:0:0:
48,384,19432,6,0,P|41:282|-27:331,1,220,4|4,3:0|3:0,2:0:0:0:
228,384,19962,6,0,P|290:354|376:340,1,133.333333333333,6|0,3:0|1:0,2:0:0:0:
254,316,20222,2,0,P|186:300|128:257,1,133.333333333333,4|0,3:0|1:0,2:0:0:0:
90,196,20483,2,0,P|141:157|158:93,1,133.333333333333,4|0,3:0|1:0,2:0:0:0:
128,17,20744,2,0,P|116:89|100:177,1,133.333333333333,4|0,3:0|1:0,2:0:0:0:
9,206,21018,2,0,P|-2:137|-30:71,1,133.333333333333,4|0,3:0|1:0,2:0:0:0:
0,293,21281,6,0,P|49:236|121:251,1,146.666666666667,4|0,3:0|1:0,2:0:0:0:
178,293,21544,2,0,P|296:263|335:147,1,220,4|4,3:0|3:0,2:0:0:0:
512,304,22070,6,0,P|437:313|377:333,1,133.333333333333,6|0,3:2|1:0,2:0:0:0:
484,269,22337,2,0,P|518:214|526:145,1,133.333333333333,8|0,3:0|1:0,2:0:0:0:
492,73,22605,2,0,P|494:144|502:217,1,133.333333333333,8|0,3:0|1:0,2:0:0:0:
395,0,22873,2,0,P|417:70|467:138,1,133.333333333333,8|0,3:0|1:0,2:0:0:0:
391,194,23141,2,0,P|327:176|251:168,1,133.333333333333,4|0,3:0|1:0,2:0:0:0:
174,182,23401,6,0,P|98:156|70:70,1,146.666666666667,4|0,3:0|1:0,2:0:0:0:
129,31,23662,2,0,P|49:69|-26:-24,1,220.000006713867,4|4,3:0|3:0,2:0:0:0:
0,293,24196,6,0,P|69:270|156:264,1,133.333333333333,4|0,3:1|1:0,2:0:0:0:
183,331,24466,2,0,P|113:317|46:297,1,133.333333333333,8|0,3:0|1:0,2:0:0:0:
240,384,24736,2,0,P|311:373|382:362,1,133.333333333333,8|0,3:0|1:0,2:0:0:0:
157,245,25006,2,0,P|141:174|134:87,1,133.333333333333,8|0,3:0|1:0,2:0:0:0:
271,92,25282,2,0,P|244:27|186:-35,1,133.333333333333,4|4,3:0|1:0,2:0:0:0:
107,7,25542,1,0,2:0:0:0:
74,0,25629,2,0,L|77:74,1,66.6666666666667,0|4,1:0|3:0,2:0:0:0:
43,140,25803,5,8,1:2:0:0:
70,185,25890,1,8,1:2:0:0:
84,241,25977,1,0,1:0:0:0:
84,241,26064,2,0,P|95:209|113:181,2,66.6666666666667,8|12|4,3:0|3:0|3:0,2:0:0:0:
86,321,26326,6,0,L|329:306,1,240,4|0,3:2|1:0,2:0:0:0:
31,313,26753,2,0,L|-30:267,1,66.6666666666667,4|0,3:0|2:0,2:0:0:0:
358,388,27053,5,4,1:0:0:0:
358,388,27140,2,0,P|443:335|420:171,1,266.666666666667,4|2,3:1|2:3,2:0:0:0:
358,140,27706,1,4,2:0:0:0:
387,384,28000,1,0,1:0:0:0:
335,263,28165,1,0,1:0:0:0:
335,263,28247,1,8,3:0:0:0:
475,152,28496,5,4,1:0:0:0:
478,44,28677,1,4,3:0:0:0:
498,10,29306,1,0,1:0:0:0:
512,107,29466,1,4,3:0:0:0:
452,254,30119,1,0,1:0:0:0:
471,168,30266,1,4,3:0:0:0:
299,0,30667,5,0,1:0:0:0:
218,24,30804,1,4,3:0:0:0:
198,58,31458,1,0,1:0:0:0:
286,93,31611,1,4,3:0:0:0:
370,227,32254,1,0,1:0:0:0:
290,232,32383,1,4,3:0:0:0:
454,371,32641,6,0,L|524:353,1,50,0|0,2:0|2:0,2:0:0:0:
467,383,32771,2,0,L|487:210,1,150.890005722046,2|6,1:2|1:2,2:0:0:0:
112,129,33605,6,0,L|107:-45,1,150.000005722046,2|14,1:2|3:0,2:0:0:0:
267,294,34384,6,0,L|301:123,1,150.890005722046,2|12,1:2|3:0,2:0:0:0:
92,384,34927,5,0,1:0:0:0:
83,298,35071,1,4,3:0:0:0:
130,234,35744,1,0,1:0:0:0:
149,322,35893,1,4,3:0:0:0:
0,262,36551,1,0,1:0:0:0:
64,198,36703,1,4,3:0:0:0:
20,0,37105,5,0,1:0:0:0:
0,97,37264,2,0,P|78:91|165:63,1,150,4|0,3:0|2:0,2:0:0:0:
263,0,37902,1,0,1:0:0:0:
172,16,38052,2,0,P|138:86|118:175,1,150,4|0,3:0|2:0,2:0:0:0:
137,293,38706,1,0,1:0:0:0:
147,200,38857,1,4,3:0:0:0:
300,384,39244,5,0,1:0:0:0:
271,310,39376,2,0,L|415:317,1,100,4|0,3:0|2:0,2:0:0:0:
337,158,40048,1,0,1:0:0:0:
354,236,40183,2,0,L|247:332,1,100,4|0,3:0|2:0,2:0:0:0:
384,87,40855,1,0,1:0:0:0:
437,146,40990,2,0,L|392:283,1,100,4|0,3:0|2:0,2:0:0:0:
309,0,41393,5,0,1:0:0:0:
243,43,41524,2,0,P|224:122|232:196,1,150,12|0,3:0|2:0,2:0:0:0:
145,309,42183,1,0,1:0:0:0:
69,266,42327,2,0,P|111:204|131:132,1,150,12|0,3:0|2:0,2:0:0:0:
41,0,42990,1,0,1:0:0:0:
49,79,43123,1,12,3:0:0:0:
0,333,43518,5,0,1:0:0:0:
50,384,43640,2,0,L|31:264,1,100,4|0,3:0|2:0,2:0:0:0:
153,178,44321,1,0,1:0:0:0:
128,103,44453,2,0,L|132:224,1,100,4|0,3:0|2:0,2:0:0:0:
306,38,45128,1,0,1:0:0:0:
226,37,45263,2,0,L|259:153,1,100,4|0,3:0|2:0,2:0:0:0:
234,292,45668,5,0,1:0:0:0:
178,349,45803,2,0,P|213:328|327:311,1,150,4|0,3:0|2:0,2:0:0:0:
424,214,46474,1,0,1:0:0:0:
379,134,46623,2,0,P|392:95|468:9,1,150,4|0,3:0|2:0,2:0:0:0:
224,0,47274,1,0,1:0:0:0:
294,63,47427,2,0,L|284:177,1,100,4|0,3:0|2:0,2:0:0:0:
247,318,47813,5,0,1:0:0:0:
231,241,47944,1,4,3:0:0:0:
326,384,48614,1,0,1:0:0:0:
328,298,48754,1,4,3:0:0:0:
234,168,49409,1,0,1:0:0:0:
255,94,49540,1,4,3:0:0:0:
71,0,49949,5,0,1:0:0:0:
0,63,50108,2,0,P|58:86|101:163,1,150,8|0,3:0|2:0,2:0:0:0:
70,289,50745,1,0,1:0:0:0:
144,347,50897,2,0,P|156:285|224:230,1,150,8|0,3:0|2:0,2:0:0:0:
381,241,51543,1,0,1:0:0:0:
247,94,51835,2,0,B|233:113|233:113|208:127,4,33.3333333333333,0|0|0|0|0,1:0|1:0|1:0|1:0|1:0,2:2:0:0:
269,27,52070,6,0,L|262:298,1,240,4|0,1:0|1:2,2:0:0:0:
307,130,52475,2,0,L|300:401,1,240,4|0,3:2|1:2,2:0:0:0:
161,335,52880,2,0,L|268:95,1,240,4|0,1:2|1:2,2:0:0:0:
181,9,53291,2,0,L|189:222,1,200,4|0,3:2|1:0,2:0:0:0:
149,321,53675,1,8,3:0:0:0:
130,293,53761,1,8,3:0:0:0:
130,293,53846,1,12,3:0:0:0:
130,293,53932,1,12,3:0:0:0:
130,293,54017,1,4,3:0:0:0:
130,293,54102,1,4,3:0:0:0:
126,355,54190,6,0,P|237:354|363:331,1,240,14|0,1:3|2:0,2:0:0:0:
459,337,54597,2,0,P|336:326|292:219,1,240,14|0,1:3|2:0,2:0:0:0:
333,144,55004,2,0,P|222:143|96:120,1,240,14|0,1:3|1:0,2:0:0:0:
0,126,55411,2,0,P|123:115|167:8,1,240,14|0,1:3|2:0,2:0:0:0:
256,0,55818,5,8,3:0:0:0:
287,123,55999,2,0,L|357:61,1,80,8|4,3:0|3:0,2:0:0:0:
247,271,56356,6,0,P|175:325|246:236,1,366.666666666667,4|0,3:1|1:0,2:0:0:0:
179,255,56892,1,4,3:0:0:0:
34,229,57071,1,0,1:0:0:0:
34,229,57161,1,4,3:0:0:0:
96,131,57340,1,8,3:0:0:0:
96,131,57429,1,4,3:0:0:0:
13,47,57608,2,0,L|22:153,1,73.3333333333333,4|0,3:2|2:0,2:0:0:0:
117,0,57832,2,0,L|110:177,1,146.666666666667,4|0,1:2|2:0,2:0:0:0:
110,220,58100,1,0,1:0:0:0:
138,113,58235,2,0,B|173:65|173:65|265:21,1,146.666666666667,0|0,1:0|2:0,2:0:0:0:
325,31,58503,6,0,P|268:154|382:72,1,375,4|0,3:1|1:0,2:0:0:0:
317,102,59040,1,4,3:0:0:0:
301,254,59219,1,0,1:0:0:0:
301,254,59309,1,4,3:0:0:0:
373,348,59487,1,0,1:0:0:0:
373,348,59577,1,4,3:0:0:0:
258,384,59756,2,0,L|208:302,1,75,8|4,3:0|3:0,2:0:0:0:
129,331,59980,2,0,L|152:181,1,150,4|0,3:2|2:0,2:0:0:0:
167,108,60248,1,0,1:0:0:0:
179,219,60382,2,0,B|195:161|195:161|266:89,1,150,0|0,1:0|2:0,2:0:0:0:
330,69,60651,6,0,P|161:72|374:125,1,787.5,4|0,3:1|1:0,2:0:0:0:
248,179,61701,1,4,3:0:0:0:
205,66,61876,2,0,L|183:157,1,75,8|4,3:0|3:0,2:0:0:0:
104,174,62095,2,0,L|186:338,1,150,4|0,3:2|2:0,2:0:0:0:
162,384,62401,1,0,1:0:0:0:
104,288,62489,2,0,B|177:295|177:295|245:329,1,150,0|0,2:0|1:0,2:0:0:0:
300,384,62801,5,4,3:1:0:0:
446,357,62973,1,0,1:0:0:0:
446,357,63059,1,4,3:0:0:0:
347,303,63232,1,0,1:0:0:0:
347,303,63318,1,4,3:0:0:0:
418,210,63490,1,0,1:0:0:0:
418,210,63576,1,4,3:0:0:0:
379,103,63749,1,0,1:0:0:0:
379,103,63858,1,4,3:0:0:0:
474,34,64034,2,0,L|465:126,1,73.3333333333333,0|4,1:0|3:0,2:0:0:0:
428,185,64254,2,0,L|401:49,1,110,4|0,3:2|2:0,2:0:0:0:
256,0,64563,1,0,1:0:0:0:
188,44,64651,2,0,B|239:96|239:96|270:188,1,146.666666666667,0|0,1:0|1:0,2:0:0:0:
252,238,64918,5,6,3:2:0:0:
18,291,65185,1,8,3:0:0:0:
37,256,65453,1,8,3:0:0:0:
166,344,65632,2,0,L|121:278,1,66.6666666666667,4|4,3:0|3:0,2:0:0:0:
96,146,65855,2,0,B|76:160|69:182|69:182|40:117|83:56|83:56|130:52|174:87,1,240,4|0,1:0|1:0,2:0:0:0:
176,139,66257,5,4,3:0:0:0:
170,178,66525,1,8,3:0:0:0:
274,298,66703,2,0,L|279:218,1,66.6666666666667,4|4,3:0|3:0,2:0:0:0:
336,92,66946,2,0,B|356:106|363:128|363:128|392:63|349:2|349:2|302:-2|258:33,1,240,4|0,1:0|2:0,2:0:0:0:
256,85,67339,6,0,P|311:147|334:220,1,146.666666666667,8|0,3:0|1:0,2:0:0:0:
400,262,67601,2,0,P|345:324|322:397,1,146.666666666667,4|0,3:0|2:0,2:0:0:0:
235,378,67863,1,4,3:0:0:0:
202,284,67995,2,0,B|217:261|243:253|243:253|166:219|94:269|94:269|82:220|116:167,1,280,4|0,1:0|1:0,2:0:0:0:
153,142,68393,5,4,3:0:0:0:
266,81,68570,2,0,L|276:-7,1,80,4|8,3:0|3:0,2:0:0:0:
300,192,68835,2,0,L|297:103,1,80,4|4,3:0|3:0,2:0:0:0:
328,302,69101,5,4,3:0:0:0:
328,302,69198,2,0,P|387:267|412:197,1,133.333333333333,4|0,1:2|2:0,2:0:0:0:
250,260,69469,2,0,P|227:336|211:400,1,133.333333333333,12|0,3:0|2:0,2:0:0:0:
179,180,69741,2,0,P|207:239|216:305,1,133.333333333333,12|0,3:0|1:0,2:0:0:0:
253,127,70013,1,12,3:0:0:0:
14,107,70195,1,0,1:0:0:0:
35,81,70285,1,8,1:2:0:0:
56,55,70376,1,8,3:0:0:0:
77,29,70467,1,8,3:0:0:0:
98,3,70557,1,4,3:0:0:0:
171,144,70739,1,12,3:0:0:0:
169,177,70829,1,4,3:0:0:0:
373,302,71101,6,0,L|327:53,1,200,2|0,1:2|2:0,2:0:0:0:
482,384,73541,2,0,L|358:384,1,100,6|0,2:0|2:0,2:0:0:0:
510,310,73804,5,4,1:3:0:0:
355,216,74068,1,4,1:3:0:0:
200,122,74332,1,4,1:3:0:0:
394,0,74595,6,0,P|404:127|279:93,1,300,4|0,3:1|2:0,2:0:0:0:
310,8,75123,2,0,L|267:307,1,270,4|0,3:1|2:0,2:0:0:0:
256,384,75655,6,0,P|204:355|136:348,1,120,6|0,3:2|1:0,2:0:0:0:
396,367,76089,1,0,1:0:0:0:
396,367,76176,2,0,P|457:332|502:286,1,120,4|0,3:0|1:0,2:0:0:0:
242,259,76611,1,0,1:0:0:0:
242,259,76699,2,0,P|206:199|216:126,1,120,4|8,3:0|3:0,2:0:0:0:
16,287,77097,6,0,B|40:287|65:299|65:299|49:227|16:190|16:190|50:186|74:162,1,233.333333333333,4|0,3:1|1:0,2:0:0:0:
109,126,77495,1,4,3:0:0:0:
148,294,77672,5,4,1:2:0:0:
148,294,77761,2,0,P|201:266|271:252,1,120,4|0,3:0|1:0,2:0:0:0:
350,57,78207,1,0,1:0:0:0:
350,57,78296,2,0,P|403:85|473:99,1,120,4|0,3:0|1:0,2:0:0:0:
211,141,78743,1,0,1:0:0:0:
211,141,78832,2,0,P|170:88|159:28,1,120,4|8,3:0|3:0,2:0:0:0:
110,265,79234,6,0,B|137:260|162:272|162:272|203:246|268:239,1,166.666666666667,4|0,3:1|0:0,2:0:0:0:
287,258,79502,1,2,1:2:0:0:
321,331,79636,1,2,2:0:0:0:
349,150,79814,5,0,1:0:0:0:
349,150,79899,2,0,P|382:97|391:24,1,120,4|0,3:2|1:0,2:0:0:0:
413,295,80349,1,0,1:0:0:0:
413,295,80439,2,0,P|473:259|527:207,1,120,4|0,3:0|1:0,2:0:0:0:
314,384,80889,1,0,1:0:0:0:
314,384,80980,2,0,P|250:367|194:335,1,120,4|0,3:0|1:0,2:0:0:0:
167,144,81371,6,0,B|153:115|126:98|126:98|197:97|246:145|246:145|248:114|263:93,1,233.333333333333,4|0,3:1|1:0,2:0:0:0:
281,61,81762,1,4,3:0:0:0:
291,271,82022,5,0,1:0:0:0:
331,384,82219,1,4,1:2:0:0:
349,128,82612,1,0,1:0:0:0:
413,26,82796,1,4,1:2:0:0:
149,0,83165,2,0,L|216:129,1,133.333333333333,0|4,1:0|1:2,2:0:0:0:
180,234,83499,5,0,2:0:0:0:
156,193,83583,1,2,1:2:0:0:
113,174,83668,2,0,P|94:227|50:270,2,106.666666666667,4|12|8,3:0|3:0|3:0,2:0:0:0:
83,67,84222,5,4,1:0:0:0:
31,160,84401,1,2,3:2:0:0:
60,263,84580,1,2,3:2:0:0:
153,315,84760,1,2,3:2:0:0:
71,384,84939,1,2,3:2:0:0:
33,284,85118,1,2,3:2:0:0:
124,220,85300,1,2,3:2:0:0:
181,309,85473,1,2,3:2:0:0:
165,189,85647,1,2,3:2:0:0:
107,99,85821,5,2,3:2:0:0:
136,54,85908,1,0,2:0:0:0:
180,179,86082,1,6,3:0:0:0:
232,170,86169,1,0,2:0:0:0:
238,63,86345,1,14,3:0:0:0:
290,78,86434,1,0,2:0:0:0:
317,180,86612,1,14,3:0:0:0:
369,171,86702,1,0,2:0:0:0:
381,63,86880,1,6,3:0:0:0:
433,72,86970,1,0,2:0:0:0:
494,160,87148,1,4,3:0:0:0:
512,209,87237,1,0,2:0:0:0:
466,306,87416,1,6,3:0:0:0:
433,346,87505,1,0,2:0:0:0:
342,267,87684,1,6,3:0:0:0:
333,317,87773,1,0,2:0:0:0:
225,245,87952,2,0,L|235:397,1,133.333333333333,6|4,3:0|1:0,2:0:0:0:
292,145,88398,1,0,1:0:0:0:
107,87,88624,5,0,2:0:0:0:
172,40,88761,2,0,P|140:5|44:-10,1,133.333333333333,6|2,3:2|1:2,2:0:0:0:
286,37,89123,1,2,3:2:0:0:
275,143,89297,1,2,3:2:0:0:
264,249,89471,2,0,P|280:182|353:104,1,169.733333333334,2|2,1:2|3:2,2:0:0:0:
452,98,89871,1,2,2:0:0:0:
360,384,90273,1,2,1:2:0:0:
354,149,90632,5,4,3:0:0:0:
332,44,90815,2,0,L|247:37,1,66.6666666666667,0|0,1:0|2:0,2:0:0:0:
180,102,91090,1,0,1:0:0:0:
128,93,91182,1,4,3:0:0:0:
180,0,91365,1,2,1:2:0:0:
0,59,91584,2,0,P|51:108|12:263,1,241.433333333333,2|4,1:2|3:0,2:0:0:0:
10,312,91980,6,0,L|21:380,1,66.6666666666667,12|8,3:0|3:0,2:0:0:0:
73,384,92159,1,4,1:0:0:0:
211,326,92383,1,2,1:2:0:0:
381,384,92652,2,0,P|464:363|542:270,1,200,2|0,1:2|2:0,2:0:0:0:
512,172,93055,6,0,L|449:184,2,50,6|0|0,3:2|2:0|2:0,2:0:0:0:
418,113,93323,2,0,L|365:150,2,50,2|0|0,1:2|2:0|2:0,2:0:0:0:
307,99,93591,2,0,L|275:154,2,50,2|0|0,1:2|2:0|2:0,2:0:0:0:
200,133,93859,2,0,L|195:196,2,50,2|0|0,1:2|2:0|2:0,2:0:0:0:
111,84,94127,2,0,L|142:28,2,50,2|0|0,1:2|2:0|2:0,2:0:0:0:
67,174,94395,2,0,L|14:211,2,50,2|0|0,1:2|2:0|2:0,2:0:0:0:
47,73,94663,2,0,L|110:61,2,50,2|0|0,1:2|2:0|2:0,2:0:0:0:
0,0,94930,5,6,2:0:0:0:
31,73,95064,1,0,3:0:0:0:
7,148,95198,1,4,3:0:0:0:
71,233,95377,1,4,3:0:0:0:
20,326,95555,1,4,3:0:0:0:
110,383,95734,1,0,1:0:0:0:
134,335,95823,2,0,L|226:320,1,66.6666666666667,0|0,2:0|1:0,2:0:0:0:
232,280,96002,2,0,L|324:295,2,66.6666666666667,4|2|2,1:0|2:0|2:0,2:0:0:0:
204,234,96266,2,0,L|122:188,2,66.6666666666667,4|2|2,3:0|2:0|2:0,2:0:0:0:
243,198,96530,1,0,1:0:0:0:
316,167,96662,1,0,1:0:0:0:
351,96,96794,1,4,3:0:0:0:
332,19,96927,1,4,3:0:0:0:
440,204,97199,5,4,3:2:0:0:
436,256,97293,1,2,1:2:0:0:
495,310,97483,1,0,1:0:0:0:
512,359,97578,2,0,P|432:344|345:341,1,166.666666666667,4|4,3:0|3:0,2:0:0:0:
262,352,97910,6,0,L|147:300,1,100,0|8,1:0|3:0,2:0:0:0:
144,240,98143,2,0,L|46:160,1,100,8|0,3:0|1:0,2:0:0:0:
59,101,98365,2,0,L|-14:-1,1,100,4|0,3:2|1:0,2:0:0:0:
109,0,98632,1,8,3:0:0:0:
9,47,98765,2,0,P|115:54|197:117,1,200,4|4,1:0|3:0,3:0:0:0:
289,15,99167,5,4,1:2:0:0:
271,92,99303,1,0,2:0:0:0:
253,169,99438,1,0,1:0:0:0:
235,246,99574,1,0,2:0:0:0:
265,319,99709,5,4,1:2:0:0:
329,271,99845,1,0,2:0:0:0:
274,329,99981,1,0,1:0:0:0:
316,261,100117,1,0,2:0:0:0:
302,182,100252,5,4,1:2:0:0:
222,191,100388,1,0,2:0:0:0:
142,200,100524,1,0,1:0:0:0:
62,209,100660,1,0,2:0:0:0:
0,158,100795,5,4,1:2:0:0:
85,74,100976,1,0,1:0:0:0:
79,22,101067,1,2,1:2:0:0:
209,47,101252,5,8,3:0:0:0:
229,0,101346,1,4,3:1:0:0:
65,352,104756,5,2,2:3:0:0:
35,278,104891,2,0,P|76:293|197:327,1,166.666666666667,4|2,2:0|2:0,2:0:0:0:
78,189,105300,1,8,3:0:0:0:
24,193,105385,1,4,3:0:0:0:
65,48,105640,6,0,P|88:95|235:109,1,200,4|2,3:1|2:0,2:0:0:0:
325,18,106182,1,8,2:0:0:0:
276,113,106383,1,0,2:0:0:0:
299,160,106483,1,2,2:0:0:0:
254,246,106634,6,0,L|540:246,1,283.333333333333,4|12,3:0|3:0,2:0:0:0:
447,384,107294,1,8,2:0:0:0:
397,328,107426,1,2,2:0:0:0:
397,328,107515,1,2,2:3:0:0:
293,365,107692,1,10,2:0:0:0:
138,323,107949,1,2,3:2:0:0:
80,90,108335,6,0,B|96:97|104:116|104:116|115:102|113:83|113:83|133:90|140:113|140:113|154:96|154:76|154:76|173:89|183:111|183:111|199:97|196:74|196:74|218:75|231:96|231:96|256:90|259:69|259:69|281:71|299:59,1,359.999989013672,8|2,1:2|3:0,2:0:0:0:
325,360,109968,6,0,P|380:312|418:247,1,133.333333333333,4|0,3:1|1:0,2:0:0:0:
417,181,110231,2,0,P|425:251|433:331,1,133.333333333333,8|0,3:0|1:0,2:0:0:0:
340,269,110495,2,0,P|352:225|399:135,1,133.333333333333,8|0,3:0|1:0,2:0:0:0:
462,95,110759,2,0,P|470:47|410:-25,1,133.333333333333,8|0,3:0|1:0,2:0:0:0:
327,0,111022,2,0,P|371:12|474:21,1,133.333333333333,4|0,3:0|1:0,2:0:0:0:
272,64,111286,2,0,P|214:35|141:24,1,133.333333333333,4|0,3:0|1:0,2:0:0:0:
56,57,111550,6,0,P|108:87|109:244,1,220,4|4,3:0|3:0,2:0:0:0:
325,384,112076,6,0,P|296:338|269:253,1,133.333333333333,6|0,3:0|1:0,2:0:0:0:
371,283,112341,2,0,P|361:222|296:152,1,133.333333333333,4|0,3:0|1:0,2:0:0:0:
232,148,112606,2,0,P|215:97|193:8,1,133.333333333333,4|0,3:0|1:0,2:0:0:0:
110,0,112872,2,0,P|129:41|205:118,1,133.333333333333,4|0,3:0|1:0,2:0:0:0:
56,72,113137,2,0,P|110:115|119:201,1,133.333333333333,4|0,3:0|1:0,2:0:0:0:
79,260,113399,6,0,P|115:316|222:330,1,146.666666666667,4|0,3:0|1:0,2:0:0:0:
281,312,113661,2,0,P|322:259|470:292,1,220,4|4,3:0|3:0,2:0:0:0:
282,87,114209,6,0,P|201:83|134:55,1,133.333333333333,4|0,3:2|1:0,2:0:0:0:
322,147,114469,2,0,P|363:132|470:115,1,133.333333333333,8|0,3:0|1:0,2:0:0:0:
509,180,114730,2,0,P|449:169|375:132,1,133.333333333333,8|0,3:0|1:0,2:0:0:0:
321,76,114991,2,0,P|263:42|193:46,1,133.333333333333,8|0,3:0|1:0,2:0:0:0:
122,95,115280,2,0,P|179:100|246:39,1,133.333333333333,4|0,3:0|1:0,2:0:0:0:
50,142,115542,6,0,P|96:162|112:275,1,146.666666666667,4|0,3:0|1:0,2:0:0:0:
75,331,115804,2,0,P|39:288|156:230,1,220,4|4,3:0|3:0,2:0:0:0:
206,347,116340,6,0,P|275:340|354:294,1,133.333333333333,4|0,3:1|1:0,2:0:0:0:
402,363,116602,2,0,P|346:351|268:313,1,133.333333333333,8|0,3:0|1:0,2:0:0:0:
460,310,116865,2,0,P|454:252|377:220,1,133.333333333333,8|0,3:0|1:0,2:0:0:0:
350,140,117127,2,0,P|358:213|372:285,1,133.333333333333,8|0,3:0|1:0,2:0:0:0:
291,73,117424,2,0,P|339:62|429:14,1,133.333333333333,4|0,3:0|1:0,2:0:0:0:
209,0,117684,1,8,3:0:0:0:
181,45,117771,1,8,3:0:0:0:
133,68,117858,1,8,3:0:0:0:
79,63,117945,2,0,L|150:112,1,66.6666666666667,8|12,3:0|3:0,2:0:0:0:
75,157,118119,2,0,L|64:226,1,66.6666666666667,12|4,3:0|3:0,2:0:0:0:
129,270,118293,2,0,L|140:339,1,66.6666666666667,4|8,3:0|3:0,2:0:0:0:
101,267,118468,6,0,L|343:249,1,240,4|0,1:2|1:0,2:0:0:0:
4,148,118875,2,0,L|-11:58,1,66.6666666666667,4|0,3:2|2:0,2:0:0:0:
167,383,119191,1,0,1:0:0:0:
167,383,119282,2,0,P|233:340|472:337,1,320,4|4,3:1|2:0,2:0:0:0:
424,230,120006,1,0,1:0:0:0:
424,230,120096,1,0,1:0:0:0:
434,148,120277,1,0,1:0:0:0:
434,148,120368,1,8,3:0:0:0:
508,43,120639,5,4,1:0:0:0:
432,0,120780,1,4,3:0:0:0:
279,46,121432,1,0,1:0:0:0:
265,138,121583,1,4,3:0:0:0:
149,247,122229,1,0,1:0:0:0:
99,179,122376,1,4,3:0:0:0:
137,364,122656,6,0,L|69:355,1,50.7133333333333,0|0,3:0|3:0,2:0:0:0:
132,384,122797,1,0,1:0:0:0:
232,372,122960,1,4,3:0:0:0:
271,217,123599,1,0,1:0:0:0:
361,191,123752,1,4,3:0:0:0:
382,349,124402,1,0,1:0:0:0:
473,373,124555,1,4,3:0:0:0:
174,353,124814,6,0,L|155:283,1,50.77,0|0,3:0|3:0,2:0:0:0:
184,339,124944,2,0,L|10:319,1,147.150005722046,2|2,1:2|1:3,2:0:0:0:
320,83,125757,6,0,L|146:103,1,151.920005722046,2|2,1:2|1:3,2:0:0:0:
469,309,126555,6,0,L|313:303,1,150,2|2,1:2|1:3,2:0:0:0:
512,114,127072,6,0,L|522:197,1,50,4|0,3:1|2:0,2:0:0:0:
486,17,127245,2,0,L|449:-25,1,50,4|0,3:0|2:0,2:0:0:0:
277,151,127894,2,0,L|272:234,1,50,0|0,1:0|2:0,2:0:0:0:
264,44,128061,2,0,L|274:-11,1,50,4|0,3:0|2:0,2:0:0:0:
0,148,128712,2,0,L|12:213,1,50,0|0,1:0|2:0,2:0:0:0:
68,270,128862,1,4,3:0:0:0:
115,76,129253,5,0,1:0:0:0:
212,67,129410,1,4,3:0:0:0:
275,213,130050,1,0,1:0:0:0:
385,223,130227,1,4,3:0:0:0:
298,88,130866,1,0,1:0:0:0:
356,17,131012,2,0,P|332:117|264:180,1,160,4|0,3:0|2:0,2:0:0:0:
221,190,131390,5,0,1:0:0:0:
227,273,131531,1,4,3:0:0:0:
113,84,132203,1,0,1:0:0:0:
59,143,132341,1,4,3:0:0:0:
293,83,133001,1,0,1:0:0:0:
305,5,133134,2,0,P|235:19|194:17,1,100,4|0,3:0|2:0,2:0:0:0:
38,49,133540,5,0,1:0:0:0:
123,95,133699,1,8,3:0:0:0:
29,271,134354,1,0,1:0:0:0:
106,249,134485,1,8,3:0:0:0:
252,372,135139,1,0,1:0:0:0:
350,389,135298,2,0,P|379:321|483:346,1,160,8|0,3:0|2:0,2:0:0:0:
512,260,135680,5,0,1:0:0:0:
502,180,135812,1,4,3:0:0:0:
502,180,135944,1,0,2:0:0:0:
324,87,136477,1,0,1:0:0:0:
341,8,136635,1,4,3:0:0:0:
138,138,137289,1,0,1:0:0:0:
206,178,137455,1,4,3:0:0:0:
328,384,137841,5,0,1:0:0:0:
408,379,137970,1,4,3:0:0:0:
134,320,138615,1,0,1:0:0:0:
56,231,138792,1,4,3:0:0:0:
217,113,139395,1,0,1:0:0:0:
229,0,139571,2,0,P|246:91|198:177,1,160,4|0,3:0|2:0,2:0:0:0:
150,199,139948,5,0,1:0:0:0:
145,270,140095,1,4,3:0:0:0:
73,40,140748,1,0,1:0:0:0:
84,156,140932,1,4,3:0:0:0:
373,0,141561,1,0,1:0:0:0:
465,16,141714,1,4,3:0:0:0:
512,189,142106,5,0,1:0:0:0:
409,152,142280,2,0,L|496:231,1,100,8|0,3:0|2:0,2:0:0:0:
247,264,142916,1,0,1:0:0:0:
151,219,143090,2,0,L|269:209,1,100,8|0,3:0|2:0,2:0:0:0:
256,384,143754,2,0,P|317:368|405:260,1,200,0|0,1:0|2:0,2:0:0:0:
451,253,144258,5,4,1:0:0:0:
171,384,153324,5,2,2:0:0:0:
157,286,153593,2,0,L|84:308,2,69.9999978637696,0|4|2,1:0|3:0|2:0,2:0:0:0:
224,196,154131,2,0,L|299:202,2,69.9999978637696,0|0|2,2:0|2:0|1:2,2:0:0:0:
163,85,154669,1,0,2:0:0:0:
278,0,154941,2,0,P|249:23|131:52,1,140,2|0,1:2|2:0,2:0:0:0:
270,191,155474,1,2,2:0:0:0:
248,301,155741,1,0,1:0:0:0:
238,227,155918,1,2,3:2:0:0:
423,384,156274,5,0,2:0:0:0:
508,352,156452,1,0,2:0:0:0:
508,352,156541,2,0,P|508:319|526:263,1,81.6666641743979,0|2,1:0|2:2,2:0:0:0:
0,74,157612,5,0,2:0:0:0:
39,163,157793,1,0,2:0:0:0:
39,163,157884,1,2,1:2:0:0:
18,301,158155,2,0,P|65:288|158:334,1,140,2|0,2:0|2:0,2:0:0:0:
187,165,158698,2,0,P|235:171|322:112,1,160,2|0,1:2|2:0,2:0:0:0:
471,173,159106,6,0,L|476:241,1,50,0|0,2:0|2:0,2:0:0:0:
487,159,159240,1,4,3:1:0:0:
512,42,159507,1,2,2:0:0:0:
405,247,159775,1,2,2:0:0:0:
362,118,160043,1,2,1:2:0:0:
465,336,160311,1,2,2:0:0:0:
407,0,160713,1,2,2:0:0:0:
191,384,161349,6,0,L|43:244,1,179.999994506836,4|0,2:0|2:0,2:0:0:0:
42,215,161629,1,0,1:0:0:0:
157,300,161769,2,0,L|359:276,1,179.999994506836,4|0,2:0|2:0,2:0:0:0:
355,235,162049,1,0,1:0:0:0:
316,95,162190,2,0,L|113:71,1,179.999994506836,4|0,2:0|2:0,2:0:0:0:
96,83,162468,1,0,1:0:0:0:
196,0,162599,6,0,B|270:178,1,150,4|0,2:0|2:0,2:0:0:0:
249,178,162904,1,0,1:0:0:0:
249,178,162992,1,0,1:0:0:0:
249,178,163079,1,0,1:0:0:0:
190,88,163254,1,8,3:0:0:0:
90,50,163428,1,4,3:0:0:0:
126,29,163516,6,0,P|237:30|363:53,1,240,14|0,1:3|2:0,2:0:0:0:
458,46,163930,2,0,P|344:52|290:156,1,239.999992675781,14|0,1:3|2:0,2:0:0:0:
333,240,164345,2,0,P|222:241|96:264,1,240,14|0,1:3|2:0,2:0:0:0:
0,257,164738,2,0,P|114:263|167:364,1,240,14|0,1:3|2:0,2:0:0:0:
256,384,165130,5,8,3:0:0:0:
415,374,165399,1,4,3:0:0:0:
512,242,165667,6,0,L|502:136,1,100,4|0,1:0|1:0,2:0:0:0:
421,126,166193,2,0,L|427:22,1,100,0|0,1:0|1:0,2:0:0:0:
299,223,166631,1,0,1:0:0:0:
299,223,166718,2,0,P|250:213|267:88,1,200,4|4,3:0|3:0,2:0:0:0:
187,299,167270,2,0,L|175:187,1,100,0|0,1:0|1:0,2:0:0:0:
330,0,167826,5,4,1:2:0:0:
251,10,167958,1,0,1:0:0:0:
27,97,168356,1,0,1:0:0:0:
105,113,168489,1,0,1:0:0:0:
184,337,168799,1,0,1:0:0:0:
184,337,168887,2,0,B|196:327|195:308|195:308|211:315|213:350|213:350|239:339|235:312|235:312|262:320|262:357|262:357|294:343|295:316|295:316|324:324|328:351|328:351|353:337|361:311|361:311|438:330|494:271,1,480,0|4,1:0|3:2,2:0:0:0:
512,34,169950,6,0,P|440:-20|511:69,1,366.666666666667,4|0,3:1|1:0,2:0:0:0:
444,50,170483,1,4,3:0:0:0:
299,74,170661,1,0,1:0:0:0:
299,74,170750,1,4,3:0:0:0:
214,155,170927,1,0,1:0:0:0:
214,155,171016,1,4,3:0:0:0:
159,55,171194,2,0,L|53:46,1,73.3333333333333,4|0,3:2|2:0,2:0:0:0:
0,138,171416,2,0,L|88:254,1,146.666666666667,4|0,3:2|2:0,2:0:0:0:
94,327,171683,1,0,2:0:0:0:
84,213,171816,2,0,B|162:250|162:250|197:298,1,146.666666666667,4|0,3:0|1:0,2:0:0:0:
271,319,172083,6,0,P|310:189|208:286,1,375,4|0,3:1|1:0,2:0:0:0:
268,247,172616,1,4,3:0:0:0:
298,97,172794,1,0,1:0:0:0:
298,97,172883,1,4,3:0:0:0:
229,4,173061,1,0,1:0:0:0:
229,4,173150,1,4,3:0:0:0:
356,28,173327,2,0,L|442:3,1,75,4|0,3:2|2:0,2:0:0:0:
512,84,173550,2,0,L|489:234,1,150,4|0,3:2|2:0,2:0:0:0:
426,273,173816,1,0,1:0:0:0:
414,384,173950,2,0,B|398:326|398:326|327:254,1,150,4|0,3:0|1:0,2:0:0:0:
312,190,174216,6,0,P|268:353|268:133,1,787.5,4|0,3:0|2:0,2:0:0:0:
186,243,175283,1,4,3:0:0:0:
37,218,175461,2,0,L|15:127,1,75,8|4,3:0|3:0,2:0:0:0:
39,33,175683,2,0,L|134:148,1,150,4|0,3:2|2:0,2:0:0:0:
207,171,175950,1,0,1:0:0:0:
149,75,176083,2,0,B|222:82|222:82|290:116,1,150,4|0,3:0|1:0,2:0:0:0:
345,171,176350,5,4,3:1:0:0:
334,319,176527,1,0,1:0:0:0:
334,319,176616,1,8,3:0:0:0:
239,258,176794,1,0,1:0:0:0:
239,258,176883,1,8,3:0:0:0:
341,198,177061,1,0,1:0:0:0:
341,198,177150,1,8,3:0:0:0:
314,84,177327,1,0,1:0:0:0:
314,84,177416,1,4,3:0:0:0:
396,0,177594,2,0,L|387:92,1,73.3333333333333,8|4,3:0|3:0,2:0:0:0:
485,126,177816,2,0,L|450:230,1,110,4|0,3:2|2:0,2:0:0:0:
357,362,178127,1,0,1:0:0:0:
432,333,178216,2,0,B|424:260|424:260|374:177,1,146.666666666667,4|0,3:0|1:0,2:0:0:0:
324,159,178483,5,0,1:0:0:0:
89,212,178750,1,8,3:0:0:0:
43,307,178927,1,8,3:0:0:0:
0,275,179016,1,4,3:0:0:0:
156,365,179194,2,0,L|115:296,1,66.6666666666667,4|4,3:0|3:0,2:0:0:0:
105,157,179420,2,0,B|112:197|148:213|148:213|153:160|196:125|196:125|232:133|241:169,1,240,4|0,1:0|2:0,2:0:0:0:
223,243,179814,5,8,3:0:0:0:
245,374,180034,1,4,3:0:0:0:
271,328,180121,1,8,3:0:0:0:
441,292,180297,2,0,L|414:218,1,66.6666666666667,8|4,3:0|3:0,2:0:0:0:
455,144,180473,2,0,B|448:184|412:200|412:200|407:147|364:112|364:112|328:120|319:156,1,240,4|0,1:0|1:0,2:0:0:0:
251,239,180885,6,0,P|241:167|212:88,1,146.666666666667,8|4,3:0|3:0,2:0:0:0:
324,10,181160,2,0,P|269:72|246:145,1,146.666666666667,8|0,3:0|2:0,2:0:0:0:
265,218,181436,1,4,3:0:0:0:
182,271,181574,2,0,B|175:283|175:298|175:298|84:285|24:230|24:230|30:204|65:196,1,240,4|0,1:0|1:0,2:0:0:0:
132,187,181972,5,8,3:0:0:0:
263,95,182149,2,0,L|253:7,1,80,0|8,1:0|3:0,2:0:0:0:
381,46,182414,2,0,L|446:-44,1,80,4|4,3:0|3:0,2:0:0:0:
452,224,182680,5,2,2:3:0:0:
452,224,182771,2,0,P|392:190|319:203,1,133.333333333333,4|0,1:2|2:0,2:0:0:0:
361,309,183041,2,0,P|399:294|496:283,1,133.333333333333,4|0,3:0|1:0,2:0:0:0:
470,373,183311,2,0,P|391:363|348:317,1,133.333333333333,4|0,3:0|1:0,2:0:0:0:
270,238,183581,2,0,P|222:259|150:316,1,133.333333333333,0|0,3:0|1:0,2:0:0:0:
118,388,183851,1,4,3:0:0:0:
67,237,184024,1,0,1:0:0:0:
34,213,184111,1,0,3:0:0:0:
192,187,184285,1,8,3:0:0:0:
194,149,184372,1,4,3:0:0:0:
196,111,184459,1,0,3:0:0:0:
223,86,184546,1,4,3:1:0:0:
220,48,184633,1,0,2:0:0:0:
373,0,184807,5,8,3:0:0:0:
373,0,184893,1,4,3:2:0:0:
407,99,185071,1,0,1:0:0:0:
360,194,185250,1,2,2:0:0:0:
388,296,185429,2,0,P|305:268|214:281,2,150,8|0|0,3:0|2:0|2:0,2:0:0:0:
428,365,185966,6,0,L|541:351,1,80,2|0,2:0|2:0,2:0:0:0:
459,230,186145,2,0,L|382:253,1,80,2|0,2:0|2:0,2:0:0:0:
274,185,186324,2,0,L|355:116,1,80,4|4,3:0|3:0,2:0:0:0:
351,39,186503,1,8,3:0:0:0:
250,133,186637,1,0,1:0:0:0:
207,145,186727,1,4,3:0:0:0:
157,131,186816,1,0,3:0:0:0:
116,97,186906,1,0,1:0:0:0:
73,117,186995,2,0,P|86:92|38:90,1,79.9999975585938,2|2,3:2|0:0,0:0:0:0:
18,102,187153,6,0,L|-11:71,2,33.3333333333333,0|2|2,2:0|2:0|3:2,2:0:0:0:
21,177,187312,2,0,L|25:255,1,50,0|0,1:0|2:0,2:0:0:0:
139,307,187518,2,0,L|143:385,1,50,0|4,1:0|3:0,2:0:0:0:
108,220,187723,2,0,L|112:298,1,50,0|4,1:0|3:0,3:0:0:0:
186,81,187952,2,0,L|190:159,2,66.6666666666667,4|0|8,3:0|1:0|3:0,2:0:0:0:
306,44,188203,6,0,L|291:-19,2,50,0|8|0,1:0|3:0|1:0,2:0:0:0:
384,108,188477,2,0,L|399:45,2,50,0|8|0,1:0|3:0|1:0,2:0:0:0:
312,225,188751,2,0,L|308:160,2,50,0|8|0,1:0|3:0|1:0,2:0:0:0:
402,295,189025,2,0,L|406:230,1,50,0|8,1:0|3:0,2:0:0:0:
379,341,189162,5,0,1:0:0:0:
30,384,191422,2,0,L|154:384,1,100,6|0,2:0|2:0,2:0:0:0:
2,310,191682,5,4,3:0:0:0:
157,216,191943,1,4,3:0:0:0:
312,122,192204,1,4,3:0:0:0:
118,0,192465,6,0,P|108:127|233:93,1,300,4|0,3:1|2:0,2:0:0:0:
202,8,193003,2,0,L|245:307,1,270,4|0,3:1|2:0,2:0:0:0:
256,384,193541,6,0,P|312:354|407:344,1,133.333333333333,6|0,3:2|1:0,2:0:0:0:
432,353,193803,1,6,3:0:0:0:
511,282,193977,1,0,1:0:0:0:
511,282,194065,2,0,P|457:248|400:171,1,133.333333333333,6|0,3:0|1:0,2:0:0:0:
397,145,194327,1,6,3:0:0:0:
312,89,194501,1,0,1:0:0:0:
312,89,194591,2,0,P|335:42|251:-2,1,160,6|8,3:0|3:0,2:0:0:0:
89,132,194978,6,0,B|82:109|87:87|87:87|124:77|202:107|202:107|223:140|218:171|218:171|185:178|153:209,1,279.999991455078,6|0,3:2|1:0,2:0:0:0:
139,226,195366,1,6,3:0:0:0:
129,354,195539,5,0,1:0:0:0:
129,354,195627,2,0,P|189:319|270:305,1,133.333333333333,4|0,3:1|1:0,2:0:0:0:
303,317,195893,1,6,3:0:0:0:
333,217,196070,1,0,1:0:0:0:
333,217,196159,2,0,P|414:248|481:247,1,133.333333333333,6|0,3:0|1:0,2:0:0:0:
512,238,196425,1,6,3:0:0:0:
470,117,196602,1,0,1:0:0:0:
470,117,196691,2,0,P|422:80|460:-22,1,160,6|0,3:0|1:0,2:0:0:0:
225,0,197090,6,0,B|216:21|218:43|218:43|166:30|119:40|119:40|102:78|131:109|131:109|152:84|194:72,1,280,6|0,3:2|1:0,2:0:0:0:
209,115,197489,1,6,3:0:0:0:
216,242,197666,5,0,1:0:0:0:
216,242,197755,2,0,P|197:313|164:368,1,133.333333333333,4|0,3:1|1:0,2:0:0:0:
120,388,198021,1,6,3:0:0:0:
87,291,198199,1,0,1:0:0:0:
87,291,198287,2,0,P|91:242|25:157,1,133.333333333333,6|0,3:0|1:0,2:0:0:0:
0,149,198553,1,6,3:0:0:0:
48,59,198731,1,0,1:0:0:0:
48,59,198819,2,0,P|130:38|117:-25,1,160,6|0,3:0|1:0,2:0:0:0:
138,199,199219,6,0,B|180:212|207:237|207:237|207:173|245:129|245:129|273:135|283:164,1,239.999992675781,6|2,3:2|1:2,2:0:0:0:
299,353,199751,1,2,1:2:0:0:
330,172,200076,5,0,1:0:0:0:
330,172,200163,2,0,P|350:114|314:56,1,133.333333333333,6|0,3:0|1:0,2:0:0:0:
262,40,200426,1,6,3:0:0:0:
161,66,200602,1,0,1:0:0:0:
161,66,200690,2,0,P|139:131|89:174,1,133.333333333333,6|0,3:0|1:0,2:0:0:0:
39,186,200953,2,0,P|23:265|28:335,1,133.333333333333,6|0,3:0|1:0,2:0:0:0:
53,363,201216,1,4,3:0:0:0:
147,332,201391,6,0,B|160:361|199:365|199:365|239:332|239:332|283:348|335:335,1,200,6|0,3:2|1:0,2:0:0:0:
409,318,201786,1,4,3:0:0:0:
489,229,201961,5,0,1:0:0:0:
489,229,202049,1,4,3:1:0:0:
512,74,202318,2,0,B|461:-42|235:77|373:256|292:218|292:218|272:265|221:277,1,440,4|4,3:2|3:0,2:0:0:0:
161,300,202990,5,4,3:1:0:0:
3,176,203259,1,0,1:0:0:0:
3,176,203349,2,0,B|58:173|132:134|189:32|62:-59|95:-91|-79:77|145:175,1,480,4|4,3:2|3:0,2:0:0:0:
196,188,204068,5,4,3:1:0:0:
228,357,204338,1,0,1:0:0:0:
228,357,204428,2,0,B|156:404|30:349|44:225|184:187|302:225|280:323|367:366|440:324,1,520,4|4,3:2|3:0,2:0:0:0:
495,305,205147,5,4,3:1:0:0:
459,112,205416,1,0,1:0:0:0:
459,112,205506,2,0,P|251:124|103:0,1,400,4|8,3:2|3:0,2:0:0:0:
60,0,206046,1,4,3:3:0:0:
80,174,206225,5,2,2:3:0:0:
18,122,206358,2,0,P|50:188|44:259,1,133.333333333333,4|0,3:2|1:0,2:0:0:0:
66,324,206622,2,0,P|75:274|100:186,1,133.333333333333,4|0,3:0|1:0,2:0:0:0:
168,159,206886,2,0,P|130:104|134:39,1,133.333333333333,4|0,3:0|1:0,2:0:0:0:
204,0,207150,2,0,P|183:77|145:127,1,133.333333333333,8|4,3:0|3:1,2:0:0:0:
173,237,207503,5,0,1:0:0:0:
175,275,207591,1,0,1:0:0:0:
202,300,207679,1,0,1:0:0:0:
199,338,207767,1,0,1:0:0:0:
196,376,207855,1,0,1:0:0:0:
340,347,208028,1,0,1:0:0:0:
322,313,208114,1,0,1:0:0:0:
285,295,208199,1,0,1:0:0:0:
312,265,208285,1,0,1:0:0:0:
339,235,208371,1,0,1:0:0:0:
334,196,208456,5,4,1:2:0:0:
256,96,212072,5,4,3:1:0:0:
256,192,212140,12,4,216298,3:0:0:0:
256,192,216377,12,0,218475,0:2:0:0:
298,384,218710,5,6,1:2:0:0:
378,389,218945,1,6,1:2:0:0:
