osu file format v14

[General]
AudioFilename: okami no uta.mp3
AudioLeadIn: 0
PreviewTime: 552
Countdown: 0
SampleSet: Soft
StackLeniency: 0.2
Mode: 0
LetterboxInBreaks: 0
WidescreenStoryboard: 1

[Editor]
Bookmarks: 4320,4542,17802,28496,56356,75655,84222,101346,109968,120639,144258,169950,183221,193541,212072
DistanceSpacing: 0.8
BeatDivisor: 6
GridSize: 32
TimelineZoom: 6.399998

[Metadata]
Title:Ookami no Uta
TitleUnicode:狼の詩
Artist:ATARASHII GAKKO!
ArtistUnicode:新しい学校のリーダーズ
Creator:Fisky
Version:jasontime's Expert
Source:
Tags:yudragen laura- -tatsuo jasontime12345 Mizunashi Akari atarashii gakkou no leaders new school wakage gaitaru suzuka H ZETTRIO 阿久悠 ZETT M j-pop jpop pop jazz japanese piano victor entertainment single 2018
BeatmapID:3378777
BeatmapSetID:1562875

[Difficulty]
HPDrainRate:5
CircleSize:4
OverallDifficulty:8
ApproachRate:9.5
SliderMultiplier:1.7
SliderTickRate:1

[Events]
//Background and Video events
0,0,"bg okami no uta.jpg",0,0
//Break Periods
2,101918,104231
//Storyboard Layer 0 (Background)
//Storyboard Layer 1 (Fail)
//Storyboard Layer 2 (Pass)
//Storyboard Layer 3 (Foreground)
//Storyboard Layer 4 (Overlay)
//Storyboard Sound Samples

[TimingPoints]
622,277.777777777778,4,2,1,60,1,0
622,-40,4,2,1,60,0,0
1733,269.058295964126,4,2,1,60,1,0
2808,266.903914590747,4,2,1,60,1,0
4142,-66.6666666666667,4,2,1,60,0,0
4573,266.903914590747,4,2,1,60,1,0
4587,-66.6666666666667,4,2,1,80,0,0
4839,-50,4,2,1,80,0,0
5113,269.299820466786,4,2,1,80,1,0
5113,-50,4,2,1,80,0,0
5920,-46.6746495490132,4,2,1,80,0,0
6016,263.736263736264,4,2,1,80,1,0
6191,-50,4,2,1,80,0,0
6805,-50,4,2,1,80,0,0
7067,270.27027027027,4,2,1,80,1,0
9230,263.157894736842,4,2,1,80,1,0
9230,-50,4,2,1,80,0,0
10283,259.74025974026,4,2,1,80,1,0
10283,-50,4,2,1,80,0,0
11323,272.108843537415,4,2,1,80,1,0
11323,-50,4,2,1,80,0,0
12417,264.31718061674,4,2,1,80,1,0
12417,-50,4,2,1,80,0,0
13473,269.058295964126,4,2,1,80,1,0
13652,-50,4,2,1,80,0,0
14549,250,4,2,1,80,1,0
14549,-50,4,2,1,80,0,0
15235,257.510729613734,4,2,1,80,1,0
15235,-50,4,2,1,80,0,0
15580,288.461538461538,4,2,1,80,1,0
16736,266.666666666667,4,2,1,80,1,0
16736,-76.9230769230769,4,2,1,80,0,0
17802,275.229357798165,4,2,1,80,1,0
18903,264.900662251656,4,2,1,80,1,0
19962,260.869565217392,4,2,1,80,1,0
21018,263.157894736842,4,2,1,80,1,0
22070,267.857142857143,4,2,1,80,1,0
23141,260.869565217391,4,2,1,80,1,0
24196,270.27027027027,4,2,1,80,1,0
25282,260.869565217391,4,2,1,80,1,0
26326,284.36018957346,4,2,1,80,1,0
26326,-66.6666666666667,4,2,1,80,0,0
26753,257.510729613734,4,2,1,80,1,0
26753,-133.333333333333,4,2,1,80,0,0
27140,283.018867924528,4,2,1,80,1,0
27140,-66.6666666666667,4,2,1,80,0,0
27894,317.460317460317,4,2,1,80,1,0
28000,247.933884297521,4,2,1,80,1,0
28496,361.44578313253,4,2,1,80,1,0
28677,269.058295964126,4,2,1,80,1,0
29306,240,4,2,1,80,1,0
29466,260.869565217391,4,2,1,80,1,0
30119,294.117647058824,4,2,1,80,1,0
30266,267.857142857143,4,2,1,80,1,0
30804,262.008733624454,4,2,1,80,1,0
31458,306.122448979592,4,2,1,80,1,0
31611,257.510729613734,4,2,1,80,1,0
32771,337.078651685393,4,2,1,80,1,0
32940,265.486725663717,4,2,1,80,1,0
33605,312.5,4,2,1,80,1,0
33761,248.96265560166,4,2,1,80,1,0
34384,337.078651685393,4,2,1,80,1,0
34553,248.96265560166,4,2,1,80,1,0
34927,288.461538461538,4,2,1,80,1,0
35071,269.058295964126,4,2,1,80,1,0
35744,298.507462686567,4,2,1,80,1,0
35893,263.157894736842,4,2,1,80,1,0
36551,304.568527918782,4,2,1,80,1,0
36703,267.857142857143,4,2,1,80,1,0
37105,317.460317460317,4,2,1,80,1,0
37264,255.31914893617,4,2,1,80,1,0
37902,300,4,2,1,80,1,0
38052,262.008733624454,4,2,1,80,1,0
38706,301.507537688442,4,2,1,80,1,0
38857,258.620689655172,4,2,1,80,1,0
39376,269.058295964126,4,2,1,80,1,0
41524,263.157894736842,4,2,1,80,1,0
42183,288.461538461538,4,2,1,80,1,0
42327,265.486725663717,4,2,1,80,1,0
43518,243.90243902439,4,2,1,80,1,0
43640,272.727272727273,4,2,1,80,1,0
44453,270.02700270027,4,2,1,80,1,0
46474,298.507462686567,4,2,1,80,1,0
46623,260.869565217391,4,2,1,80,1,0
47274,306.122448979592,4,2,1,80,1,0
47427,257.510729613734,4,2,1,80,1,0
47944,268.000714668572,4,2,1,80,1,0
48754,262.008733624454,4,2,1,80,1,0
49540,272.727272727273,4,2,1,80,1,0
49949,317.460317460317,4,2,1,80,1,0
50108,255.31914893617,4,2,1,80,1,0
50745,304.568527918782,4,2,1,80,1,0
50897,258.620689655172,4,2,1,80,1,0
51674,322.58064516129,4,2,1,80,1,0
51835,235.294117647059,4,2,1,80,1,0
52070,270.27027027027,4,2,1,70,1,0
52070,-66.6666666666667,4,2,1,70,0,0
53291,256.410256410256,4,2,1,70,1,0
53291,-50,4,2,1,70,0,0
54190,271.493212669683,4,2,1,70,1,0
54190,-66.6666666666667,4,2,1,70,0,0
56356,268.456375838926,4,2,1,80,1,0
56356,-66.6666666666667,4,2,1,80,0,0
60651,262.582056892779,4,2,1,80,1,0
62127,-50,4,2,1,80,0,0
62801,258.620689655172,4,2,1,80,1,0
63858,264.31718061674,4,2,1,80,1,0
64254,-50,4,2,1,80,0,0
64918,267.857142857143,4,2,1,80,1,0
65855,-50,4,2,1,80,0,0
66946,262.008733624454,4,2,1,80,1,0
66946,-50,4,2,1,80,0,0
67995,265.486725663717,4,2,1,80,1,0
67995,-50,4,2,1,80,0,0
69198,271.985494106981,4,2,1,80,1,0
69469,-66.6666666666667,4,2,1,80,0,0
69741,-50,4,2,1,80,0,0
70013,-40,4,2,1,80,0,0
71645,-66.6666666666667,4,2,1,80,0,0
71849,-66.6666666666667,4,2,1,5,0,0
71917,-66.6666666666667,4,2,1,80,0,0
72121,-66.6666666666667,4,2,1,5,0,0
72189,-66.6666666666667,4,2,1,80,0,0
72393,-66.6666666666667,4,2,1,5,0,0
72456,271.493212669683,4,2,1,80,1,0
72456,-66.6666666666667,4,2,1,80,0,0
72659,-66.6666666666667,4,2,1,5,0,0
72727,-66.6666666666667,4,2,1,80,0,0
72931,-66.6666666666667,4,2,1,5,0,0
72998,-66.6666666666667,4,2,1,80,0,0
73202,-66.6666666666667,4,2,1,5,0,0
73270,-66.6666666666667,4,2,1,80,0,0
73541,263.736263736264,4,2,1,80,1,0
73804,-33.3333333333333,4,2,1,80,0,0
74595,-100,4,2,1,80,0,0
75655,260.869565217391,4,2,1,80,1,0
75828,-50,4,2,1,80,0,0
76699,265.486725663717,4,2,1,80,1,0
76699,-50,4,2,1,80,0,0
77761,267.857142857143,4,2,1,80,1,0
77761,-50,4,2,1,80,0,0
79899,270.27027027027,4,2,1,80,1,0
80079,-50,4,2,1,80,0,0
80980,260.869565217391,4,2,1,80,1,0
80980,-50,4,2,1,80,0,0
82022,295.566502463054,4,2,1,80,1,0
82612,276.497695852535,4,2,1,80,1,0
83165,251.046025104603,4,2,1,80,1,0
83668,276.497695852535,4,2,1,80,1,0
84222,269.058295964126,4,2,1,80,1,0
85300,260.869565217391,4,2,1,80,1,0
85908,-66.6666666666667,4,2,1,80,0,1
86082,-100,4,2,1,80,0,1
86345,267.857142857143,4,2,1,80,1,1
88130,-66.6666666666667,4,2,1,80,0,1
88488,273.972602739726,4,2,1,80,1,1
89037,260.869565217391,4,2,1,80,1,1
89471,-101.775,4,2,1,80,0,1
89559,267.857142857143,4,2,1,80,1,1
89871,-66.6666666666667,4,2,1,80,0,1
90632,275.229357798165,4,2,1,80,1,1
91320,-50,4,2,1,80,0,1
91457,254.237288135593,4,2,1,80,1,1
91711,269.058295964126,4,2,1,80,1,1
92159,-66.6666666666667,4,2,1,80,0,1
92788,267.857142857143,4,2,1,80,1,1
94663,-66.6666666666667,4,2,1,80,0,1
96002,264.31718061674,4,2,1,80,1,1
97057,284.36018957346,4,2,1,80,1,1
98099,266.666666666667,4,2,1,80,1,1
99167,271.493212669683,4,2,1,80,1,1
101066,280.373831775701,4,2,1,80,1,1
101346,-461.406038885855,4,2,1,80,0,0
101623,295.566502463054,4,2,1,80,1,0
101919,269.058295964126,4,2,1,80,1,0
102188,304.568527918782,4,2,1,80,1,0
102340,269.058295964126,4,2,1,80,1,0
103414,242.914979757085,4,2,1,80,1,0
103779,287.081339712919,4,2,1,80,1,0
104210,257.510729613734,4,2,1,80,1,0
104596,320.855614973262,4,2,1,80,1,0
104756,271.493212669683,4,2,1,80,1,0
105300,255.31914893617,4,2,1,80,1,0
105555,-100,4,2,1,40,0,0
105640,271.493212669683,4,2,1,40,1,0
106182,301.507537688442,4,2,1,40,1,0
106634,264.31718061674,4,2,1,40,1,0
107692,257.510729613734,4,2,1,40,1,0
108335,-100,4,2,1,40,0,0
108723,310.880829015544,4,2,1,40,1,0
109966,-50,4,2,1,80,0,0
109968,263.736263736264,4,2,1,80,1,0
112076,265.486725663717,4,2,1,80,1,0
113137,262.008733624455,4,2,1,80,1,0
114209,260.869565217392,4,2,1,80,1,0
115280,262.008733624454,4,2,1,80,1,0
116340,262.582056892779,4,2,1,80,1,0
117424,260.869565217391,4,2,1,80,1,0
118468,271.493212669683,4,2,1,80,1,0
118468,-66.6666666666667,4,2,1,80,0,0
120006,-100,4,2,1,50,0,0
120096,-100,4,2,1,80,0,0
120639,-100,4,2,1,60,0,0
120780,260.869565217391,4,2,1,60,1,0
121432,301.507537688442,4,2,1,60,1,0
121583,258.620689655172,4,2,1,60,1,0
122229,294.117647058824,4,2,1,60,1,0
122376,280.373831775701,4,2,1,60,1,0
122797,324.324324324324,4,2,1,60,1,0
122959,256.410256410256,4,2,1,60,1,0
123599,306.122448979592,4,2,1,60,1,0
123752,259.74025974026,4,2,1,60,1,0
124402,306.122448979592,4,2,1,60,1,0
124555,259.74025974026,4,2,1,60,1,0
124944,315.789473684211,4,2,1,60,1,0
125102,262.008733624454,4,2,1,60,1,0
125756,312.5,4,2,1,60,1,0
125912,257.510729613734,4,2,1,60,1,0
127072,346.820809248555,4,2,1,60,1,0
127245,277.777777777778,4,2,1,60,1,0
127894,250,4,2,1,60,1,0
128061,260.869565217391,4,2,1,60,1,0
128712,300,4,2,1,60,1,0
128862,260.869565217391,4,2,1,60,1,0
129253,314.13612565445,4,2,1,60,1,0
129410,256.410256410256,4,2,1,60,1,0
130050,355.029585798817,4,2,1,60,1,0
130227,255.31914893617,4,2,1,60,1,0
130866,292.682926829268,4,2,1,60,1,0
131012,252.100840336134,4,2,1,60,1,0
131012,-500,4,2,1,60,0,0
131390,281.69014084507,4,2,1,60,1,0
131390,-100,4,2,1,60,0,0
131531,269.058295964126,4,2,1,60,1,0
132341,264.31718061674,4,2,1,60,1,0
133134,270.27027027027,4,2,1,60,1,0
133540,317.460317460317,4,2,1,60,1,0
133699,262.008733624454,4,2,1,60,1,0
135139,317.460317460317,4,2,1,60,1,0
135298,255.31914893617,4,2,1,60,1,0
135812,265.486725663717,4,2,1,60,1,0
136477,315.789473684211,4,2,1,60,1,0
136635,262.008733624454,4,2,1,60,1,0
137289,331.491712707182,4,2,1,60,1,0
137455,257.510729613734,4,2,1,60,1,0
138615,355.029585798817,4,2,1,60,1,0
138792,240.963855421687,4,2,1,60,1,0
139395,352.941176470588,4,2,1,60,1,0
139571,251.046025104603,4,2,1,60,1,0
139571,-500,4,2,1,60,0,0
139948,294.117647058824,4,2,1,60,1,0
139948,-100,4,2,1,60,0,0
140095,326.086956521739,4,2,1,60,1,0
140748,368.098159509202,4,2,1,60,1,0
140932,252.100840336134,4,2,1,60,1,0
141561,306.122448979592,4,2,1,60,1,0
141714,260.869565217391,4,2,1,60,1,0
142106,348.837209302326,4,2,1,60,1,0
142280,255.31914893617,4,2,1,60,1,0
142916,342.857142857143,4,2,1,60,1,0
143090,265.486725663717,4,2,1,60,1,0
143754,252.100840336134,4,2,1,60,1,0
143754,-333.333333333333,4,2,1,60,0,0
144258,266.075388026608,4,2,1,60,1,0
148512,269.058295964126,4,2,1,60,1,0
150669,264.31718061674,4,2,1,60,1,0
152786,269.058295964126,4,2,1,60,1,0
154941,266.666666666667,4,2,1,60,1,0
157070,271.493212669683,4,2,1,60,1,0
159240,267.857142857143,4,2,1,60,1,0
160845,252.100840336134,4,2,1,60,1,0
161349,280.373831775701,4,2,1,70,1,0
161349,-66.6666666666667,4,2,1,70,0,0
162468,262.008733624454,4,2,1,70,1,0
162468,-66.6666666666667,4,2,1,70,0,0
162599,-50,4,2,1,70,0,0
163516,276.497695852535,4,2,1,70,1,0
163516,-66.6666666666667,4,2,1,70,0,0
163930,-66.6666666666667,4,2,1,70,0,0
164345,262.008733624454,4,2,1,70,1,0
164345,-66.6666666666667,4,2,1,70,0,0
164563,-66.6666666666667,4,2,1,70,0,0
164738,-66.6666666666667,4,2,1,70,0,0
165130,269.058295964126,4,2,1,70,1,0
165667,263.157894736842,4,2,1,70,1,0
166718,276.497695852535,4,2,1,70,1,0
167826,265.486725663717,4,2,1,70,1,0
169950,266.666666666667,4,2,1,80,1,0
169950,-66.6666666666667,4,2,1,80,0,0
179420,263.157894736842,4,2,1,80,1,0
179420,-50,4,2,1,80,0,0
180473,275.229357798165,4,2,1,80,1,0
180473,-50,4,2,1,80,0,0
181574,265.486725663717,4,2,1,80,1,0
181574,-50,4,2,1,80,0,0
182771,270.27027027027,4,2,1,80,1,0
183851,260.869565217391,4,2,1,80,1,0
184546,-50,4,2,1,80,0,0
184893,268.456375838926,4,2,1,80,1,0
185071,-50,4,2,1,80,0,0
187039,273.972602739726,4,2,1,80,1,0
187586,-66.6666666666667,4,2,1,80,0,0
188134,-100,4,2,1,90,0,0
189504,-100,4,2,1,80,0,0
189708,-100,4,2,1,5,0,0
189778,-100,4,2,1,80,0,0
189980,-100,4,2,1,5,0,0
190052,-100,4,2,1,80,0,0
190252,-100,4,2,1,5,0,0
190323,275.229357798165,4,2,1,80,1,0
190518,-100,4,2,1,5,0,0
190586,-100,4,2,1,80,0,0
190790,-100,4,2,1,5,0,0
190857,-100,4,2,1,80,0,0
191061,-100,4,2,1,5,0,0
191129,-100,4,2,1,80,0,0
191422,260.869565217391,4,2,1,80,1,0
192465,269.058295964126,4,2,1,80,1,0
193541,262.008733624454,4,2,1,80,1,0
194591,258.620689655172,4,2,1,80,1,0
194978,-50,4,2,1,80,0,0
195627,266.075388026607,4,2,1,80,1,0
197090,-50,4,2,1,80,0,0
199219,-50,4,2,1,80,0,0
200076,263.157894736842,4,2,1,80,1,0
200076,-50,4,2,1,80,0,0
202049,269.058295964126,4,2,1,80,1,0
202990,269.662921348315,4,2,1,80,1,0
203798,-66.6666666666667,4,2,1,80,0,0
206358,264.31718061674,4,2,1,80,1,0
207767,-66.6666666666667,4,2,1,80,0,0
207943,256.959314775161,4,2,1,80,1,0
208953,377.358490566038,4,2,1,80,1,0
209079,376.175548589341,4,2,1,50,1,0
209079,-500,4,2,1,50,0,0
209141,-100,4,2,2,5,0,0
209830,-200,4,2,1,50,0,0
209831,437.956204379562,4,2,1,50,1,0
209831,-500,4,2,1,50,0,0
209903,-100,4,2,2,5,0,0
210707,681.818181818182,4,2,1,50,1,0
210707,-500,4,2,1,50,0,0
210820,-100,4,2,2,5,0,0
212072,410.958904109589,4,2,1,80,1,0
212892,231.660231660232,4,2,1,80,1,0
213124,226.415094339623,4,2,1,80,1,0
213809,247.933884297521,4,2,1,80,1,0
214057,211.267605633803,4,2,1,80,1,1
214057,-66.6666666666667,4,2,1,80,0,1
214694,192.926045016077,4,2,1,80,1,1
214694,-66.6666666666667,4,2,1,80,0,1
214887,235.294117647059,4,2,1,80,1,1
214887,-66.6666666666667,4,2,1,80,0,1
218887,-100,4,2,1,5,0,1
218945,-100,4,2,1,80,0,1
219004,-100,4,2,2,70,0,1
219063,-100,4,2,1,65,0,1
219122,-100,4,2,2,60,0,1
219181,-100,4,2,1,55,0,1
219239,-100,4,2,2,50,0,1
219298,-100,4,2,1,45,0,1
219357,-100,4,2,2,40,0,1
219416,-100,4,2,1,35,0,1
219475,-100,4,2,2,30,0,1
219534,-100,4,2,1,25,0,1
219592,-100,4,2,2,20,0,1
219651,-100,4,2,1,15,0,1
219710,-100,4,2,2,10,0,1
219769,-100,4,2,1,5,0,1
219828,-100,4,2,1,60,0,0
219867,-100,4,2,1,5,0,0

[Colours]
Combo1 : 73,199,83
Combo2 : 253,112,96
Combo3 : 253,135,85

[HitObjects]
239,323,622,6,0,B|249:118|329:35,1,283.333333333333,6|0,3:2|0:0,0:0:0:0:
458,371,1084,5,2,0:0:0:0:
15,325,1316,1,0,0:0:0:0:
0,363,1385,1,0,0:0:0:0:
75,384,1455,1,0,0:0:0:0:
439,275,1733,5,2,0:0:0:0:
29,204,2002,1,0,0:0:0:0:
16,243,2271,1,2,0:0:0:0:
89,270,2540,1,0,0:0:0:0:
394,22,2808,5,2,1:2:0:0:
387,26,2874,1,0,3:0:0:0:
383,32,2941,1,0,3:0:0:0:
382,42,3008,1,0,3:0:0:0:
396,57,3074,1,0,3:0:0:0:
414,72,3141,1,0,3:0:0:0:
425,94,3208,1,0,3:0:0:0:
266,13,3341,5,0,3:0:0:0:
265,31,3408,1,0,3:0:0:0:
271,47,3475,1,0,3:0:0:0:
296,59,3541,1,0,3:0:0:0:
320,94,3608,1,0,3:0:0:0:
316,140,3675,1,0,3:0:0:0:
277,174,3742,1,0,3:0:0:0:
227,197,3808,1,0,3:0:0:0:
203,253,3875,1,4,3:0:0:0:
111,32,4142,6,0,B|156:140|445:165|445:165,1,340.000012969971,4|0,3:1|0:0,0:0:0:0:
473,15,4573,2,0,B|462:53|397:70,1,85.0000032424928,0|0,1:0|1:2,0:0:0:0:
68,342,4839,6,0,L|48:218,1,113.333333333333,0|6,1:0|3:2,0:0:0:0:
472,264,5113,6,0,L|495:135,1,113.333333333333,0|0,1:0|3:0,0:0:0:0:
374,377,5382,6,0,L|342:253,1,113.333333333333,2|4,1:2|3:0,0:0:0:0:
167,163,5651,6,0,L|200:40,1,113.333333333333,0|6,1:0|3:0,0:0:0:0:
71,368,5920,6,0,L|44:241,1,129.838361049422,4|4,1:2|3:0,0:0:0:0:
377,243,6191,6,0,L|411:117,1,113.333333333333,0|4,1:0|3:0,0:0:0:0:
37,141,6455,6,0,L|6:24,1,113.333333333333,4|6,1:2|3:0,0:0:0:0:
101,276,6719,5,0,1:0:0:0:
148,189,6807,2,0,L|404:133,1,226.666666666667,4|0,3:0|0:0,0:0:0:0:
492,10,7067,5,2,1:3:0:0:
428,71,7157,1,0,3:0:0:0:
448,118,7247,1,8,3:0:0:0:
492,156,7337,1,0,3:0:0:0:
506,172,7427,1,4,3:0:0:0:
485,211,7517,1,8,3:0:0:0:
508,324,7607,5,2,1:3:0:0:
423,344,7697,1,8,3:0:0:0:
385,311,7787,1,4,3:0:0:0:
358,321,7877,1,4,3:0:0:0:
295,279,7967,1,4,3:0:0:0:
223,299,8057,1,0,0:0:0:0:
257,378,8148,5,0,1:2:0:0:
257,16,8328,1,6,1:2:0:0:
23,103,8598,5,0,1:0:0:0:
96,121,8688,1,0,1:0:0:0:
110,196,8778,1,0,1:0:0:0:
61,164,8868,1,4,1:3:0:0:
107,112,8958,1,0,1:0:0:0:
182,109,9048,1,4,1:3:0:0:
257,134,9139,1,4,1:3:0:0:
331,105,9230,5,6,3:2:0:0:
97,382,9405,6,0,L|78:259,1,113.333333333333,2|4,1:2|3:0,0:0:0:0:
448,251,9668,6,0,L|474:128,1,113.333333333333,2|4,1:2|3:0,0:0:0:0:
342,378,9931,6,0,L|314:262,1,113.333333333333,0|4,1:0|3:0,0:0:0:0:
170,132,10194,6,0,L|201:-5,1,113.333333333333,2|4,1:2|3:0,0:0:0:0:
45,270,10456,6,0,L|17:146,1,113.333333333333,2|4,1:3|3:0,0:0:0:0:
311,293,10672,6,0,L|372:11,1,283.333333333333,4|0,3:1|0:0,0:0:0:0:
363,6,10975,6,0,L|384:122,1,113.333333333333,0|4,1:0|3:0,0:0:0:0:
489,170,11148,1,0,1:0:0:0:
476,159,11235,1,0,1:0:0:0:
492,151,11323,5,6,3:2:0:0:
393,370,11504,6,0,L|421:242,1,113.333333333333,0|4,1:0|3:0,0:0:0:0:
78,250,11776,6,0,L|54:140,1,113.333333333333,2|4,1:2|3:0,0:0:0:0:
169,371,12048,6,0,L|196:248,1,113.333333333333,0|4,1:0|3:0,0:0:0:0:
323,120,12320,6,0,L|299:-20,1,113.333333333333,2|12,1:2|3:0,0:0:0:0:
430,242,12593,6,0,L|463:127,1,113.333333333333,8|4,3:0|3:0,0:0:0:0:
227,366,12813,6,0,L|172:12,1,340,4|2,3:1|1:2,0:0:0:0:
148,290,13209,5,0,1:0:0:0:
176,260,13276,1,0,1:0:0:0:
213,279,13342,1,0,1:0:0:0:
235,249,13408,1,0,1:0:0:0:
271,269,13473,5,6,3:2:0:0:
29,163,13652,6,0,L|58:31,1,113.333333333333,2|4,1:2|3:0,0:0:0:0:
467,256,13921,6,0,L|438:124,1,113.333333333333,2|4,1:2|3:0,0:0:0:0:
292,368,14190,6,0,L|321:236,1,113.333333333333,0|4,1:0|3:0,0:0:0:0:
173,136,14459,6,0,L|155:47,1,56.6666666666667,2|0,1:2|0:0,0:0:0:0:
142,9,14549,1,6,3:0:0:0:
266,210,14694,6,0,L|300:68,1,141.666666666667,8|4,3:0|3:0,0:0:0:0:
56,306,14965,6,0,L|16:105,1,198.333333333333,4|0,3:1|0:0,0:0:0:0:
36,120,15235,6,0,L|56:8,1,113.333333333333,0|6,1:0|3:0,0:0:0:0:
428,176,15580,5,2,1:2:0:0:
128,265,15772,1,4,1:2:0:0:
101,193,16108,5,4,3:0:0:0:
122,184,16156,1,2,1:2:0:0:
403,257,16349,1,4,1:2:0:0:
495,227,16685,5,4,3:0:0:0:
490,243,16736,1,2,1:2:0:0:
243,363,16913,2,0,P|179:334|179:250,1,147.333326588949,4|0,1:2|0:0,0:0:0:0:
105,188,17180,6,0,L|80:28,1,147.333326588949,0|0,1:0|0:0,0:0:0:0:
277,148,17447,5,0,1:0:0:0:
241,79,17536,2,0,L|282:-9,1,73.6666632944744,0|0,1:0|0:0,0:0:0:0:
439,168,17713,5,0,1:2:0:0:
459,118,17802,2,0,L|439:35,1,56.6666666666667,4|0,3:1|0:0,0:0:0:0:
353,260,17985,5,0,1:0:0:0:
263,203,18077,2,0,L|281:129,1,56.6666666666667,12|0,3:0|0:0,0:0:0:0:
405,354,18260,5,0,1:2:0:0:
455,299,18352,2,0,L|529:279,1,56.6666666666667,12|0,3:0|0:0,0:0:0:0:
201,272,18535,5,0,1:0:0:0:
255,362,18627,2,0,L|329:382,1,56.6666666666667,12|0,3:0|0:0,0:0:0:0:
71,345,18811,5,0,1:0:0:0:
78,327,18903,2,0,L|53:236,1,56.6666666666667,4|0,3:0|0:0,0:0:0:0:
166,101,19079,5,0,1:0:0:0:
210,161,19167,2,0,L|167:207,1,56.6666666666667,4|0,3:0|0:0,0:0:0:0:
38,42,19344,5,0,1:0:0:0:
25,68,19432,2,0,L|49:132,1,56.6666666666667,4|0,3:0|0:0,0:0:0:0:
194,0,19609,5,0,1:0:0:0:
275,118,19697,2,0,L|342:133,1,56.6666666666667,4|0,3:0|0:0,0:0:0:0:
496,123,19874,5,0,1:0:0:0:
441,71,19962,2,0,L|425:5,1,56.6666666666667,6|0,3:0|0:0,0:0:0:0:
275,221,20135,5,0,1:0:0:0:
346,194,20222,2,0,L|362:120,1,56.6666666666667,4|0,3:0|0:0,0:0:0:0:
481,325,20396,5,0,1:0:0:0:
445,303,20483,2,0,L|417:213,1,56.6666666666667,4|0,3:0|0:0,0:0:0:0:
265,341,20657,5,0,1:0:0:0:
217,354,20744,2,0,L|126:298,1,56.6666666666667,4|0,3:0|0:0,0:0:0:0:
337,281,20918,5,0,1:0:0:0:
269,246,21018,2,0,L|250:191,1,56.6666666666667,4|0,3:0|0:0,0:0:0:0:
73,327,21193,5,0,1:0:0:0:
58,309,21281,2,0,L|94:230,1,56.6666666666667,4|0,3:0|0:0,0:0:0:0:
170,108,21456,5,0,1:0:0:0:
68,62,21544,2,0,L|51:-6,1,56.6666666666667,4|0,3:0|0:0,0:0:0:0:
5,162,21719,5,0,1:0:0:0:
27,177,21807,2,0,L|97:148,1,56.6666666666667,4|0,3:0|0:0,0:0:0:0:
308,28,21982,5,0,1:2:0:0:
255,131,22070,2,0,L|282:201,1,56.6666666666667,6|0,3:2|0:0,0:0:0:0:
481,169,22248,5,0,1:0:0:0:
411,225,22337,2,0,L|396:293,1,56.6666666666667,8|0,3:0|0:0,0:0:0:0:
198,306,22516,5,0,1:0:0:0:
309,325,22605,2,0,L|359:376,1,56.6666666666667,8|0,3:0|0:0,0:0:0:0:
102,341,22784,5,0,1:0:0:0:
198,288,22873,2,0,L|225:216,1,56.6666666666667,8|0,3:0|0:0,0:0:0:0:
83,93,23053,5,0,1:0:0:0:
77,109,23141,2,0,L|100:182,1,56.6666666666667,4|0,3:0|0:0,0:0:0:0:
0,243,23314,5,0,1:0:0:0:
75,265,23401,2,0,L|149:233,1,56.6666666666667,4|0,3:0|0:0,0:0:0:0:
174,124,23575,5,0,1:0:0:0:
247,88,23662,2,0,L|276:11,1,56.6666666666667,4|0,3:0|0:0,0:0:0:0:
454,122,23836,5,0,1:0:0:0:
378,149,23923,2,0,L|327:94,1,56.6666666666667,4|0,3:0|0:0,0:0:0:0:
251,190,24097,5,0,1:0:0:0:
186,258,24196,2,0,L|166:340,1,56.6666666666667,4|0,3:1|0:0,0:0:0:0:
379,362,24376,5,0,1:0:0:0:
290,325,24467,2,0,L|268:245,1,56.6666666666667,8|0,3:0|0:0,0:0:0:0:
457,262,24646,5,0,1:0:0:0:
396,172,24736,2,0,L|414:103,1,56.6666666666667,8|0,3:0|0:0,0:0:0:0:
285,133,24916,5,0,1:0:0:0:
320,40,25006,2,0,L|383:-19,1,56.6666666666667,8|0,3:0|0:0,0:0:0:0:
191,26,25186,5,0,1:0:0:0:
120,61,25282,2,0,L|57:42,1,56.6666666666667,4|0,3:0|0:0,0:0:0:0:
20,193,25455,5,4,1:0:0:0:
66,128,25542,1,0,0:0:0:0:
118,140,25629,1,0,1:0:0:0:
130,180,25716,1,4,3:0:0:0:
162,250,25803,5,8,1:2:0:0:
239,271,25890,1,8,1:2:0:0:
308,223,25977,1,0,1:0:0:0:
326,129,26064,1,8,3:0:0:0:
294,182,26151,1,12,3:0:0:0:
321,222,26238,1,4,3:0:0:0:
350,227,26326,6,0,P|447:169|435:33,1,255.000009727478,4|0,3:2|0:0,0:0:0:0:
227,44,26753,2,0,P|248:100|309:111,1,127.500004863739,4|0,3:0|0:0,0:0:0:0:
361,9,27140,6,0,P|330:152|302:377,1,340.000012969971,4|0,3:1|0:0,0:0:0:0:
0,195,27611,5,2,0:3:0:0:
83,235,27706,1,4,0:0:0:0:
115,118,27894,5,0,1:0:0:0:
200,256,28000,1,0,1:0:0:0:
40,342,28165,5,0,1:0:0:0:
134,330,28247,1,8,3:0:0:0:
490,67,28496,5,4,1:0:0:0:
462,232,28677,1,4,3:0:0:0:
410,310,29306,5,0,1:0:0:0:
361,105,29466,1,4,3:0:0:0:
287,34,30119,5,0,1:0:0:0:
227,304,30266,1,4,3:0:0:0:
6,172,30667,5,0,1:0:0:0:
76,209,30804,1,4,3:0:0:0:
53,237,31458,5,0,1:0:0:0:
238,191,31560,1,0,0:0:0:0:
155,135,32254,5,0,1:0:0:0:
335,349,32383,1,4,3:0:0:0:
507,193,32576,5,0,0:0:0:0:
497,202,32641,1,0,0:0:0:0:
471,165,32705,1,0,0:0:0:0:
494,119,32771,5,2,1:2:0:0:
147,260,32939,1,6,1:2:0:0:
225,0,33605,5,2,1:2:0:0:
436,186,33761,1,14,3:0:0:0:
205,202,34384,5,2,1:2:0:0:
296,54,34553,1,12,3:0:0:0:
18,231,34927,5,0,1:0:0:0:
0,152,35071,1,4,3:0:0:0:
28,80,35743,5,0,1:0:0:0:
151,221,35893,1,4,3:0:0:0:
250,254,36551,5,0,1:0:0:0:
353,12,36703,1,4,3:0:0:0:
493,334,37104,5,0,1:0:0:0:
380,272,37264,1,4,3:0:0:0:
297,362,37902,5,0,1:0:0:0:
221,181,38052,1,4,3:0:0:0:
111,284,38706,5,0,1:0:0:0:
204,19,38857,1,4,3:0:0:0:
446,249,39244,5,0,1:0:0:0:
355,180,39376,1,4,3:0:0:0:
436,66,40048,5,0,1:0:0:0:
278,198,40183,1,4,3:0:0:0:
58,139,40855,5,0,1:0:0:0:
337,258,40990,1,4,3:0:0:0:
43,336,41393,5,0,1:0:0:0:
133,281,41524,1,12,3:0:0:0:
146,370,42183,5,0,1:0:0:0:
241,192,42327,1,12,3:0:0:0:
116,135,42990,5,0,1:0:0:0:
304,365,43123,1,12,3:0:0:0:
475,23,43518,5,0,1:0:0:0:
447,107,43640,1,4,3:0:0:0:
370,314,44321,5,0,1:0:0:0:
486,187,44453,1,4,3:0:0:0:
319,20,45128,5,0,1:0:0:0:
438,253,45263,1,4,3:0:0:0:
46,162,45668,5,0,1:0:0:0:
109,74,45803,1,4,3:0:0:0:
108,206,46474,5,0,1:0:0:0:
42,25,46623,1,4,3:0:0:0:
226,245,47274,5,0,1:0:0:0:
0,90,47427,1,4,3:0:0:0:
106,384,47813,5,0,1:0:0:0:
189,363,47944,1,4,3:0:0:0:
472,347,48614,5,0,1:0:0:0:
304,292,48754,1,4,3:0:0:0:
125,290,49409,5,0,1:0:0:0:
367,166,49540,1,4,3:0:0:0:
123,60,49949,5,0,1:0:0:0:
47,38,50107,1,8,3:0:0:0:
375,281,50745,5,0,1:0:0:0:
481,194,50897,1,8,3:0:0:0:
82,326,51543,5,0,1:0:0:0:
317,100,51835,5,0,1:0:0:0:
340,107,51893,1,0,1:0:0:0:
348,124,51952,1,0,1:0:0:0:
345,137,52011,1,0,1:0:0:0:
290,187,52070,6,0,P|399:139|444:81,1,191.250007295609,4|0,1:0|0:0,0:0:0:0:
354,61,52340,2,0,L|334:-9,1,63.7500024318696,0|0,1:2|0:0,0:0:0:0:
206,273,52475,6,0,P|97:225|52:167,1,191.250007295609,4|0,3:2|0:0,0:0:0:0:
142,147,52745,2,0,L|162:77,1,63.7500024318696,0|0,1:2|0:0,0:0:0:0:
293,366,52880,6,0,P|402:318|447:260,1,191.250007295609,4|0,1:2|0:0,0:0:0:0:
339,178,53150,2,0,L|357:240,1,63.7500024318696,0|0,1:2|0:0,0:0:0:0:
423,383,53291,6,0,P|448:249|514:28,1,340,4|0,3:2|1:0,0:0:0:0:
269,34,53675,5,8,3:0:0:0:
285,71,53761,1,8,3:0:0:0:
214,145,53846,1,12,3:0:0:0:
208,175,53932,1,12,3:0:0:0:
281,260,54017,1,4,3:0:0:0:
291,296,54102,1,4,3:0:0:0:
192,363,54190,6,0,P|67:331|33:179,1,297.500011348725,14|0,1:3|1:0,0:0:0:0:
460,70,54597,6,0,P|471:177|313:230,1,297.500011348725,14|0,1:3|1:0,0:0:0:0:
125,10,55004,6,0,P|227:-2|273:105,1,212.500008106232,14|0,1:3|0:0,0:0:0:0:
208,154,55275,2,0,P|176:132|174:76,1,85.0000032424928,0|0,1:0|0:0,0:0:0:0:
472,203,55411,6,0,P|371:208|334:302,1,212.500008106232,14|0,1:3|0:0,0:0:0:0:
402,339,55728,5,0,1:0:0:0:
413,313,55818,1,8,3:0:0:0:
239,278,55999,5,8,3:0:0:0:
327,240,56090,1,4,3:0:0:0:
112,322,56271,5,0,3:0:0:0:
271,384,56356,1,4,3:1:0:0:
115,134,56534,5,0,1:0:0:0:
166,196,56624,1,4,3:0:0:0:
78,205,56802,5,0,1:0:0:0:
197,118,56892,2,0,L|232:21,1,85.0000032424928,4|0,3:0|0:0,0:0:0:0:
70,71,57071,5,0,1:0:0:0:
249,192,57161,2,0,L|294:367,1,170.000006484986,4|8,3:0|3:0,0:0:0:0:
214,376,57429,5,4,3:0:0:0:
208,370,57608,5,4,3:2:0:0:
341,128,57832,6,0,P|358:23|471:9,1,212.500008106232,4|0,1:2|0:0,0:0:0:0:
492,64,58100,1,0,1:0:0:0:
435,350,58235,5,0,1:0:0:0:
454,335,58302,1,0,1:0:0:0:
456,294,58369,1,0,1:0:0:0:
404,245,58436,1,0,1:0:0:0:
331,274,58503,1,4,3:1:0:0:
48,117,58682,5,0,1:0:0:0:
116,163,58772,1,4,3:0:0:0:
125,78,58951,5,0,1:0:0:0:
42,196,59040,2,0,L|72:279,1,85.0000032424928,4|0,3:0|0:0,0:0:0:0:
25,348,59219,5,0,1:0:0:0:
181,210,59309,2,0,L|228:30,1,170.000006484986,4|0,3:0|1:0,0:0:0:0:
295,0,59577,5,4,3:0:0:0:
301,13,59756,5,8,3:0:0:0:
338,363,59980,6,0,P|440:355|471:241,1,212.500008106232,4|0,3:2|0:0,0:0:0:0:
418,208,60248,1,0,1:0:0:0:
134,356,60382,5,0,1:0:0:0:
102,342,60449,1,0,1:0:0:0:
70,276,60517,1,0,1:0:0:0:
118,219,60584,1,0,1:0:0:0:
193,247,60651,1,4,3:1:0:0:
422,30,60826,5,0,1:0:0:0:
388,101,60913,1,4,3:0:0:0:
216,99,61088,5,0,1:0:0:0:
340,179,61176,1,4,3:0:0:0:
171,203,61351,5,0,1:0:0:0:
140,125,61438,1,4,3:0:0:0:
252,246,61613,5,0,1:0:0:0:
58,195,61701,1,4,3:0:0:0:
111,325,61876,5,8,3:0:0:0:
39,364,61963,1,4,3:0:0:0:
283,380,62138,6,0,B|172:123|284:32|284:32,1,340,4|0,3:2|1:0,0:0:0:0:
459,105,62489,2,0,B|397:216|307:181|307:181,1,170,2|0,0:0|0:0,0:0:0:0:
95,3,62707,5,0,1:0:0:0:
123,99,62801,1,4,3:1:0:0:
196,61,62973,5,0,1:0:0:0:
86,172,63059,1,4,3:0:0:0:
218,162,63232,5,0,1:0:0:0:
294,199,63318,1,4,3:0:0:0:
286,306,63490,5,0,1:0:0:0:
378,204,63576,1,4,3:0:0:0:
173,254,63749,5,0,1:0:0:0:
205,328,63858,1,4,3:0:0:0:
396,199,64034,5,0,1:0:0:0:
434,131,64122,1,4,3:0:0:0:
497,352,64254,6,0,B|447:89|284:100|284:100,1,340,4|0,3:2|0:0,0:0:0:0:
301,204,64563,2,0,B|281:293|202:264|202:264,1,113.333333333333,0|0,1:0|1:0,0:0:0:0:
475,38,64827,5,0,1:0:0:0:
406,4,64918,1,6,3:2:0:0:
180,250,65096,5,0,1:0:0:0:
106,210,65185,1,8,3:0:0:0:
303,129,65364,5,4,3:0:0:0:
237,94,65453,1,8,3:0:0:0:
357,330,65632,5,4,3:0:0:0:
289,296,65721,1,4,3:0:0:0:
52,312,65855,6,0,B|210:123|359:196|359:196,1,340,4|0,1:1|1:0,0:0:0:0:
462,140,66168,2,0,P|452:168|436:269,1,113.333333333333,0|4,0:0|3:0,0:0:0:0:
96,137,66435,5,4,3:0:0:0:
176,166,66525,1,8,3:0:0:0:
317,73,66703,5,4,3:0:0:0:
397,102,66793,1,4,3:0:0:0:
444,340,66946,6,0,B|286:151|137:224|137:224,1,340,4|0,1:1|0:0,0:0:0:0:
37,182,67251,2,0,P|47:210|63:311,1,113.333333333333,0|8,1:0|3:0,0:0:0:0:
455,203,67514,5,0,1:0:0:0:
376,230,67601,1,4,3:0:0:0:
203,137,67863,5,4,3:0:0:0:
247,366,67995,2,0,B|296:134|430:67|430:67,1,340,4|0,1:1|0:0,0:0:0:0:
496,96,68304,5,0,1:0:0:0:
470,21,68393,1,4,3:0:0:0:
346,273,68570,5,4,3:0:0:0:
399,328,68658,1,8,3:0:0:0:
422,175,68835,5,4,3:0:0:0:
364,123,68924,1,4,3:0:0:0:
154,324,69101,5,4,3:0:0:0:
217,371,69198,2,0,L|256:264,1,113.333333333333,4|0,1:2|0:0,0:0:0:0:
81,363,69469,2,0,L|27:169,1,170.000006484986,12|0,3:0|0:0,0:0:0:0:
405,319,69741,2,0,L|498:98,1,226.666666666667,12|0,3:0|1:0,0:0:0:0:
277,383,70013,2,0,L|229:4,1,354.166666666667,12|0,3:0|0:0,0:0:0:0:
257,0,70285,5,8,1:2:0:0:
210,62,70376,1,8,3:0:0:0:
297,73,70467,1,8,3:0:0:0:
244,136,70557,1,4,3:0:0:0:
62,190,70739,5,12,3:0:0:0:
42,200,70829,1,4,3:0:0:0:
512,371,71101,5,2,1:2:0:0:
7,372,71645,6,0,P|83:371|231:315,1,191.250007295609,2|0,0:2|0:0,1:0:0:0:
351,370,71917,6,0,P|309:347|167:318,1,191.250007295609,2|0,0:2|0:0,1:0:0:0:
306,374,72189,6,0,P|398:349|529:338,1,191.250007295609,2|0,0:2|0:0,1:0:0:0:
235,319,72456,6,0,P|145:351|53:378,1,191.250007295609,2|0,0:2|0:0,1:0:0:0:
12,314,72727,6,0,P|104:338|193:373,1,191.250007295609,2|0,0:2|0:0,1:0:0:0:
358,326,72998,2,0,P|263:362|155:384,1,191.250007295609,2|0,0:2|0:0,1:0:0:0:
197,332,73270,6,0,P|323:350|448:378,1,255.000009727478,2|6,0:2|0:0,1:0:0:0:
0,163,73804,5,4,1:3:0:0:
512,169,74068,1,4,1:3:0:0:
0,187,74332,1,4,1:3:0:0:
97,353,74595,5,4,3:1:0:0:
86,347,75123,1,4,3:1:0:0:
236,77,75655,5,6,3:2:0:0:
76,168,75828,6,0,L|52:279,1,113.333333333333,0|4,1:0|3:0,0:0:0:0:
355,115,76089,6,0,L|369:177,1,56.6666666666667,0|0,1:0|0:0,0:0:0:0:
386,242,76176,1,4,3:0:0:0:
234,13,76350,6,0,L|210:124,1,113.333333333333,0|4,1:0|3:0,0:0:0:0:
8,214,76611,6,0,L|31:294,1,56.6666666666667,0|0,1:0|0:0,0:0:0:0:
45,343,76699,1,4,3:0:0:0:
211,87,76875,6,0,L|185:198,1,113.333333333333,8|4,3:0|3:0,0:0:0:0:
71,23,77097,6,0,L|140:361,1,340,4|0,3:1|0:0,0:0:0:0:
238,344,77406,5,0,1:0:0:0:
245,330,77495,1,2,3:0:0:0:
391,231,77672,5,4,1:2:0:0:
499,281,77760,1,4,3:0:0:0:
383,23,77939,6,0,L|408:152,1,113.333333333333,0|4,1:0|3:0,0:0:0:0:
90,158,78207,6,0,L|74:233,1,56.6666666666667,0|0,1:0|0:0,0:0:0:0:
63,285,78296,1,4,3:0:0:0:
202,48,78475,6,0,L|228:181,1,113.333333333333,0|4,1:0|3:0,0:0:0:0:
488,223,78743,6,0,L|472:298,1,56.6666666666667,0|0,1:0|0:0,0:0:0:0:
460,348,78832,1,4,3:0:0:0:
367,137,79011,6,0,L|397:266,1,113.333333333333,8|4,3:0|3:0,0:0:0:0:
273,10,79234,6,0,L|210:370,1,340,4|0,3:1|1:0,0:0:0:0:
15,31,79769,5,0,1:0:0:0:
143,83,79899,1,4,3:2:0:0:
367,53,80079,6,0,L|397:178,1,113.333333333333,0|4,1:0|3:0,0:0:0:0:
186,239,80349,6,0,L|170:306,1,56.6666666666667,0|0,1:0|0:0,0:0:0:0:
155,366,80439,1,4,3:0:0:0:
46,141,80619,6,0,L|76:266,1,113.333333333333,0|4,1:0|3:0,0:0:0:0:
255,21,80889,6,0,L|239:88,1,56.6666666666667,0|0,1:0|0:0,0:0:0:0:
226,150,80980,1,4,3:0:0:0:
415,145,81153,6,0,L|444:270,1,113.333333333333,0|8,1:0|3:0,0:0:0:0:
299,5,81371,6,0,L|230:367,1,340,4|0,3:1|0:0,0:0:0:0:
306,220,81762,5,0,3:0:0:0:
288,187,81827,1,0,3:0:0:0:
261,212,81893,1,0,3:0:0:0:
248,178,81958,1,0,3:0:0:0:
215,202,82022,5,0,1:0:0:0:
3,51,82219,1,4,1:2:0:0:
36,77,82465,5,0,3:0:0:0:
51,37,82539,1,0,3:0:0:0:
82,62,82612,5,0,1:0:0:0:
3,322,82796,1,4,1:2:0:0:
37,297,83026,5,0,3:0:0:0:
50,339,83095,1,0,3:0:0:0:
83,311,83165,5,0,1:0:0:0:
269,179,83332,1,4,1:2:0:0:
188,219,83416,1,8,3:0:0:0:
187,291,83499,1,2,0:0:0:0:
226,316,83583,1,0,1:0:0:0:
242,306,83668,5,4,3:0:0:0:
23,172,83852,5,12,3:0:0:0:
236,86,84036,5,8,3:0:0:0:
386,343,84220,5,4,1:0:0:0:
83,12,84401,5,2,3:2:0:0:
400,183,84580,5,2,3:2:0:0:
59,351,84760,5,2,3:2:0:0:
359,29,84939,5,2,3:2:0:0:
108,254,85118,5,2,3:2:0:0:
465,316,85300,5,2,3:2:0:0:
185,39,85473,5,2,3:2:0:0:
487,135,85647,5,2,3:2:0:0:
233,360,85821,5,2,3:2:0:0:
338,278,85908,2,0,P|283:251|233:236,1,85.0000032424928
22,54,86082,6,0,L|5:-2,2,56.6666666666667,6|0|0,3:0|0:0|1:0,0:0:0:0:
125,99,86345,5,14,3:0:0:0:
76,121,86434,1,0,0:0:0:0:
74,151,86523,1,0,1:0:0:0:
121,179,86612,1,0,3:0:0:0:
194,148,86702,1,0,0:0:0:0:
215,71,86791,1,0,1:0:0:0:
151,35,86880,5,6,3:0:0:0:
158,42,86970,1,0,0:0:0:0:
160,50,87059,1,0,1:0:0:0:
203,86,87148,5,0,0:0:0:0:
284,66,87237,1,0,0:0:0:0:
333,130,87327,1,0,0:0:0:0:
316,177,87416,1,6,3:0:0:0:
344,226,87505,1,0,0:0:0:0:
375,226,87595,1,0,1:0:0:0:
417,188,87684,1,6,3:0:0:0:
380,121,87773,1,0,0:0:0:0:
397,45,87862,1,0,1:0:0:0:
474,15,87952,5,6,3:0:0:0:
207,195,88130,2,0,P|176:172|187:122,2,85.0000032424928,4|0|0,1:0|0:0|0:0,0:0:0:0:
393,381,88398,5,0,1:0:0:0:
442,311,88488,1,0,3:0:0:0:
213,315,88670,5,2,1:3:0:0:
227,319,88761,1,6,3:2:0:0:
489,129,88944,5,2,1:2:0:0:
6,187,89123,5,2,3:2:0:0:
403,333,89297,5,2,3:2:0:0:
54,358,89471,6,0,P|26:305|-8:256,1,113.333333333333,4|0,3:2|0:0,0:0:0:0:
154,329,89692,2,0,P|192:345|227:370,1,85,2|0,3:2|0:0,0:0:0:0:
141,225,89871,2,0,P|163:158|180:125,1,85.0000032424928,2|0,0:2|0:0,0:0:0:0:
244,72,90005,5,0,1:0:0:0:
254,94,90094,1,4,3:0:0:0:
472,33,90272,5,2,1:2:0:0:
448,104,90362,1,4,3:0:0:0:
321,151,90541,5,0,1:0:0:0:
454,233,90632,2,0,L|515:188,1,56.6666666666667,4|0,3:0|0:0,0:0:0:0:
313,308,90815,2,0,L|298:362,1,56.6666666666667,0|4,1:0|3:0,0:0:0:0:
32,237,91044,5,0,1:0:0:0:
91,175,91136,2,0,L|76:112,1,56.6666666666667,4|0,3:0|0:0,0:0:0:0:
81,323,91320,2,0,L|208:171,1,170,2|4,1:2|3:0,0:0:0:0:
402,81,91541,6,0,L|360:4,1,85,2|0,1:2|0:0,0:0:0:0:
307,79,91711,5,4,3:0:0:0:
318,60,91800,1,0,1:0:0:0:
370,62,91890,1,4,3:0:0:0:
408,131,91980,1,12,3:0:0:0:
383,204,92069,1,8,3:0:0:0:
435,263,92159,6,0,B|461:166|534:161|534:161,1,127.500004863739,4|0,1:0|0:0,0:0:0:0:
216,188,92383,6,0,B|171:63|83:62|83:62,1,170.000006484986,2|0,1:2|0:0,0:0:0:0:
329,301,92652,6,0,B|350:238|404:235|404:235,1,85.0000032424928,2|0,1:2|0:0,0:0:0:0:
260,367,92877,5,4,0:3:0:0:
256,342,92966,1,4,0:3:0:0:
171,354,93055,5,6,3:2:0:0:
165,332,93145,1,0,3:0:0:0:
203,308,93234,1,0,3:0:0:0:
259,255,93323,1,2,1:2:0:0:
234,192,93413,1,0,3:3:0:0:
160,158,93502,1,0,3:3:0:0:
112,209,93591,1,2,1:2:0:0:
84,208,93680,1,0,3:3:0:0:
53,192,93770,1,0,3:3:0:0:
59,134,93859,1,2,1:2:0:0:
32,65,93948,1,0,3:3:0:0:
77,5,94038,1,0,3:3:0:0:
115,36,94127,1,2,1:2:0:0:
188,64,94216,1,0,3:3:0:0:
240,16,94305,1,0,3:3:0:0:
316,31,94395,1,2,1:2:0:0:
345,89,94484,1,0,3:3:0:0:
386,121,94573,1,0,3:3:0:0:
415,113,94663,6,0,P|427:75|456:27,2,85.0000032424928,2|0|0,1:2|3:0|3:3,0:0:0:0:
506,346,94930,5,6,0:2:0:0:
501,337,94997,1,0,3:0:0:0:
493,332,95064,1,0,3:0:0:0:
501,327,95131,1,0,3:0:0:0:
489,327,95198,1,0,3:0:0:0:
492,317,95265,1,0,3:0:0:0:
482,325,95332,1,0,3:0:0:0:
491,310,95399,1,4,3:0:0:0:
320,363,95533,5,0,3:2:0:0:
312,358,95600,1,0,3:0:0:0:
320,342,95667,1,0,3:0:0:0:
298,338,95734,1,0,3:0:0:0:
318,316,95801,1,0,3:0:0:0:
281,314,95868,1,0,3:0:0:0:
294,283,95935,1,0,3:0:0:0:
274,277,96002,1,4,1:1:0:0:
291,247,96068,1,0,3:0:0:0:
249,245,96134,1,0,3:0:0:0:
265,211,96200,1,0,3:0:0:0:
217,223,96266,1,0,3:0:0:0:
235,173,96332,1,0,3:0:0:0:
194,184,96398,1,0,3:0:0:0:
201,144,96464,1,0,3:0:0:0:
167,160,96530,1,0,3:0:0:0:
172,130,96596,1,0,3:0:0:0:
146,144,96662,1,0,3:0:0:0:
154,122,96728,1,0,3:0:0:0:
137,126,96794,1,4,3:0:0:0:
369,12,96927,5,4,3:0:0:0:
414,179,97199,5,4,3:2:0:0:
361,122,97293,1,2,1:2:0:0:
512,156,97483,5,0,1:0:0:0:
428,282,97578,1,4,3:0:0:0:
212,166,97720,5,4,3:0:0:0:
238,154,97815,1,4,3:0:0:0:
289,178,97910,1,0,1:0:0:0:
308,254,98004,1,0,1:0:0:0:
239,297,98099,1,8,3:0:0:0:
40,42,98276,5,0,1:0:0:0:
152,100,98365,1,4,3:2:0:0:
41,257,98543,5,0,1:0:0:0:
15,183,98632,1,8,3:0:0:0:
172,274,98765,2,0,L|203:191,1,85,4|0,1:0|0:0,0:0:0:0:
59,368,98987,5,4,3:0:0:0:
48,346,99076,1,4,3:0:0:0:
136,369,99167,5,4,1:2:0:0:
186,379,99257,1,4,3:0:0:0:
257,345,99347,1,4,3:0:0:0:
344,365,99438,1,0,1:0:0:0:
301,353,99528,1,8,3:0:0:0:
278,335,99619,1,8,3:0:0:0:
372,270,99709,5,4,1:2:0:0:
344,222,99799,1,4,3:0:0:0:
329,145,99889,1,4,3:0:0:0:
370,69,99980,1,0,1:0:0:0:
348,106,100070,1,8,3:0:0:0:
321,123,100161,1,8,3:0:0:0:
247,81,100252,5,4,1:2:0:0:
188,42,100342,1,4,3:0:0:0:
109,72,100432,1,4,3:0:0:0:
34,68,100523,1,0,1:0:0:0:
86,62,100613,1,8,3:0:0:0:
134,118,100704,1,8,3:0:0:0:
207,172,100795,5,4,1:2:0:0:
111,313,100976,5,0,1:0:0:0:
182,272,101066,1,2,1:2:0:0:
40,258,101252,5,8,3:0:0:0:
246,340,101346,2,0,L|280:353,1,36.4005494464026,4|0,3:1|0:0,0:0:0:0:
237,101,104756,5,2,0:3:0:0:
259,193,104846,1,4,0:0:0:0:
422,151,105117,5,2,3:0:0:0:
277,368,105300,5,8,3:0:0:0:
296,380,105385,1,4,3:0:0:0:
512,247,105555,1,4,0:0:0:0:
453,311,105640,5,4,3:1:0:0:
331,234,105911,1,2,0:0:0:0:
279,40,106182,1,8,0:2:0:0:
122,185,106483,1,0,0:0:0:0:
158,104,106634,5,4,3:0:0:0:
325,229,106986,1,12,3:0:0:0:
156,95,107294,5,8,0:2:0:0:
94,290,107426,5,2,0:0:0:0:
36,228,107515,1,2,0:3:0:0:
154,86,107692,5,10,0:0:0:0:
291,256,107949,5,2,3:2:0:0:
312,180,108078,1,4,3:0:0:0:
349,366,108335,5,8,1:2:0:0:
362,368,108400,1,0,1:2:0:0:
379,347,108464,1,0,1:2:0:0:
421,334,108528,1,0,1:2:0:0:
450,290,108593,1,0,1:2:0:0:
437,235,108657,1,0,1:2:0:0:
462,179,108722,5,2,3:0:0:0:
257,14,109968,5,4,3:1:0:0:
49,163,110143,5,0,1:0:0:0:
101,80,110231,1,8,3:0:0:0:
159,294,110407,5,0,1:0:0:0:
137,203,110495,1,8,3:0:0:0:
335,287,110671,5,0,1:0:0:0:
247,229,110759,1,8,3:0:0:0:
512,181,110935,5,0,1:0:0:0:
473,271,111022,1,4,3:0:0:0:
342,90,111198,5,0,1:0:0:0:
396,179,111286,1,4,3:0:0:0:
494,24,111462,5,0,1:0:0:0:
441,104,111550,1,4,3:0:0:0:
284,152,111726,5,0,1:0:0:0:
228,61,111814,1,4,3:0:0:0:
77,31,111989,5,0,1:0:0:0:
47,112,112076,1,6,3:0:0:0:
172,195,112253,5,0,1:0:0:0:
81,230,112341,1,4,3:0:0:0:
213,372,112474,5,0,1:0:0:0:
120,334,112606,1,4,3:0:0:0:
236,179,112783,5,0,1:0:0:0:
276,272,112872,1,4,3:0:0:0:
394,326,113049,5,0,1:0:0:0:
427,219,113137,1,4,3:0:0:0:
348,68,113311,5,0,1:0:0:0:
441,39,113399,1,4,3:0:0:0:
383,170,113573,5,0,1:0:0:0:
476,199,113661,1,4,3:0:0:0:
227,130,113835,5,0,1:0:0:0:
320,101,113923,1,4,3:0:0:0:
191,252,114097,5,0,1:2:0:0:
136,166,114209,1,4,3:2:0:0:
69,348,114382,5,0,1:0:0:0:
51,256,114469,1,8,3:0:0:0:
220,291,114643,5,0,1:0:0:0:
252,193,114730,1,8,3:0:0:0:
362,341,114904,5,0,1:0:0:0:
428,270,114991,1,8,3:0:0:0:
266,295,115165,5,0,1:0:0:0:
270,188,115280,1,4,3:0:0:0:
71,72,115454,5,0,1:0:0:0:
121,182,115542,1,4,3:0:0:0:
48,246,115716,5,0,1:0:0:0:
136,155,115804,1,4,3:0:0:0:
216,168,115978,5,0,1:0:0:0:
103,154,116066,1,4,3:0:0:0:
361,52,116240,5,0,1:2:0:0:
443,129,116340,1,4,3:1:0:0:
327,266,116515,5,0,1:0:0:0:
304,159,116602,1,8,3:0:0:0:
101,51,116777,5,0,1:0:0:0:
186,123,116865,1,8,3:0:0:0:
60,264,117040,5,0,1:0:0:0:
39,158,117127,1,8,3:0:0:0:
315,13,117302,5,0,1:0:0:0:
289,91,117424,1,4,3:0:0:0:
426,181,117597,5,0,1:0:0:0:
358,228,117684,1,8,3:0:0:0:
307,194,117771,1,8,3:0:0:0:
357,208,117858,1,8,3:0:0:0:
380,279,117945,5,8,3:0:0:0:
319,341,118032,1,12,3:0:0:0:
262,295,118119,1,12,3:0:0:0:
204,284,118206,1,4,3:0:0:0:
181,324,118293,1,4,3:0:0:0:
156,338,118380,1,8,3:0:0:0:
84,303,118467,5,4,1:2:0:0:
322,17,118784,5,0,1:0:0:0:
317,36,118875,1,4,3:2:0:0:
463,366,119191,5,0,1:0:0:0:
449,357,119282,1,4,3:1:0:0:
476,329,119734,5,2,0:0:0:0:
430,259,119825,1,4,0:0:0:0:
325,292,120006,5,0,1:0:0:0:
414,166,120096,1,0,1:0:0:0:
258,114,120277,5,0,1:0:0:0:
286,198,120368,1,8,3:0:0:0:
103,254,120639,6,0,L|149:206,1,42.5,4|0,1:0|0:0,0:0:0:0:
47,84,120780,2,0,L|41:141,1,42.5,4|0,3:0|0:0,0:0:0:0:
34,142,121432,6,0,L|69:180,1,42.5,0|0,1:0|0:0,0:0:0:0:
246,248,121583,2,0,L|231:187,1,42.5,4|0,3:0|0:0,0:0:0:0:
256,192,122229,6,0,L|217:156,1,42.5,0|0,1:0|0:0,0:0:0:0:
113,304,122376,2,0,L|120:345,1,42.5,4|0,3:0|0:0,0:0:0:0:
416,349,122586,5,2,3:0:0:0:
402,345,122656,1,2,3:0:0:0:
392,326,122726,1,2,3:0:0:0:
417,282,122797,6,0,L|435:233,1,42.5,0|0,1:0|0:0,0:0:0:0:
311,77,122959,2,0,L|296:28,1,42.5,4|0,3:0|0:0,0:0:0:0:
405,48,123599,6,0,L|425:-12,1,42.5,0|0,1:0|0:0,0:0:0:0:
301,192,123752,2,0,L|286:126,1,42.5,4|0,3:0|0:0,0:0:0:0:
392,240,124402,6,0,L|410:178,1,42.5,0|0,1:0|0:0,0:0:0:0:
279,315,124555,2,0,L|254:264,1,42.5,4|0,3:0|0:0,0:0:0:0:
64,114,124749,5,2,3:0:0:0:
66,129,124814,1,2,3:0:0:0:
83,153,124879,1,2,3:0:0:0:
137,159,124944,6,0,L|145:118,1,42.5,2|0,1:2|0:0,0:0:0:0:
319,62,125102,2,0,L|269:107,1,42.5,2|0,1:3|0:0,0:0:0:0:
293,112,125756,6,0,L|223:107,1,42.5,2|0,1:2|0:0,0:0:0:0:
70,7,125912,2,0,L|131:45,1,42.5,2|0,1:3|0:0,0:0:0:0:
123,33,126555,6,0,L|139:89,1,42.5,2|0,1:2|0:0,0:0:0:0:
12,263,126684,2,0,L|35:212,1,42.5,2|0,1:3|0:0,0:0:0:0:
247,356,127072,6,0,L|288:344,1,42.5,4|0,3:1|0:0,0:0:0:0:
115,344,127245,2,0,L|50:376,1,42.5,4|0,3:0|0:0,0:0:0:0:
414,192,127894,6,0,L|366:247,1,42.5,0|0,1:0|0:0,0:0:0:0:
240,303,128061,2,0,L|211:356,1,42.5,4|0,3:0|0:0,0:0:0:0:
381,37,128712,6,0,L|379:91,1,42.5,0|0,1:0|0:0,0:0:0:0:
316,289,128862,2,0,L|336:350,1,42.5,4|0,3:0|0:0,0:0:0:0:
98,134,129253,6,0,L|40:107,1,42.5,0|0,1:0|0:0,0:0:0:0:
129,27,129410,2,0,L|167:90,1,42.5,4|0,3:0|0:0,0:0:0:0:
133,270,130050,6,0,L|76:285,1,42.5,0|0,1:0|0:0,0:0:0:0:
103,140,130227,2,0,L|157:162,1,42.5,4|0,3:0|0:0,0:0:0:0:
321,347,130866,6,0,L|298:391,1,42.5,0|0,1:0|0:0,0:0:0:0:
148,257,131012,2,0,P|167:255|192:240,1,42.5,4|0,3:0|0:0,0:0:0:0:
198,249,131390,6,0,L|186:289,1,42.5,0|0,1:0|0:0,0:0:0:0:
338,181,131531,2,0,L|352:230,1,42.5,4|0,3:0|0:0,0:0:0:0:
364,238,132203,6,0,L|357:287,1,42.5,0|0,1:0|0:0,0:0:0:0:
178,116,132341,2,0,L|195:172,1,42.5,4|0,3:0|0:0,0:0:0:0:
209,161,133001,6,0,L|190:210,1,42.5,0|0,1:0|0:0,0:0:0:0:
390,16,133134,2,0,L|409:70,1,42.5,4|0,3:0|0:0,0:0:0:0:
39,372,133540,6,0,L|-27:343,1,42.5,0|0,1:0|0:0,0:0:0:0:
88,236,133699,2,0,L|64:179,1,42.5,8|0,3:0|0:0,0:0:0:0:
142,346,134354,6,0,L|144:292,1,42.5,0|0,1:0|0:0,0:0:0:0:
49,179,134485,2,0,L|81:144,1,42.5,8|0,3:0|0:0,0:0:0:0:
241,358,135139,6,0,L|264:316,1,42.5,0|0,1:0|0:0,0:0:0:0:
166,124,135298,2,0,L|217:106,1,42.5,8|0,3:0|0:0,0:0:0:0:
11,118,135680,6,0,L|-6:181,1,42.5,0|0,1:0|0:0,0:0:0:0:
54,14,135812,2,0,L|70:71,1,42.5,4|0,3:0|0:0,0:0:0:0:
102,253,136477,6,0,L|50:300,1,42.5,0|0,1:0|0:0,0:0:0:0:
134,97,136635,2,0,L|116:157,1,42.5,4|0,3:0|0:0,0:0:0:0:
113,357,137289,6,0,L|57:372,1,42.5,0|0,1:0|0:0,0:0:0:0:
269,217,137455,2,0,L|212:207,1,42.5,4|0,3:0|0:0,0:0:0:0:
479,75,137841,6,0,L|503:16,1,42.5,0|0,1:0|0:0,0:0:0:0:
402,146,137970,2,0,L|431:193,1,42.5,4|0,3:0|0:0,0:0:0:0:
400,136,138615,6,0,L|354:105,1,42.5,0|0,1:0|0:0,0:0:0:0:
453,289,138792,2,0,L|514:266,1,42.5,4|0,3:0|0:0,0:0:0:0:
431,289,139395,6,0,L|380:330,1,42.5,0|0,1:0|0:0,0:0:0:0:
166,338,139571,2,0,P|185:346|201:361,1,42.5,4|0,3:0|0:0,0:0:0:0:
220,353,139948,6,0,L|208:303,1,42.5,0|0,1:0|0:0,0:0:0:0:
329,258,140095,2,0,L|344:210,1,42.5,4|0,3:0|0:0,0:0:0:0:
324,329,140748,6,0,L|310:276,1,42.5,0|0,1:0|0:0,0:0:0:0:
144,205,140932,2,0,L|162:150,1,42.5,4|0,3:0|0:0,0:0:0:0:
186,273,141561,6,0,L|169:220,1,42.5,0|0,1:0|0:0,0:0:0:0:
373,105,141714,2,0,L|388:53,1,42.5,4|0,3:0|0:0,0:0:0:0:
234,4,142106,6,0,L|235:63,1,42.5,0|0,1:0|0:0,0:0:0:0:
209,17,142280,2,0,L|215:65,1,42.5,8|0,3:0|0:0,0:0:0:0:
379,84,142916,6,0,L|379:139,1,42.5,0|0,1:0|0:0,0:0:0:0:
476,133,143090,2,0,L|467:184,1,42.5,8|0,3:0|0:0,0:0:0:0:
105,163,143754,6,0,P|114:177|119:193,1,33.9999989624024,0|0,1:0|0:0,0:0:0:0:
0,367,144006,5,2,3:0:0:0:
57,327,144090,1,2,3:0:0:0:
72,248,144174,1,2,3:0:0:0:
150,194,144258,5,4,1:0:0:0:
370,330,144701,5,0,0:0:0:0:
401,254,144790,2,0,L|368:167,1,85,2|0,0:0|0:0,0:0:0:0:
123,72,145056,5,2,1:2:0:0:
252,186,145189,1,4,3:0:0:0:
89,222,145322,6,0,L|209:262,1,127.5,2|0,0:0|0:0,0:0:0:0:
23,92,145588,5,0,0:0:0:0:
36,124,145721,1,2,0:0:0:0:
181,107,145854,5,0,1:0:0:0:
130,260,145987,1,4,3:0:0:0:
291,198,146120,6,0,L|206:305,1,127.5,2|0,0:0|0:0,0:0:0:0:
266,369,146386,5,2,1:2:0:0:
445,338,146519,1,4,3:0:0:0:
343,307,146652,6,0,L|371:225,1,85,2|0,0:0|0:0,0:0:0:0:
155,66,146918,2,0,L|186:172,1,85
308,61,147184,5,2,1:2:0:0:
254,209,147317,1,0,0:0:0:0:
385,126,147450,6,0,L|444:101,1,42.5
509,208,147583,2,0,L|447:207,1,42.5
467,62,147716,2,0,L|516:99,1,42.5
385,196,147850,2,0,L|399:137,1,42.5
512,139,147983,6,0,L|459:162,1,42.5,0|0,1:2|0:0,0:0:0:0:
331,252,148116,2,0,L|268:230,1,42.5,4|0,3:0|0:0,0:0:0:0:
227,195,148249,2,0,L|175:235,1,42.5
2,67,148512,5,0,1:0:0:0:
67,216,148646,1,4,3:0:0:0:
146,5,149050,6,0,L|126:102,1,85,2|0,0:0|0:0,0:0:0:0:
206,125,149319,5,0,1:0:0:0:
44,181,149453,2,0,L|180:296,1,170,2|0,0:0|0:0,0:0:0:0:
286,250,149857,2,0,L|270:146,1,85
171,306,150126,5,2,1:2:0:0:
322,363,150260,1,4,3:0:0:0:
249,257,150395,6,0,L|376:223,1,127.5,2|0,0:0|0:0,0:0:0:0:
432,299,150669,5,2,1:2:0:0:
479,146,150801,1,0,0:0:0:0:
387,168,150933,6,0,L|365:81,1,85,2|0,0:0|0:0,0:0:0:0:
94,142,151197,2,0,L|172:175,1,85
80,247,151461,5,2,1:2:0:0:
45,74,151594,1,4,3:0:0:0:
163,329,151990,6,0,L|201:219,1,85,2|0,0:0|0:0,0:0:0:0:
61,191,152254,6,0,L|82:252,1,42.5,0|0,1:0|0:0,0:0:0:0:
147,268,152387,2,0,L|188:227,1,42.5
147,122,152519,2,0,L|137:180,1,42.5
52,225,152651,2,0,L|11:201,1,42.5
57,104,152783,5,4,1:2:0:0:
229,152,152920,1,4,3:0:0:0:
464,363,153324,6,0,L|371:323,1,85,2|0,0:0|0:0,0:0:0:0:
473,230,153593,5,0,1:0:0:0:
314,280,153727,1,4,3:0:0:0:
390,201,153862,6,0,L|418:111,1,85,2|0,0:0|0:0,0:0:0:0:
214,283,154131,2,0,L|138:214,1,85
107,298,154400,5,2,1:2:0:0:
170,150,154534,1,4,3:0:0:0:
67,218,154669,6,0,L|24:67,1,127.5
77,26,154941,5,2,1:2:0:0:
235,101,155074,1,4,3:0:0:0:
127,99,155207,6,0,L|186:34,1,85
319,177,155474,2,0,L|422:215,1,85,2|0,0:0|0:0,0:0:0:0:
469,257,155741,5,0,1:0:0:0:
419,103,155918,1,2,3:2:0:0:
272,365,156274,6,0,L|368:304,1,85
436,350,156541,5,0,1:0:0:0:
269,246,156674,1,2,3:2:0:0:
71,57,157070,5,0,1:0:0:0:
123,192,157205,1,4,3:0:0:0:
16,356,157612,6,0,L|109:301,1,85
44,243,157884,5,2,1:2:0:0:
204,307,158020,1,4,3:0:0:0:
141,217,158155,6,0,L|181:130,1,85,2|0,0:0|0:0,0:0:0:0:
380,132,158427,2,0,L|354:40,1,85
422,12,158698,5,2,1:2:0:0:
297,145,158834,1,4,3:0:0:0:
401,236,158970,5,2,3:0:0:0:
410,241,159038,1,2,3:0:0:0:
430,227,159106,1,2,3:0:0:0:
447,184,159174,1,2,3:0:0:0:
491,146,159240,6,0,P|504:108|528:47,1,85,4|0,3:1|0:0,0:0:0:0:
277,305,159507,6,0,P|257:257|217:200,1,85,2|0,0:0|0:0,0:0:0:0:
437,375,159775,6,0,P|461:343|509:301,1,85
230,294,160043,5,2,1:2:0:0:
168,351,160177,2,0,P|120:353|85:368,1,85,4|0,3:0|0:0,0:0:0:0:
55,224,160490,5,0,1:0:0:0:
35,267,160579,1,0,3:0:0:0:
117,136,160757,5,0,1:0:0:0:
160,201,160845,1,0,1:0:0:0:
203,80,161013,5,8,3:0:0:0:
310,60,161097,1,4,3:0:0:0:
419,231,161265,5,0,1:0:0:0:
319,199,161349,6,0,P|370:134|493:88,1,191.250007295609,4|0,0:0|0:0,0:0:0:0:
319,0,161629,2,0,L|336:61,1,63.7500024318696,0|0,1:0|0:0,0:0:0:0:
183,244,161769,6,0,P|132:179|9:133,1,191.250007295609,4|0,0:0|0:0,0:0:0:0:
183,45,162049,2,0,L|165:106,1,63.7500024318696,0|0,1:0|0:0,0:0:0:0:
302,352,162190,6,0,P|353:287|476:241,1,191.250007295609,4|0,0:0|0:0,0:0:0:0:
319,214,162468,2,0,L|306:151,1,63.7500024318696,0|0,1:0|0:0,0:0:0:0:
461,236,162599,6,0,P|300:182|133:148,1,340,4|0,0:0|0:0,0:0:0:0:
58,108,162991,5,0,1:0:0:0:
23,135,163079,1,0,1:0:0:0:
36,202,163166,1,8,3:0:0:0:
87,253,163253,1,8,3:0:0:0:
167,253,163341,1,4,3:0:0:0:
204,312,163428,1,4,3:0:0:0:
193,351,163516,6,0,P|53:326|11:191,1,297.500011348725,14|0,1:3|1:0,0:0:0:0:
362,34,163930,6,0,P|225:54|217:191,1,297.500011348725,14|0,1:3|1:0,0:0:0:0:
473,285,164345,6,0,P|421:221|340:227,1,170.000006484986,14|0,1:3|0:0,0:0:0:0:
320,339,164563,2,0,P|361:334|385:300,1,85.0000032424928,0|0,0:0|1:0,0:0:0:0:
187,167,164738,6,0,P|86:162|44:67,1,212.500008106232,14|0,1:3|0:0,0:0:0:0:
109,16,165043,5,0,1:0:0:0:
122,40,165131,1,8,3:0:0:0:
297,8,165309,5,0,1:0:0:0:
235,96,165399,1,4,3:0:0:0:
436,165,165600,5,0,3:0:0:0:
303,207,165667,1,4,1:0:0:0:
448,17,165842,6,0,L|368:114,1,113.333333333333,0|0,1:0|0:0,0:0:0:0:
446,278,166061,5,0,3:0:0:0:
466,270,166127,1,0,3:0:0:0:
473,238,166193,5,0,1:0:0:0:
314,343,166368,2,0,L|274:216,1,113.333333333333,0|0,1:0|0:0,0:0:0:0:
100,226,166631,5,0,1:0:0:0:
176,176,166718,2,0,L|214:93,1,85,4|0,3:0|0:0,0:0:0:0:
159,29,166902,5,0,1:0:0:0:
293,118,166994,2,0,L|396:83,1,85,4|0,3:0|0:0,0:0:0:0:
388,8,167178,5,4,3:0:0:0:
495,149,167270,1,0,1:0:0:0:
464,0,167455,6,0,L|425:122,1,113.333333333333,0|0,1:0|0:0,0:0:0:0:
340,230,167685,5,0,3:0:0:0:
330,219,167754,1,0,3:0:0:0:
338,194,167826,5,4,1:2:0:0:
194,357,168002,2,0,L|309:310,1,113.333333333333,0|0,1:0|0:0,0:0:0:0:
435,333,168224,5,0,3:0:0:0:
427,345,168290,1,0,3:0:0:0:
394,326,168356,5,0,1:0:0:0:
254,88,168533,2,0,L|209:252,1,170,0|0,1:0|0:0,0:0:0:0:
0,271,168887,5,0,1:0:0:0:
40,272,168954,1,0,3:0:0:0:
40,232,169020,1,0,3:0:0:0:
59,241,169087,1,0,3:0:0:0:
64,214,169153,1,4,3:0:0:0:
97,217,169219,1,4,3:0:0:0:
97,174,169286,1,4,3:0:0:0:
147,183,169352,1,4,3:0:0:0:
150,144,169418,5,4,3:2:0:0:
511,308,169950,6,0,B|444:297|439:342|439:342,1,85.0000032424928,4|0,3:1|0:0,0:0:0:0:
330,381,170127,5,0,1:0:0:0:
303,303,170216,1,4,3:0:0:0:
178,165,170394,5,0,1:0:0:0:
302,214,170483,1,4,3:0:0:0:
222,343,170661,5,0,1:0:0:0:
189,265,170750,2,0,B|65:261|39:354|39:354,1,170.000006484986,4|0,3:0|1:0,0:0:0:0:
111,372,171016,5,4,3:0:0:0:
122,380,171194,5,4,3:2:0:0:
393,232,171461,6,0,B|331:155|522:-3|522:-3,1,255.000009727478,4|0,3:2|1:0,0:0:0:0:
471,82,171816,2,0,B|484:119|406:142|406:142,1,85.0000032424928,4|0,3:0|0:0,0:0:0:0:
304,41,171950,5,0,3:0:0:0:
310,45,172016,1,0,3:0:0:0:
310,38,172083,2,0,B|387:32|395:91|395:91,1,85.0000032424928,4|0,3:1|0:0,0:0:0:0:
304,220,172261,5,0,1:0:0:0:
327,136,172350,1,4,3:0:0:0:
187,187,172527,5,0,1:0:0:0:
152,65,172616,1,4,3:0:0:0:
26,164,172794,5,0,1:0:0:0:
86,111,172883,2,0,B|134:122|146:289|146:289,1,170.000006484986,4|0,3:0|1:0,0:0:0:0:
92,341,173150,5,4,3:0:0:0:
74,348,173327,5,4,3:2:0:0:
281,77,173550,6,0,B|264:207|521:202|521:202,1,297.500011348725,4|0,3:2|1:0,0:0:0:0:
426,158,173950,2,0,B|381:151|383:246|383:246,1,85.0000032424928,4|0,3:0|0:0,0:0:0:0:
436,308,174127,5,0,1:0:0:0:
512,280,174216,1,4,3:0:0:0:
299,249,174394,5,0,1:0:0:0:
381,373,174483,1,4,3:0:0:0:
231,297,174661,5,0,1:0:0:0:
214,374,174750,1,4,3:0:0:0:
94,219,174927,5,0,1:0:0:0:
122,333,175016,1,4,3:0:0:0:
26,133,175194,5,0,1:0:0:0:
0,216,175283,2,0,B|114:251|211:105|211:105,1,255.000009727478,4|4,3:0|3:0,0:0:0:0:
385,342,175683,6,0,B|396:363|360:277|233:195,1,212.500008106232,4|0,3:2|0:0,0:0:0:0:
262,316,175994,1,0,1:0:0:0:
197,266,176083,2,0,B|152:267|139:338|139:338,1,85.0000032424928,4|0,3:0|0:0,0:0:0:0:
34,286,176261,5,0,1:0:0:0:
60,363,176350,1,4,3:1:0:0:
187,202,176527,5,0,1:0:0:0:
162,333,176616,1,8,3:0:0:0:
348,227,176794,5,0,1:0:0:0:
289,309,176883,1,8,3:0:0:0:
427,353,177061,5,0,1:0:0:0:
313,314,177150,2,0,B|219:175|261:105|261:105,1,212.500008106232,8|0,3:0|0:0,0:0:0:0:
336,92,177416,5,4,3:0:0:0:
351,98,177594,5,8,3:0:0:0:
16,122,177861,6,0,B|25:35|216:16|216:16,1,212.500008106232,4|0,3:2|0:0,0:0:0:0:
262,47,178127,5,0,1:0:0:0:
252,69,178216,1,4,3:0:0:0:
434,184,178394,5,0,1:0:0:0:
405,256,178483,1,0,1:0:0:0:
182,140,178661,5,0,1:0:0:0:
151,208,178750,1,8,3:0:0:0:
382,48,178927,5,8,3:0:0:0:
355,121,179016,1,4,3:0:0:0:
97,59,179194,5,4,3:0:0:0:
69,129,179283,1,4,3:0:0:0:
306,384,179420,6,0,B|300:88|194:41|194:41,1,340,4|0,1:0|0:0,0:0:0:0:
164,147,179727,5,0,1:0:0:0:
188,220,179814,1,8,3:0:0:0:
350,130,179990,5,4,3:0:0:0:
375,201,180077,1,8,3:0:0:0:
113,246,180253,5,4,3:0:0:0:
139,317,180340,1,4,3:0:0:0:
223,383,180473,6,0,B|220:105|394:123|394:123,1,340,4|0,1:0|0:0,0:0:0:0:
367,211,180794,5,0,1:0:0:0:
288,231,180885,1,8,3:0:0:0:
214,121,181069,5,4,3:0:0:0:
134,141,181160,1,8,3:0:0:0:
327,300,181344,5,0,0:0:0:0:
246,313,181435,1,4,3:0:0:0:
297,384,181574,6,0,B|251:41|86:223|86:223,1,340,4|0,1:0|0:0,0:0:0:0:
87,283,181883,5,0,1:0:0:0:
162,305,181972,1,8,3:0:0:0:
264,122,182149,5,0,1:0:0:0:
330,149,182237,1,8,3:0:0:0:
117,168,182414,5,4,3:0:0:0:
185,201,182503,1,4,3:0:0:0:
372,295,182680,5,2,0:3:0:0:
320,229,182771,1,4,1:2:0:0:
119,237,182951,5,0,0:0:0:0:
145,214,183041,1,4,3:0:0:0:
151,357,183221,5,0,1:0:0:0:
232,268,183311,1,4,3:0:0:0:
428,339,183491,5,0,1:0:0:0:
397,327,183581,1,4,3:0:0:0:
496,257,183761,5,0,1:0:0:0:
377,197,183851,1,4,3:0:0:0:
354,54,184024,5,0,1:0:0:0:
373,83,184111,1,4,3:0:0:0:
97,109,184285,5,8,3:0:0:0:
138,194,184372,1,4,3:0:0:0:
203,0,184546,6,0,L|232:224,1,226.666666666667,4|0,3:1|0:0,0:0:0:0:
407,344,184807,5,8,3:0:0:0:
486,303,184893,1,4,3:2:0:0:
267,338,185071,6,0,L|392:149,1,226.666666666667,0|0,1:0|0:0,0:0:0:0:
103,368,185340,5,0,1:0:0:0:
24,309,185429,1,8,3:0:0:0:
166,247,185608,5,4,3:0:0:0:
148,195,185698,1,4,3:0:0:0:
200,161,185787,1,4,3:0:0:0:
245,208,185877,1,4,3:0:0:0:
206,256,185966,1,2,0:0:0:0:
266,360,186145,5,2,0:0:0:0:
426,238,186324,5,4,3:0:0:0:
478,272,186414,1,4,3:0:0:0:
466,336,186503,1,8,3:0:0:0:
408,351,186593,1,8,3:0:0:0:
364,309,186682,1,8,3:0:0:0:
387,257,186772,1,2,0:0:0:0:
488,31,187039,5,2,3:2:0:0:
477,29,187107,1,0,3:0:0:0:
475,41,187175,1,0,3:0:0:0:
460,37,187244,1,0,3:0:0:0:
438,50,187312,1,0,3:0:0:0:
433,36,187381,1,0,3:0:0:0:
419,62,187449,1,0,3:0:0:0:
405,53,187518,1,0,3:0:0:0:
395,65,187586,6,0,L|416:139,1,63.7500024318696,4|0,3:0|3:0,3:0:0:0:
502,214,187723,6,0,L|444:250,1,63.7500024318696,4|0,3:0|3:0,3:0:0:0:
391,325,187860,6,0,L|355:272,1,63.7500024318696,4|0,3:0|3:0,3:0:0:0:
309,193,187997,6,0,L|227:221,1,63.7500024318696,4|0,3:0|3:0,3:0:0:0:
102,300,188134,5,8,3:0:0:0:
122,302,188203,1,0,1:0:0:0:
119,278,188271,5,8,3:0:0:0:
149,276,188340,1,0,1:0:0:0:
124,250,188408,5,8,3:0:0:0:
158,230,188477,1,0,1:0:0:0:
117,212,188545,5,8,3:0:0:0:
150,180,188614,1,0,1:0:0:0:
101,184,188682,5,8,3:0:0:0:
118,130,188751,1,0,1:0:0:0:
65,152,188819,5,8,3:0:0:0:
78,96,188888,1,0,1:0:0:0:
33,110,188956,5,8,3:0:0:0:
39,65,189025,1,0,1:0:0:0:
15,77,189093,5,8,3:0:0:0:
14,54,189162,1,0,1:0:0:0:
508,309,189504,6,0,P|449:335|396:369,1,127.5,2|0,0:0|0:0,1:0:0:0:
250,359,189778,6,0,P|181:345|127:322,1,127.5,2|0,0:0|0:0,1:0:0:0:
0,379,190052,6,0,P|53:364|133:314,1,127.5,2|0,0:0|0:0,1:0:0:0:
367,344,190323,6,0,P|305:369|237:380,1,127.5,2|0,0:0|0:0,1:0:0:0:
41,349,190598,6,0,P|101:359|178:382,1,127.5,2|0,0:0|0:0,1:0:0:0:
353,366,190873,6,0,P|417:368|480:378,1,127.5,2|0,0:0|0:0,1:0:0:0:
228,379,191148,6,0,P|145:359|64:334,1,170,2|6,0:0|0:0,1:0:0:0:
505,208,191682,5,4,3:0:0:0:
0,198,191943,1,4,3:0:0:0:
512,190,192204,1,4,3:0:0:0:
365,294,192465,5,4,3:1:0:0:
369,306,193003,1,4,3:1:0:0:
0,114,193541,5,6,3:2:0:0:
78,2,193715,5,0,1:0:0:0:
104,161,193803,1,6,3:0:0:0:
163,0,193977,5,0,1:0:0:0:
147,82,194065,1,6,3:0:0:0:
232,34,194240,5,0,1:0:0:0:
258,170,194327,1,6,3:0:0:0:
317,19,194501,5,0,1:0:0:0:
296,90,194589,1,6,3:0:0:0:
267,334,194763,5,8,3:0:0:0:
269,353,194849,1,4,3:0:0:0:
241,41,194978,6,0,B|98:205|171:368|171:368,1,340,6|0,3:2|0:0,0:0:0:0:
357,300,195280,2,0,B|340:254|265:238|265:238,1,113.333333333333,0|6,1:0|3:0,0:0:0:0:
503,372,195539,5,0,1:0:0:0:
485,305,195625,1,4,3:1:0:0:
399,371,195804,5,0,1:0:0:0:
439,225,195893,1,6,3:0:0:0:
306,356,196070,5,0,1:0:0:0:
286,278,196159,1,6,3:0:0:0:
207,344,196336,5,0,1:0:0:0:
244,184,196425,1,6,3:0:0:0:
117,382,196602,5,0,1:0:0:0:
92,312,196691,1,6,3:0:0:0:
233,45,196868,5,0,1:0:0:0:
236,28,196957,1,4,3:0:0:0:
271,343,197090,6,0,B|420:127|312:18|312:18,1,340,6|0,3:2|0:0,0:0:0:0:
155,84,197400,2,0,B|162:130|257:143|257:143,1,113.333333333333,0|6,1:0|3:0,0:0:0:0:
0,359,197666,5,0,1:0:0:0:
71,302,197755,1,4,3:1:0:0:
178,202,197932,5,0,1:0:0:0:
51,141,198021,1,6,3:0:0:0:
200,116,198199,5,0,1:0:0:0:
150,53,198287,1,6,3:0:0:0:
337,177,198465,5,0,1:0:0:0:
379,42,198553,1,6,3:0:0:0:
395,245,198731,5,0,1:0:0:0:
478,207,198819,1,6,3:0:0:0:
235,336,198997,5,0,1:0:0:0:
409,384,199085,1,4,3:0:0:0:
394,72,199219,6,0,B|270:313|91:236|91:236,1,340,6|2,3:2|1:2,0:0:0:0:
190,147,199529,2,0,B|163:69|96:87|96:87,1,113.333333333333
315,384,199795,5,0,1:0:0:0:
229,361,199884,1,4,3:1:0:0:
394,258,200076,5,0,1:0:0:0:
500,171,200163,1,6,3:0:0:0:
360,159,200339,5,0,1:0:0:0:
384,85,200426,1,6,3:0:0:0:
213,150,200602,5,0,1:0:0:0:
167,19,200690,1,6,3:0:0:0:
139,222,200865,5,0,1:0:0:0:
64,194,200953,1,6,3:0:0:0:
185,328,201128,5,0,1:0:0:0:
51,368,201216,1,4,3:0:0:0:
105,70,201391,6,0,B|229:311|408:234|408:234,1,340,6|0,3:2|1:0,0:0:0:0:
324,157,201698,2,0,B|351:79|418:97|418:97,1,113.333333333333,0|4,0:0|3:0,0:0:0:0:
204,20,201961,5,2,1:2:0:0:
228,96,202049,1,4,3:1:0:0:
21,331,202318,5,4,3:0:0:0:
27,314,202385,1,0,0:0:0:0:
58,304,202452,1,0,0:0:0:0:
93,271,202519,1,0,0:0:0:0:
122,270,202587,1,4,3:0:0:0:
155,231,202654,1,0,3:0:0:0:
216,245,202721,1,8,3:0:0:0:
233,286,202788,1,8,3:0:0:0:
226,326,202856,1,4,3:0:0:0:
252,342,202923,1,0,3:0:0:0:
295,334,202990,1,4,3:1:0:0:
485,284,203259,5,0,0:0:0:0:
467,295,203327,1,0,0:0:0:0:
453,277,203394,1,0,0:0:0:0:
414,269,203461,1,0,0:0:0:0:
413,230,203529,1,0,1:0:0:0:
388,185,203596,1,0,3:0:0:0:
414,141,203664,1,4,3:0:0:0:
391,91,203731,1,0,3:0:0:0:
349,90,203798,2,0,P|315:82|296:44,1,63.7500024318696,8|0,3:0|3:0,0:0:0:0:
217,146,203933,2,0,P|205:116|208:85,1,63.7500024318696,4|0,3:0|3:0,0:0:0:0:
20,266,204068,5,4,3:1:0:0:
34,281,204136,1,0,0:0:0:0:
52,279,204203,1,0,0:0:0:0:
80,283,204270,1,0,0:0:0:0:
92,269,204338,1,0,1:0:0:0:
106,258,204405,1,0,3:0:0:0:
106,223,204473,1,4,3:0:0:0:
68,188,204540,1,0,3:0:0:0:
60,134,204607,1,0,1:0:0:0:
90,101,204675,1,0,3:0:0:0:
113,97,204742,1,4,3:0:0:0:
262,12,204877,5,8,3:0:0:0:
249,36,204945,1,0,0:0:0:0:
276,61,205012,1,4,3:0:0:0:
290,72,205079,1,0,0:0:0:0:
284,102,205147,1,4,3:1:0:0:
246,116,205214,1,0,3:0:0:0:
242,145,205282,1,0,3:0:0:0:
258,184,205349,1,0,3:0:0:0:
292,201,205416,1,0,1:0:0:0:
288,240,205484,1,0,3:0:0:0:
277,259,205551,1,4,3:0:0:0:
155,383,205686,5,0,1:0:0:0:
86,347,205776,1,4,3:0:0:0:
261,355,205956,5,8,3:0:0:0:
192,237,206046,1,4,3:0:0:0:
481,40,206358,5,4,3:2:0:0:
351,234,206534,5,0,1:0:0:0:
332,193,206622,1,4,3:0:0:0:
441,224,206798,5,0,1:0:0:0:
443,133,206886,1,4,3:0:0:0:
366,327,207062,5,0,1:0:0:0:
245,255,207150,1,8,3:0:0:0:
93,46,207327,5,4,3:1:0:0:
39,103,207415,1,0,1:0:0:0:
67,170,207503,1,0,1:0:0:0:
29,207,207591,1,0,1:0:0:0:
0,184,207679,1,0,1:0:0:0:
31,161,207767,2,0,P|76:184|107:220,1,85.0000032424928,0|0,1:0|1:0,0:0:0:0:
99,350,207943,5,4,3:1:0:0:
171,326,208028,1,0,1:0:0:0:
207,257,208114,1,0,1:0:0:0:
264,277,208199,1,0,1:0:0:0:
311,330,208285,1,0,1:0:0:0:
383,307,208371,1,0,1:0:0:0:
418,227,208456,1,4,1:2:0:0:
483,0,208953,5,0,3:0:0:0:
480,10,209015,1,0,3:0:0:0:
469,9,209079,6,0,L|485:73,1,62.3333333333333,0|0,3:0|0:0,1:0:0:0:
499,106,209831,6,0,L|483:170,1,62.3333333333333,0|0,3:0|0:0,1:0:0:0:
396,235,210707,6,0,L|411:295,1,62.3333333333333,0|0,3:0|0:0,1:0:0:0:
148,361,212072,5,4,3:1:0:0:
256,192,212140,12,0,213932,0:0:0:0:
265,55,214057,6,0,L|245:15,1,42.5000016212464,6|0,3:2|0:0,0:0:0:0:
436,170,214268,6,0,L|491:153,1,42.5000016212464,2|0,3:2|0:0,0:0:0:0:
245,252,214479,6,0,L|232:309,1,42.5000016212464,2|0,3:2|0:0,0:0:0:0:
46,182,214694,6,0,L|78:141,1,42.5000016212464,2|0,3:2|0:0,0:0:0:0:
490,246,214887,6,0,L|502:299,1,42.5000016212464,2|0,3:2|0:0,0:0:0:0:
337,158,215043,6,0,L|363:66,1,85.0000032424928,2|0,3:2|0:0,0:0:0:0:
377,240,215200,5,4,1:2:0:0:
363,256,215279,1,0,3:2:0:0:
333,248,215357,1,2,3:2:0:0:
318,280,215436,1,0,3:2:0:0:
281,297,215514,1,2,3:2:0:0:
280,337,215592,1,4,3:0:0:0:
242,366,215671,1,4,3:0:0:0:
195,306,215749,1,4,3:0:0:0:
128,276,215828,1,4,3:0:0:0:
246,201,215985,5,4,3:0:0:0:
53,357,216141,5,4,3:0:0:0:
426,374,216298,5,4,3:0:0:0:
88,182,216416,5,4,1:2:0:0:
64,174,216475,1,0,3:0:0:0:
75,166,216534,1,0,3:0:0:0:
123,149,216592,1,0,3:0:0:0:
100,136,216651,1,0,3:0:0:0:
259,282,216769,5,4,3:1:0:0:
238,278,216828,1,0,1:0:0:0:
243,269,216887,1,0,3:0:0:0:
263,234,216945,1,0,3:0:0:0:
229,230,217004,1,0,3:0:0:0:
214,213,217063,1,0,3:0:0:0:
231,199,217122,1,0,3:0:0:0:
424,350,217239,5,4,3:0:0:0:
512,93,217396,5,6,1:2:0:0:
476,163,217475,1,8,3:0:0:0:
445,131,217553,1,8,3:0:0:0:
405,150,217632,1,4,1:3:0:0:
346,135,217710,1,4,3:3:0:0:
313,70,217788,1,4,3:3:0:0:
371,112,217867,5,4,1:0:0:0:
231,206,218024,5,6,3:2:0:0:
423,181,218181,5,2,3:2:0:0:
196,96,218337,5,2,1:2:0:0:
381,294,218494,5,2,1:2:0:0:
436,0,218710,5,6,1:2:0:0:
79,381,218945,1,6,1:2:0:0:
256,192,219004,12,0,219769,0:0:0:0:
69,374,219828,6,0,L|62:334,1,28.3333333333333,4|0,0:0|0:0,0:0:0:0:
