osu file format v14

[General]
AudioFilename: okami no uta.mp3
AudioLeadIn: 0
PreviewTime:552
Countdown: 0
SampleSet: Soft
StackLeniency: 1
Mode: 0
LetterboxInBreaks: 0
WidescreenStoryboard: 1

[Editor]
Bookmarks: 17802,28496,56356,75655,84222,101346,109968,120639,144258,169950,193541,212072
DistanceSpacing: 0.8
BeatDivisor: 6
GridSize: 16
TimelineZoom: 2.400001

[Metadata]
Title:Ookami no Uta
TitleUnicode:狼の詩
Artist:ATARASHII GAKKO!
ArtistUnicode:新しい学校のリーダーズ
Creator:Fisky
Version:Yudragen's Extra
Source:
Tags:yudragen laura- -tatsuo jasontime12345 Mizunashi Akari atarashii gakkou no leaders new school wakage gaitaru suzuka H ZETTRIO 阿久悠 ZETT M j-pop jpop pop jazz japanese piano victor entertainment single 2018
BeatmapID:3653847
BeatmapSetID:1562875

[Difficulty]
HPDrainRate:5.5
CircleSize:3.4
OverallDifficulty:7.5
ApproachRate:9.3
SliderMultiplier:1.7
SliderTickRate:1

[Events]
//Background and Video events
0,0,"bg okami no uta.jpg",0,0
//Break Periods
2,75855,81468
//Storyboard Layer 0 (Background)
//Storyboard Layer 1 (Fail)
//Storyboard Layer 2 (Pass)
//Storyboard Layer 3 (Foreground)
//Storyboard Layer 4 (Overlay)
//Storyboard Sound Samples

[TimingPoints]
622,277.777777777778,4,2,1,60,1,0
622,-66.6666666666667,4,2,1,60,0,0
1084,-111.111111111111,4,2,1,60,0,0
1733,269.058295964126,4,2,1,60,1,0
2808,266.903914590747,4,2,1,60,1,0
4142,-76.9230769230769,4,2,1,60,0,0
4573,266.903914590747,4,2,1,60,1,0
4573,-76.9230769230769,4,2,1,80,0,0
4928,-80,4,2,1,80,0,0
5113,269.299820466786,4,2,1,80,1,0
6016,263.736263736264,4,2,1,80,1,0
6016,-80,4,2,1,80,0,0
7067,270.27027027027,4,2,1,80,1,0
8148,-71.4285714285714,4,2,1,80,0,0
8598,-80,4,2,1,80,0,0
9230,263.157894736842,4,2,1,80,1,0
9230,-80,4,2,1,80,0,0
10283,259.74025974026,4,2,1,80,1,0
10283,-80,4,2,1,80,0,0
10715,-71.4285714285714,4,2,1,80,0,0
11323,272.108843537415,4,2,1,80,1,0
11323,-80,4,2,1,80,0,0
12417,264.31718061674,4,2,1,80,1,0
12417,-80,4,2,1,80,0,0
12769,-71.4285714285714,4,2,1,80,0,0
13473,269.058295964126,4,2,1,80,1,0
13473,-80,4,2,1,80,0,0
14549,250,4,2,1,80,1,0
14965,-71.4285714285714,4,2,1,80,0,0
15235,257.510729613734,4,2,1,80,1,0
15580,288.461538461538,4,2,1,80,1,0
15682,-80,4,2,1,80,0,0
16736,266.666666666667,4,2,1,80,1,0
17802,275.229357798165,4,2,1,80,1,0
17802,-90.9090909090909,4,2,1,80,0,0
18903,264.900662251656,4,2,1,80,1,0
18903,-90.9090909090909,4,2,1,80,0,0
19962,260.869565217392,4,2,1,80,1,0
21018,263.157894736842,4,2,1,80,1,0
21018,-90.9090909090909,4,2,1,80,0,0
22070,267.857142857143,4,2,1,80,1,0
22070,-90.9090909090909,4,2,1,80,0,0
23141,260.869565217391,4,2,1,80,1,0
23141,-90.9090909090909,4,2,1,80,0,0
24196,270.27027027027,4,2,1,80,1,0
24196,-90.9090909090909,4,2,1,80,0,0
25282,260.869565217391,4,2,1,80,1,0
25282,-90.9090909090909,4,2,1,80,0,0
26326,284.36018957346,4,2,1,80,1,0
26753,257.510729613734,4,2,1,80,1,0
27140,283.018867924528,4,2,1,80,1,0
27140,-166.666666666667,4,2,1,80,0,0
27894,317.460317460317,4,2,1,80,1,0
28000,247.933884297521,4,2,1,80,1,0
28496,361.44578313253,4,2,1,80,1,0
28677,269.058295964126,4,2,1,80,1,0
29306,240,4,2,1,80,1,0
29466,260.869565217391,4,2,1,80,1,0
30119,294.117647058824,4,2,1,80,1,0
30266,267.857142857143,4,2,1,80,1,0
30804,262.008733624454,4,2,1,80,1,0
31458,306.122448979592,4,2,1,80,1,0
31611,257.510729613734,4,2,1,80,1,0
32771,337.078651685393,4,2,1,80,1,0
32940,265.486725663717,4,2,1,80,1,0
33605,312.5,4,2,1,80,1,0
33761,248.96265560166,4,2,1,80,1,0
34384,337.078651685393,4,2,1,80,1,0
34553,248.96265560166,4,2,1,80,1,0
34927,288.461538461538,4,2,1,80,1,0
35071,269.058295964126,4,2,1,80,1,0
35744,298.507462686567,4,2,1,80,1,0
35893,263.157894736842,4,2,1,80,1,0
36551,304.568527918782,4,2,1,80,1,0
36703,267.857142857143,4,2,1,80,1,0
37105,317.460317460317,4,2,1,80,1,0
37264,255.31914893617,4,2,1,80,1,0
37902,300,4,2,1,80,1,0
38052,262.008733624454,4,2,1,80,1,0
38706,301.507537688442,4,2,1,80,1,0
38857,258.620689655172,4,2,1,80,1,0
39376,269.058295964126,4,2,1,80,1,0
41524,263.157894736842,4,2,1,80,1,0
42183,288.461538461538,4,2,1,80,1,0
42327,265.486725663717,4,2,1,80,1,0
43518,243.90243902439,4,2,1,80,1,0
43640,272.727272727273,4,2,1,80,1,0
44453,270.02700270027,4,2,1,80,1,0
46474,298.507462686567,4,2,1,80,1,0
46623,260.869565217391,4,2,1,80,1,0
47274,306.122448979592,4,2,1,80,1,0
47427,257.510729613734,4,2,1,80,1,0
47944,268.000714668572,4,2,1,80,1,0
48754,262.008733624454,4,2,1,80,1,0
49540,272.727272727273,4,2,1,80,1,0
49949,317.460317460317,4,2,1,80,1,0
50108,255.31914893617,4,2,1,80,1,0
50745,304.568527918782,4,2,1,80,1,0
50897,258.620689655172,4,2,1,80,1,0
51674,322.58064516129,4,2,1,80,1,0
51835,235.294117647059,4,2,1,80,1,0
52070,270.27027027027,4,2,1,70,1,0
52070,-86.9565217391304,4,2,1,70,0,0
53291,256.410256410256,4,2,1,70,1,0
53291,-86.9565217391304,4,2,1,70,0,0
54190,271.493212669683,4,2,1,70,1,0
54190,-80,4,2,1,70,0,0
56356,268.456375838926,4,2,1,80,1,1
56356,-74.0740740740741,4,2,1,80,0,1
60651,262.582056892779,4,2,1,80,1,1
60651,-74.0740740740741,4,2,1,80,0,1
62801,258.620689655172,4,2,1,80,1,1
62801,-74.0740740740741,4,2,1,80,0,1
63858,264.31718061674,4,2,1,80,1,1
64918,267.857142857143,4,2,1,80,1,1
64918,-74.0740740740741,4,2,1,80,0,1
65855,-66.6666666666667,4,2,1,80,0,1
66123,-74.0740740740741,4,2,1,80,0,1
66946,262.008733624454,4,2,1,80,1,1
66946,-66.6666666666667,4,2,1,80,0,1
67208,-74.0740740740741,4,2,1,80,0,1
67995,265.486725663717,4,2,1,80,1,1
67995,-74.0740740740741,4,2,1,80,0,1
69198,271.985494106981,4,2,1,80,1,1
69198,-76.9230769230769,4,2,1,80,0,1
71101,-76.9230769230769,4,2,1,80,0,0
71849,-76.9230769230769,4,2,1,5,0,0
71917,-76.9230769230769,4,2,1,80,0,0
72121,-76.9230769230769,4,2,1,5,0,0
72189,-76.9230769230769,4,2,1,80,0,0
72393,-76.9230769230769,4,2,1,5,0,0
72456,271.493212669683,4,2,1,80,1,0
72659,-100,4,2,1,5,0,0
72727,-100,4,2,1,80,0,0
72931,-100,4,2,1,5,0,0
72998,-100,4,2,1,80,0,0
73202,-100,4,2,1,5,0,0
73270,-100,4,2,1,80,0,0
73541,263.736263736264,4,2,1,80,1,0
73541,-83.3333333333333,4,2,1,80,0,0
74068,-74.0740740740741,4,2,1,80,0,0
74332,-66.6666666666667,4,2,1,80,0,0
75123,-166.666666666667,4,2,1,80,0,0
75655,260.869565217391,4,2,1,80,1,0
75655,-80,4,2,1,80,0,0
76699,265.486725663717,4,2,1,80,1,0
77761,267.857142857143,4,2,1,80,1,0
79899,270.27027027027,4,2,1,80,1,0
80980,260.869565217391,4,2,1,80,1,0
82022,295.566502463054,4,2,1,80,1,0
82612,276.497695852535,4,2,1,80,1,0
83165,251.046025104603,4,2,1,80,1,0
83668,276.497695852535,4,2,1,80,1,0
84222,269.058295964126,4,2,1,80,1,0
84222,-83.3333333333333,4,2,1,80,0,0
85300,260.869565217391,4,2,1,80,1,0
85300,-83.3333333333333,4,2,1,80,0,0
86345,267.857142857143,4,2,1,80,1,0
86345,-83.3333333333333,4,2,1,80,0,0
88488,273.972602739726,4,2,1,80,1,0
89037,260.869565217391,4,2,1,80,1,0
89514,-101.317122593718,4,2,1,80,0,0
89559,267.857142857143,4,2,1,80,1,0
89559,-83.3333333333333,4,2,1,80,0,0
90632,275.229357798165,4,2,1,80,1,0
90632,-83.3333333333333,4,2,1,80,0,0
91457,254.237288135593,4,2,1,80,1,0
91584,-83.3333333333333,4,2,1,80,0,0
91711,269.058295964126,4,2,1,80,1,0
91711,-83.3333333333333,4,2,1,80,0,0
92788,267.857142857143,4,2,1,80,1,0
92788,-83.3333333333333,4,2,1,80,0,0
96002,264.31718061674,4,2,1,80,1,0
96002,-83.3333333333333,4,2,1,80,0,0
97057,284.36018957346,4,2,1,80,1,0
97057,-83.3333333333333,4,2,1,80,0,0
98099,266.666666666667,4,2,1,80,1,0
98099,-83.3333333333333,4,2,1,80,0,0
99167,271.493212669683,4,2,1,80,1,0
99167,-83.3333333333333,4,2,1,80,0,0
101066,280.373831775701,4,2,1,80,1,0
101066,-83.3333333333333,4,2,1,80,0,0
101623,295.566502463054,4,2,1,80,1,0
101919,269.058295964126,4,2,1,80,1,0
102188,304.568527918782,4,2,1,80,1,0
102340,269.058295964126,4,2,1,60,1,0
102340,-142.857142857143,4,2,1,60,0,0
103414,242.914979757085,4,2,1,60,1,0
103414,-142.857142857143,4,2,1,60,0,0
103779,287.081339712919,4,2,1,60,1,0
103779,-142.857142857143,4,2,1,60,0,0
104210,257.510729613734,4,2,1,60,1,0
104295,-142.857142857143,4,2,1,60,0,0
104596,320.855614973262,4,2,1,60,1,0
104756,271.493212669683,4,2,1,60,1,0
105300,255.31914893617,4,2,1,60,1,0
105555,-100,4,2,1,40,0,0
105640,271.493212669683,4,2,1,40,1,0
106182,301.507537688442,4,2,1,40,1,0
106634,264.31718061674,4,2,1,40,1,0
107692,257.510729613734,4,2,1,40,1,0
108335,-100,4,2,1,40,0,0
108723,310.880829015544,4,2,1,40,1,0
109968,263.736263736264,4,2,1,80,1,0
109968,-86.9565217391304,4,2,1,80,0,0
112076,265.486725663717,4,2,1,80,1,0
112076,-86.9565217391304,4,2,1,80,0,0
113137,262.008733624455,4,2,1,80,1,0
113137,-86.9565217391304,4,2,1,80,0,0
114209,260.869565217392,4,2,1,80,1,0
114252,-86.9565217391304,4,2,1,80,0,0
115280,262.008733624454,4,2,1,80,1,0
115280,-86.9565217391304,4,2,1,80,0,0
116340,262.582056892779,4,2,1,80,1,0
116340,-86.9565217391304,4,2,1,80,0,0
117424,260.869565217391,4,2,1,80,1,0
117424,-86.9565217391304,4,2,1,80,0,0
118468,271.493212669683,4,2,1,80,1,0
119282,-142.857142857143,4,2,1,80,0,0
120006,-100,4,2,1,50,0,0
120096,-100,4,2,1,80,0,0
120639,-100,4,2,1,60,0,0
120780,260.869565217391,4,2,1,60,1,0
121432,301.507537688442,4,2,1,60,1,0
121583,258.620689655172,4,2,1,60,1,0
122229,294.117647058824,4,2,1,60,1,0
122376,280.373831775701,4,2,1,60,1,0
122797,324.324324324324,4,2,1,60,1,0
122959,256.410256410256,4,2,1,60,1,0
123599,306.122448979592,4,2,1,60,1,0
123752,259.74025974026,4,2,1,60,1,0
124402,306.122448979592,4,2,1,60,1,0
124555,259.74025974026,4,2,1,60,1,0
124944,315.789473684211,4,2,1,60,1,0
125102,262.008733624454,4,2,1,60,1,0
125364,-100,4,2,1,5,0,0
125756,312.5,4,2,1,60,1,0
125912,257.510729613734,4,2,1,60,1,0
127072,346.820809248555,4,2,1,60,1,0
127245,277.777777777778,4,2,1,60,1,0
127894,250,4,2,1,60,1,0
128061,260.869565217391,4,2,1,60,1,0
128712,300,4,2,1,60,1,0
128862,260.869565217391,4,2,1,60,1,0
129253,314.13612565445,4,2,1,60,1,0
129410,256.410256410256,4,2,1,60,1,0
130050,355.029585798817,4,2,1,60,1,0
130227,255.31914893617,4,2,1,60,1,0
130866,292.682926829268,4,2,1,60,1,0
131012,252.100840336134,4,2,1,60,1,0
131390,281.69014084507,4,2,1,60,1,0
131531,269.058295964126,4,2,1,60,1,0
132341,264.31718061674,4,2,1,60,1,0
133134,270.27027027027,4,2,1,60,1,0
133540,317.460317460317,4,2,1,60,1,0
133699,262.008733624454,4,2,1,60,1,0
135139,317.460317460317,4,2,1,60,1,0
135298,255.31914893617,4,2,1,60,1,0
135812,265.486725663717,4,2,1,60,1,0
136477,315.789473684211,4,2,1,60,1,0
136635,262.008733624454,4,2,1,60,1,0
137289,331.491712707182,4,2,1,60,1,0
137455,257.510729613734,4,2,1,60,1,0
138615,355.029585798817,4,2,1,60,1,0
138792,240.963855421687,4,2,1,60,1,0
139395,352.941176470588,4,2,1,60,1,0
139571,251.046025104603,4,2,1,60,1,0
139948,294.117647058824,4,2,1,60,1,0
140095,326.086956521739,4,2,1,60,1,0
140748,368.098159509202,4,2,1,60,1,0
140932,252.100840336134,4,2,1,60,1,0
141561,306.122448979592,4,2,1,60,1,0
141714,260.869565217391,4,2,1,60,1,0
142106,348.837209302326,4,2,1,60,1,0
142280,255.31914893617,4,2,1,60,1,0
142916,342.857142857143,4,2,1,60,1,0
143090,265.486725663717,4,2,1,60,1,0
143754,252.100840336134,4,2,1,60,1,0
144258,266.075388026608,4,2,1,60,1,0
148512,269.058295964126,4,2,1,60,1,0
150669,264.31718061674,4,2,1,60,1,0
152786,269.058295964126,4,2,1,60,1,0
154941,266.666666666667,4,2,1,60,1,0
157070,271.493212669683,4,2,1,60,1,0
159240,267.857142857143,4,2,1,60,1,0
160845,252.100840336134,4,2,1,60,1,0
161349,280.373831775701,4,2,1,70,1,0
161349,-83.3333333333333,4,2,1,70,0,0
162190,-82.6446280991736,4,2,1,70,0,0
162468,262.008733624454,4,2,1,70,1,0
163516,276.497695852535,4,2,1,70,1,0
163516,-83.3333333333333,4,2,1,70,0,0
164345,262.008733624454,4,2,1,70,1,0
165130,269.058295964126,4,2,1,70,1,0
165130,-83.3333333333333,4,2,1,70,0,0
165667,263.157894736842,4,2,1,70,1,0
166718,276.497695852535,4,2,1,70,1,0
167826,265.486725663717,4,2,1,70,1,0
169950,266.666666666667,4,2,1,80,1,1
169950,-74.0740740740741,4,2,1,80,0,1
179420,263.157894736842,4,2,1,80,1,1
179420,-74.0740740740741,4,2,1,80,0,1
180473,275.229357798165,4,2,1,80,1,1
180473,-74.0740740740741,4,2,1,80,0,1
181574,265.486725663717,4,2,1,80,1,1
181574,-74.0740740740741,4,2,1,80,0,1
182771,270.27027027027,4,2,1,80,1,1
182771,-74.0740740740741,4,2,1,80,0,1
183851,260.869565217391,4,2,1,80,1,1
183851,-74.0740740740741,4,2,1,80,0,1
184893,268.456375838926,4,2,1,80,1,1
184893,-74.0740740740741,4,2,1,80,0,1
187039,273.972602739726,4,2,1,80,1,1
187039,-74.0740740740741,4,2,1,80,0,1
188134,-74.0740740740741,4,2,1,90,0,1
189230,-74.0740740740741,4,2,1,90,0,0
189504,-74.0740740740741,4,2,1,80,0,0
189708,-74.0740740740741,4,2,1,5,0,0
189778,-100,4,2,1,80,0,0
189980,-100,4,2,1,5,0,0
190052,-100,4,2,1,80,0,0
190252,-100,4,2,1,5,0,0
190323,275.229357798165,4,2,1,80,1,0
190518,-100,4,2,1,5,0,0
190586,-100,4,2,1,80,0,0
190790,-100,4,2,1,5,0,0
190857,-100,4,2,1,80,0,0
191061,-100,4,2,1,5,0,0
191129,-100,4,2,1,80,0,0
191422,260.869565217391,4,2,1,80,1,0
191682,-83.3333333333333,4,2,1,80,0,0
191943,-74.0740740740741,4,2,1,80,0,0
192204,-66.6666666666667,4,2,1,80,0,0
192465,269.058295964126,4,2,1,80,1,0
192465,-166.666666666667,4,2,1,80,0,0
193541,262.008733624454,4,2,1,80,1,0
193541,-80,4,2,1,80,0,0
194591,258.620689655172,4,2,1,80,1,0
194591,-80,4,2,1,80,0,0
195627,266.075388026607,4,2,1,80,1,0
195627,-80,4,2,1,80,0,0
199884,-68.9655172413793,4,2,1,80,0,0
200076,263.157894736842,4,2,1,80,1,0
200076,-86.9565217391304,4,2,1,80,0,0
201391,-55.5555555555556,4,2,1,80,0,0
201786,-66.6666666666667,4,2,1,80,0,0
202049,269.058295964126,4,2,1,80,1,0
202049,-80,4,2,1,80,0,0
202990,269.662921348315,4,2,1,80,1,0
202990,-80,4,2,1,80,0,0
206358,264.31718061674,4,2,1,80,1,0
206358,-80,4,2,1,80,0,0
207943,256.959314775161,4,2,1,80,1,0
208953,377.358490566038,4,2,1,80,1,0
209079,376.175548589341,4,2,1,50,1,0
209079,-200,4,2,1,50,0,0
209141,-100,4,2,2,5,0,0
209831,437.956204379562,4,2,1,50,1,0
209831,-250,4,2,1,50,0,0
209903,-100,4,2,2,5,0,0
210707,681.818181818182,4,2,1,50,1,0
210707,-333.333333333333,4,2,1,50,0,0
210820,-100,4,2,2,5,0,0
212072,410.958904109589,4,2,1,80,1,0
212892,231.660231660232,4,2,1,80,1,0
213124,226.415094339623,4,2,1,80,1,0
213809,247.933884297521,4,2,1,80,1,0
214057,211.267605633803,4,2,1,80,1,0
214694,192.926045016077,4,2,1,80,1,0
214887,235.294117647059,4,2,1,80,1,0
218887,-100,4,2,1,80,0,0
218945,-100,4,2,1,80,0,0
219004,-100,4,2,2,70,0,0
219063,-100,4,2,1,65,0,0
219122,-100,4,2,2,60,0,0
219181,-100,4,2,1,55,0,0
219239,-100,4,2,2,50,0,0
219298,-100,4,2,1,45,0,0
219357,-100,4,2,2,40,0,0
219416,-100,4,2,1,35,0,0
219475,-100,4,2,2,30,0,0
219534,-100,4,2,1,25,0,0
219592,-100,4,2,2,20,0,0
219651,-100,4,2,1,15,0,0
219710,-100,4,2,2,10,0,0
219769,-100,4,2,1,5,0,0
219828,-100,4,2,1,60,0,0

[Colours]
Combo1 : 73,199,83
Combo2 : 253,112,96
Combo3 : 253,135,85

[HitObjects]
169,301,622,6,0,P|97:278|106:175,1,170.000006484986,6|0,3:2|0:0,0:0:0:0:
325,28,1084,6,0,P|321:97|314:145,1,101.999996887207,2|0,0:0|0:0,0:0:0:0:
408,143,1316,1,0,0:0:0:0:
408,143,1385,1,0,0:0:0:0:
408,143,1455,2,0,P|416:206|421:269,1,127.499996109009
410,278,1733,5,2,0:0:0:0:
330,242,2002,1,0,0:0:0:0:
229,40,2271,5,2,0:0:0:0:
1,114,2540,1,0,0:0:0:0:
182,359,2808,6,0,L|164:292,2,42.5,2|0|0,1:2|3:0|3:0,0:0:0:0:
259,327,3008,2,0,L|241:260,2,42.5,0|0|0,3:0|3:0|3:0,0:0:0:0:
178,228,3208,1,0,3:0:0:0:
178,228,3275,1,0,0:0:0:0:
178,228,3341,1,0,3:0:0:0:
178,228,3408,1,0,3:0:0:0:
178,228,3475,2,0,L|160:161,1,42.5,0|0,3:0|3:0,0:0:0:0:
255,187,3608,2,0,L|237:120,2,42.5,0|0|0,3:0|3:0|3:0,0:0:0:0:
330,244,3786,5,0,0:0:0:0:
338,237,3831,1,0,0:0:0:0:
350,234,3875,1,4,3:0:0:0:
350,234,4142,2,0,L|53:157,1,294.666653177898,4|0,3:1|0:0,0:0:0:0:
147,56,4573,1,0,1:0:0:0:
189,84,4661,1,0,1:2:0:0:
109,275,4839,5,0,1:0:0:0:
139,246,4928,2,0,P|199:255|227:315,1,106.25,6|0,3:2|0:0,0:0:0:0:
237,281,5113,2,0,P|287:249|285:153,1,141.666666666667,0|0,1:0|0:0,0:0:0:0:
197,0,5382,2,0,P|181:72|170:152,1,141.666666666667,2|0,1:2|0:0,0:0:0:0:
398,102,5651,1,0,1:0:0:0:
398,102,5741,2,0,P|359:47|280:58,1,141.666666666667,6|4,3:0|1:2,0:0:0:0:
275,173,6016,5,4,3:0:0:0:
428,366,6191,1,0,1:0:0:0:
428,366,6279,2,0,L|325:334,1,106.25,4|0,3:0|0:0,0:0:0:0:
314,344,6454,1,4,1:2:0:0:
230,305,6543,2,0,L|79:353,1,141.666666666667,6|0,3:0|1:0,0:0:0:0:
247,210,6807,2,0,L|281:27,1,177.083333333333,4|0,3:0|0:0,0:0:0:0:
260,44,7067,5,2,1:3:0:0:
190,7,7157,1,0,3:0:0:0:
117,31,7247,1,8,3:0:0:0:
80,100,7337,2,0,L|97:170,2,56.6666666666667,0|4|8,3:0|3:0|3:0,0:0:0:0:
177,168,7607,5,2,1:3:0:0:
221,202,7697,1,8,3:0:0:0:
212,257,7787,1,4,3:0:0:0:
162,282,7877,2,0,L|42:244,1,113.333333333333,4|0,3:0|0:0,0:0:0:0:
38,270,8103,5,0,0:0:0:0:
38,270,8148,2,0,P|-6:323|17:379,1,118.999996368408,0|0,1:2|0:0,0:0:0:0:
20,366,8328,1,6,1:2:0:0:
336,271,8598,5,0,1:0:0:0:
387,211,8688,1,0,1:0:0:0:
363,136,8778,1,0,1:0:0:0:
287,117,8868,1,4,1:3:0:0:
209,130,8958,5,0,1:0:0:0:
185,105,9048,1,4,1:3:0:0:
189,70,9139,1,4,1:3:0:0:
262,21,9229,5,6,3:2:0:0:
105,205,9405,2,0,P|95:134|88:64,1,141.666666666667,2|0,1:2|0:0,0:0:0:0:
236,122,9668,2,0,P|226:192|219:262,1,141.666666666667,2|0,1:2|0:0,0:0:0:0:
136,327,9931,2,0,P|82:344|2:372,1,141.666666666667,0|0,1:0|0:0,0:0:0:0:
53,210,10194,1,2,1:2:0:0:
95,227,10283,1,4,3:0:0:0:
197,29,10456,2,0,P|141:40|104:137,1,141.666666666667,2|0,1:3|0:0,0:0:0:0:
253,229,10715,6,0,B|320:208|320:208|338:147|338:147|414:119,1,198.333327280681,4|0,3:1|0:0,0:0:0:0:
416,133,10975,1,0,1:0:0:0:
470,201,11062,2,0,L|447:301,1,79.3333309122722,4|0,3:0|1:0,0:0:0:0:
412,309,11192,2,0,L|432:382,2,59.4999981842042,0|0|6,0:0|0:0|3:2,0:0:0:0:
139,173,11505,6,0,P|126:131|231:86,1,141.666666666667,0|0,1:0|0:0,0:0:0:0:
282,114,11776,1,2,1:2:0:0:
282,114,11867,2,0,P|294:205|309:284,1,141.666666666667,4|0,3:0|1:0,0:0:0:0:
239,329,12139,1,4,3:0:0:0:
450,378,12320,1,2,1:2:0:0:
471,326,12417,1,12,3:0:0:0:
401,199,12593,1,8,3:0:0:0:
390,161,12681,1,4,3:0:0:0:
495,31,12813,6,0,P|408:9|238:120,1,237.999992736817,4|2,3:1|1:2,0:0:0:0:
279,80,13121,1,0,0:0:0:0:
198,101,13209,2,0,P|173:91|137:56,2,59.4999981842042,0|0|0,1:0|1:0|1:0,0:0:0:0:
304,211,13473,6,0,P|235:230|187:244,1,106.25,6|0,3:2|0:0,0:0:0:0:
194,251,13652,2,0,P|105:222|36:202,1,141.666666666667,2|0,1:2|0:0,0:0:0:0:
117,378,13921,1,2,1:2:0:0:
117,378,14011,2,0,P|166:358|214:346,1,70.8333333333333,4|0,3:0|0:0,0:0:0:0:
272,315,14190,2,0,P|318:331|408:362,1,141.666666666667,0|0,1:0|0:0,0:0:0:0:
500,221,14459,1,2,1:2:0:0:
447,240,14549,1,6,3:0:0:0:
374,127,14715,1,8,3:0:0:0:
401,137,14799,1,4,3:0:0:0:
278,209,14965,6,0,P|209:177|200:41,1,198.333327280681,4|0,3:1|0:0,0:0:0:0:
201,58,15235,1,0,1:0:0:0:
129,7,15320,2,0,P|86:25|43:123,1,141.666666666667,6|0,3:0|0:0,0:0:0:0:
105,212,15580,5,2,1:2:0:0:
329,50,15772,1,4,1:2:0:0:
261,304,16156,5,2,1:2:0:0:
437,366,16349,1,4,1:2:0:0:
209,201,16736,5,2,1:2:0:0:
384,170,16913,1,4,1:2:0:0:
358,151,17002,1,0,0:0:0:0:
177,116,17180,5,0,1:0:0:0:
441,245,17447,1,0,1:0:0:0:
390,266,17536,1,0,1:0:0:0:
301,58,17713,5,0,1:2:0:0:
301,58,17802,2,0,P|229:25|175:8,1,124.666670471192,4|0,3:1|1:0,0:0:0:0:
92,77,18077,2,0,P|50:108|-11:181,1,124.666670471192,12|0,3:0|1:2,0:0:0:0:
76,232,18352,2,0,P|79:315|98:381,1,124.666670471192,12|0,3:0|1:0,0:0:0:0:
178,325,18627,1,12,3:0:0:0:
277,134,18811,5,0,1:0:0:0:
277,134,18903,2,0,P|234:163|180:232,1,124.666670471192,4|0,3:0|1:0,0:0:0:0:
294,282,19167,2,0,P|334:363|374:399,1,124.666670471192,4|0,3:0|1:0,0:0:0:0:
413,288,19432,2,0,P|467:266|516:217,1,124.666670471192,4|0,3:0|1:0,0:0:0:0:
446,153,19697,1,4,3:0:0:0:
215,24,19874,5,0,1:0:0:0:
215,24,19962,2,0,P|270:26|346:61,1,113.333333333333,6|0,3:0|1:0,0:0:0:0:
223,137,20222,2,0,P|170:163|101:175,1,113.333333333333,4|0,3:0|1:0,0:0:0:0:
0,227,20483,2,0,P|47:278|96:307,1,113.333333333333,4|0,3:0|1:0,0:0:0:0:
158,384,20744,1,4,3:0:0:0:
331,223,20918,5,0,1:0:0:0:
331,223,21018,2,0,P|285:215|230:286,1,124.666670471192,4|0,3:0|1:0,0:0:0:0:
330,343,21281,2,0,P|376:335|431:406,1,124.666670471192,4|0,3:0|1:0,0:0:0:0:
512,273,21544,2,0,P|520:227|449:172,1,124.666670471192,4|0,3:0|1:0,0:0:0:0:
416,87,21807,1,4,3:0:0:0:
232,14,21982,5,0,1:2:0:0:
232,14,22070,2,0,P|213:59|192:160,1,124.666670471192,6|0,3:2|1:0,0:0:0:0:
78,101,22337,2,0,P|82:170|97:225,1,124.666670471192,8|0,3:0|1:0,0:0:0:0:
0,273,22605,2,0,P|21:314|81:381,1,124.666670471192,8|0,3:0|1:0,0:0:0:0:
179,351,22873,1,8,3:0:0:0:
302,193,23052,5,0,1:0:0:0:
302,193,23141,2,0,P|272:239|258:327,1,124.666670471192,4|0,3:0|1:0,0:0:0:0:
392,293,23401,2,0,P|449:265|499:209,1,124.666670471192,4|0,3:0|1:0,0:0:0:0:
512,80,23662,2,0,P|474:83|387:132,1,124.666670471192,4|0,3:0|1:0,0:0:0:0:
298,82,23923,1,4,3:0:0:0:
36,306,24097,5,0,1:0:0:0:
36,306,24196,2,0,P|31:210|29:158,1,124.666670471192,4|0,3:1|1:0,0:0:0:0:
149,232,24466,2,0,P|147:294|143:356,1,124.666670471192,8|0,3:0|1:0,0:0:0:0:
259,240,24736,2,0,P|255:177|252:115,1,124.666670471192,8|0,3:0|1:0,0:0:0:0:
374,255,25006,2,0,P|372:317|368:379,1,124.666670471192,8|0,3:0|1:0,0:0:0:0:
462,337,25282,5,4,3:0:0:0:
512,168,25455,1,4,1:0:0:0:
483,182,25542,2,0,L|409:152,2,62.3333352355958,0|0|4,0:0|1:0|3:0,0:0:0:0:
360,233,25803,1,8,1:2:0:0:
288,209,25890,1,8,1:2:0:0:
273,137,25977,1,0,1:0:0:0:
334,87,26064,2,0,L|412:62,2,62.3333352355958,8|12|4,3:0|3:0|3:0,0:0:0:0:
227,40,26326,6,0,B|129:62|189:96|55:124,1,170,4|0,3:2|0:0,0:0:0:0:
244,160,26753,2,0,B|332:206|266:223|388:285,1,170,4|0,3:0|0:0,0:0:0:0:
145,232,27140,6,0,B|71:300|140:299|38:390,1,170,4|2,3:1|0:3,0:0:0:0:
76,382,27706,1,4,0:0:0:0:
339,252,27894,5,0,1:0:0:0:
363,195,27999,1,0,1:0:0:0:
141,71,28165,1,0,1:0:0:0:
163,123,28247,1,8,3:0:0:0:
284,8,28495,5,4,1:0:0:0:
229,238,28676,1,4,3:0:0:0:
239,85,29306,5,0,1:0:0:0:
272,163,29466,1,4,3:0:0:0:
272,163,29857,1,0,0:0:0:0:
385,63,30118,5,0,1:0:0:0:
135,161,30266,1,4,3:0:0:0:
225,298,30667,5,0,1:0:0:0:
376,353,30804,1,4,3:0:0:0:
376,353,31197,1,0,0:0:0:0:
273,222,31458,5,0,1:0:0:0:
125,295,31611,1,0,0:0:0:0:
197,153,32254,5,0,1:0:0:0:
424,246,32383,1,4,3:0:0:0:
424,246,32555,2,0,L|435:199,4,28.3333333333333
406,267,32771,5,2,1:2:0:0:
291,246,32940,2,0,P|213:259|165:357,1,170,6|0,1:2|0:0,0:0:0:0:
245,373,33605,5,2,1:2:0:0:
296,88,33761,1,14,3:0:0:0:
296,88,34134,1,0,0:0:0:0:
243,162,34383,5,2,1:2:0:0:
304,302,34552,1,12,3:0:0:0:
357,207,34927,5,0,1:0:0:0:
200,257,35071,2,0,P|132:228|26:219,1,170,4|0,3:0|0:0,0:0:0:0:
37,218,35474,1,0,0:0:0:0:
163,61,35744,5,0,1:0:0:0:
267,140,35893,2,0,P|351:132|429:101,1,170,4|0,3:0|0:0,0:0:0:0:
429,100,36287,1,0,0:0:0:0:
488,305,36550,5,0,1:0:0:0:
330,249,36703,1,4,3:0:0:0:
388,323,37104,5,0,1:0:0:0:
180,378,37264,1,4,3:0:0:0:
180,378,37646,1,0,0:0:0:0:
268,353,37902,5,0,1:0:0:0:
14,263,38052,1,4,3:0:0:0:
14,263,38445,1,0,0:0:0:0:
64,333,38706,5,0,1:0:0:0:
278,214,38856,1,4,3:0:0:0:
239,140,39244,5,0,1:0:0:0:
508,280,39376,1,4,3:0:0:0:
508,280,39779,1,0,0:0:0:0:
432,349,40048,5,0,1:0:0:0:
369,170,40183,1,4,3:0:0:0:
369,170,40586,1,0,0:0:0:0:
461,184,40855,5,0,1:0:0:0:
505,62,40990,1,4,3:0:0:0:
400,73,41393,5,0,1:0:0:0:
370,0,41524,1,12,3:0:0:0:
370,0,41918,1,0,0:0:0:0:
297,66,42181,5,0,1:0:0:0:
114,205,42327,2,0,P|64:164|53:63,1,170,12|0,3:0|0:0,0:0:0:0:
52,64,42725,2,0,P|91:53|140:32,1,85
287,200,42990,1,0,1:0:0:0:
29,154,43123,2,0,P|92:162|194:204,1,170,12|0,3:0|0:0,0:0:0:0:
268,319,43518,5,0,1:0:0:0:
215,99,43639,1,4,3:0:0:0:
413,189,44321,5,0,1:0:0:0:
360,373,44453,1,4,3:0:0:0:
141,263,45128,5,0,1:0:0:0:
97,113,45263,1,4,3:0:0:0:
325,62,45668,5,0,1:0:0:0:
295,184,45803,1,4,3:0:0:0:
200,93,46474,5,0,1:0:0:0:
180,12,46623,1,4,3:0:0:0:
300,98,47274,5,0,1:0:0:0:
283,142,47427,1,4,3:0:0:0:
97,131,47813,5,0,1:0:0:0:
403,236,47944,1,4,3:0:0:0:
139,223,48614,5,0,1:0:0:0:
359,167,48754,1,4,3:0:0:0:
359,167,49147,1,0,0:0:0:0:
221,279,49409,5,0,1:0:0:0:
285,103,49540,1,4,3:0:0:0:
305,247,49949,5,0,1:0:0:0:
197,139,50108,1,8,3:0:0:0:
197,139,50490,1,0,0:0:0:0:
293,164,50745,5,0,1:0:0:0:
214,230,50897,1,8,3:0:0:0:
214,230,51284,1,0,0:0:0:0:
485,216,51543,5,0,1:0:0:0:
37,170,51835,2,0,L|74:154,5,28.3333333333333,0|0|0|0|0|0,1:0|0:0|0:0|1:0|0:0|0:0,0:0:0:0:
82,243,52070,6,0,B|146:268|146:268|159:293|159:293|232:317,1,162.916669774056,4|0,1:0|0:0,0:0:0:0:
233,326,52340,1,0,1:2:0:0:
390,187,52475,2,0,B|445:226|445:226|418:341,1,162.916669774056,4|0,3:2|0:0,0:0:0:0:
410,327,52745,1,0,1:2:0:0:
219,202,52880,2,0,B|219:103|272:157|273:29,1,162.916669774056,4|0,1:2|0:0,0:0:0:0:
257,43,53151,1,0,1:2:0:0:
315,242,53291,1,4,3:2:0:0:
315,242,53547,2,0,P|308:290|306:326,1,65.1666679096222,0|0,1:0|0:0,0:0:0:0:
325,330,53675,5,8,3:0:0:0:
398,354,53761,1,8,3:0:0:0:
468,314,53846,1,12,3:0:0:0:
467,233,53932,5,12,3:0:0:0:
422,226,54017,1,4,3:0:0:0:
398,259,54102,1,4,3:0:0:0:
321,291,54190,6,0,P|258:270|251:164,1,177.083333333333,14|0,1:3|0:0,0:0:0:0:
259,166,54461,1,0,0:0:0:0:
458,54,54597,2,0,P|408:98|313:51,1,177.083333333333,14|0,1:3|0:0,0:0:0:0:
319,45,54868,1,0,0:0:0:0:
164,123,55004,2,0,P|101:144|94:250,1,177.083333333333,14|0,1:3|0:0,0:0:0:0:
102,247,55275,1,0,1:0:0:0:
368,192,55411,1,14,1:3:0:0:
368,192,55728,5,0,1:0:0:0:
389,220,55818,2,0,P|381:264|373:322,1,70.8333333333333,8|0,3:0|0:0,0:0:0:0:
266,341,55999,1,8,3:0:0:0:
227,302,56090,2,0,B|232:235|263:126,1,177.083333333333,4|0,3:0|0:0,0:0:0:0:
244,123,56356,6,0,B|167:119|167:119|133:204,1,153.000000583649,4|0,3:1|1:0,0:0:0:0:
334,286,56624,2,0,B|362:356|362:356|439:352,1,153.000000583649,4|0,3:0|1:0,0:0:0:0:
490,263,56892,1,4,3:0:0:0:
228,281,57071,1,0,1:0:0:0:
228,281,57161,2,0,L|63:332,1,153.000000583649,4|8,3:0|3:0,0:0:0:0:
106,187,57429,6,0,P|117:118|126:67,1,114.750000437737,4|0,3:0|0:0,0:0:0:0:
142,62,57608,2,0,P|174:69|192:123,1,76.5000002918244,4|0,3:2|0:0,0:0:0:0:
338,305,57832,2,0,P|401:281|399:148,1,191.250000729561,4|0,1:2|0:0,0:0:0:0:
398,166,58100,1,0,1:0:0:0:
275,233,58235,2,0,L|223:208,2,57.3750002188683,0|0|0,1:0|1:0|1:0,0:0:0:0:
455,77,58503,6,0,P|428:45|309:42,1,153.000000583649,4|0,3:1|1:0,0:0:0:0:
180,120,58772,2,0,P|122:168|48:163,1,153.000000583649,4|0,3:0|1:0,0:0:0:0:
58,52,59040,2,0,P|115:28|153:13,1,76.5000002918244,4|0,3:0|0:0,0:0:0:0:
302,157,59219,1,0,1:0:0:0:
302,157,59309,2,0,P|293:227|280:313,1,153.000000583649,4|0,3:0|1:0,0:0:0:0:
370,384,59577,5,4,3:0:0:0:
164,282,59756,1,8,3:0:0:0:
182,318,59845,1,0,0:0:0:0:
404,239,59980,2,0,B|469:189|469:189|417:59,1,191.250000729561,4|0,3:2|0:0,0:0:0:0:
414,82,60248,1,0,1:0:0:0:
253,121,60382,2,0,L|274:57,2,57.3750002188683,0|0|0,1:0|1:0|1:0,0:0:0:0:
61,177,60651,6,0,P|75:107|154:108,1,153.000000583649,4|0,3:1|1:0,0:0:0:0:
280,269,60913,2,0,P|221:277|169:189,1,153.000000583649,4|0,3:0|1:0,0:0:0:0:
338,156,61176,2,0,P|414:176|484:224,1,153.000000583649,4|0,3:0|1:0,0:0:0:0:
463,342,61438,2,0,P|398:350|319:384,1,153.000000583649,4|0,3:0|1:0,0:0:0:0:
199,308,61701,5,4,3:0:0:0:
397,216,61876,1,8,3:0:0:0:
374,256,61963,1,4,3:0:0:0:
124,190,62095,2,0,L|168:-5,1,191.250000729561,4|0,3:2|0:0,0:0:0:0:
181,0,62401,1,0,1:0:0:0:
332,48,62532,2,0,P|310:117|243:134,1,114.750000437737,2|0,0:0|0:0,0:0:0:0:
27,217,62801,6,0,P|84:225|190:281,1,153.000000583649,4|0,3:1|1:0,0:0:0:0:
297,384,63059,2,0,P|286:313|268:207,1,153.000000583649,4|0,3:0|1:0,0:0:0:0:
417,152,63318,2,0,P|402:252|389:337,1,153.000000583649,4|0,3:0|1:0,0:0:0:0:
202,156,63576,2,0,P|221:89|322:94,1,153.000000583649,4|0,3:0|1:0,0:0:0:0:
304,187,63858,5,4,3:0:0:0:
71,94,64034,1,0,1:0:0:0:
96,51,64122,1,4,3:0:0:0:
155,249,64254,2,0,P|112:265|49:291,1,113.333333333333,4|0,3:2|0:0,0:0:0:0:
247,375,64562,1,0,1:0:0:0:
266,331,64650,1,0,1:0:0:0:
395,188,64827,5,0,1:0:0:0:
376,242,64918,2,0,P|331:238|268:152,1,153.000000583649,6|0,3:2|1:0,0:0:0:0:
253,21,65185,2,0,P|360:65|473:106,1,229.500000875473,8|8,3:0|3:0,0:0:0:0:
120,198,65632,1,4,3:0:0:0:
141,155,65721,1,4,3:0:0:0:
141,155,65855,6,0,P|188:167|218:326,1,212.500008106232,4|0,1:1|0:0,0:0:0:0:
216,314,66123,1,0,1:0:0:0:
392,373,66257,2,0,P|458:351|452:257,1,153.000000583649,4|4,3:0|3:0,0:0:0:0:
373,249,66525,1,8,3:0:0:0:
444,61,66703,1,4,3:0:0:0:
493,45,66793,1,4,3:0:0:0:
493,45,66946,6,0,P|481:92|322:122,1,212.500008106232,4|0,1:1|0:0,0:0:0:0:
330,115,67208,1,0,0:0:0:0:
202,24,67339,2,0,P|135:29|86:123,1,153.000000583649,8|0,3:0|1:0,0:0:0:0:
144,213,67601,2,0,P|213:228|301:269,1,153.000000583649,4|0,3:0|0:0,0:0:0:0:
189,348,67863,1,4,3:0:0:0:
189,348,67995,6,0,B|165:279|219:236|221:247|224:260|289:203|252:148,1,229.500000875473,4|0,1:1|1:0,0:0:0:0:
298,64,68393,2,0,P|333:79|367:96,1,76.5000002918244,4|0,3:0|0:0,0:0:0:0:
479,236,68570,5,4,3:0:0:0:
430,217,68658,2,0,P|365:234|305:277,1,114.750000437737,8|0,3:0|0:0,0:0:0:0:
298,282,68835,5,4,3:0:0:0:
210,289,68924,2,0,P|145:272|85:229,1,114.750000437737,4|0,3:0|0:0,0:0:0:0:
110,218,69101,5,4,3:0:0:0:
261,372,69198,1,4,1:2:0:0:
334,146,69379,5,0,0:0:0:0:
287,167,69469,1,12,3:0:0:0:
193,79,69651,5,0,0:0:0:0:
218,91,69741,1,12,3:0:0:0:
285,0,69923,5,0,1:0:0:0:
266,4,70013,1,12,3:0:0:0:
224,253,70195,5,0,0:0:0:0:
274,311,70285,1,8,1:2:0:0:
350,312,70376,2,0,P|392:291|436:286,1,73.6666632944744,8|8,3:0|3:0,0:0:0:0:
511,125,70557,5,4,3:0:0:0:
470,115,70648,1,0,3:0:0:0:
426,135,70739,1,12,3:0:0:0:
410,179,70829,2,0,P|455:191|514:220,1,110.499994941712,4|0,3:0|0:0,0:0:0:0:
160,355,71101,5,2,1:2:0:0:
160,355,71645,5,2,0:2:0:0:
97,292,71917,1,2,0:2:0:0:
109,204,72189,1,2,0:2:0:0:
196,161,72456,1,2,0:2:0:0:
285,189,72727,1,2,0:2:0:0:
330,268,72998,1,2,0:2:0:0:
412,317,73270,1,2,0:2:0:0:
494,280,73541,1,6,0:0:0:0:
494,280,73804,6,0,L|321:221,1,169.999994812012,4|0,1:3|0:0,0:0:0:0:
316,238,74068,2,0,L|419:65,1,191.250000729561,4|0,1:3|0:0,0:0:0:0:
439,59,74332,2,0,L|213:106,1,212.500008106232,4|0,1:3|0:0,0:0:0:0:
186,79,74595,5,4,3:1:0:0:
186,79,75123,2,0,B|209:183|137:160|164:268,1,186.999994293213,4|0,3:1|0:0,0:0:0:0:
177,271,75655,5,6,3:2:0:0:
315,73,82022,5,0,1:0:0:0:
268,323,82169,1,0,0:0:0:0:
268,323,82465,6,0,L|316:307,1,42.5,0|0,3:0|3:0,0:0:0:0:
386,348,82612,1,0,1:0:0:0:
138,263,82796,1,4,1:2:0:0:
138,263,83026,6,0,L|186:279,1,42.5,0|0,3:0|3:0,0:0:0:0:
256,228,83165,1,0,1:0:0:0:
17,327,83332,2,0,L|-2:259,2,56.6666666666667,4|8|2,1:2|3:0|0:0,0:0:0:0:
92,384,83583,5,0,1:0:0:0:
110,350,83668,1,4,3:0:0:0:
244,204,83852,1,12,3:0:0:0:
74,91,84036,1,8,3:0:0:0:
206,44,84222,6,0,L|181:149,1,67.9999979248048,4|0,1:0|0:0,0:0:0:0:
300,95,84401,2,0,L|356:186,1,67.9999979248048,2|0,3:2|0:0,0:0:0:0:
459,144,84580,2,0,L|407:238,1,67.9999979248048,2|0,3:2|0:0,0:0:0:0:
410,329,84760,2,0,L|331:254,1,67.9999979248048,2|0,3:2|0:0,0:0:0:0:
266,219,84939,2,0,L|248:325,1,67.9999979248048,2|0,3:2|0:0,0:0:0:0:
162,355,85118,2,0,L|140:280,1,67.9999979248048,2|0,3:2|0:0,0:0:0:0:
61,206,85300,2,0,L|124:182,1,67.9999979248048,2|0,3:2|0:0,0:0:0:0:
220,114,85473,2,0,L|164:53,1,67.9999979248048,2|0,3:2|0:0,0:0:0:0:
58,25,85647,2,0,L|67:104,1,67.9999979248048,2|0,3:2|0:0,0:0:0:0:
235,230,85821,2,0,P|299:218|330:168,1,101.999996887207,2|0,3:2|0:0,0:0:0:0:
383,44,86082,5,6,3:0:0:0:
430,33,86169,1,0,0:0:0:0:
475,52,86256,1,0,1:0:0:0:
490,116,86345,5,14,3:0:0:0:
455,136,86434,1,0,0:0:0:0:
440,177,86523,1,0,1:0:0:0:
466,201,86612,5,0,0:0:0:0:
485,225,86702,1,0,0:0:0:0:
482,253,86791,1,0,1:0:0:0:
464,269,86880,5,6,3:0:0:0:
464,269,86970,1,0,0:0:0:0:
463,269,87059,1,0,1:0:0:0:
389,334,87148,6,0,L|451:360,2,67.9999979248048
308,262,87416,2,0,L|370:235,2,67.9999979248048,6|0|0,3:0|0:0|1:0,0:0:0:0:
211,358,87684,2,0,L|273:384,2,67.9999979248048,6|0|0,3:0|0:0|1:0,0:0:0:0:
116,254,87952,1,6,3:0:0:0:
222,88,88130,1,4,1:0:0:0:
222,88,88220,2,0,P|146:125|83:143,1,135.99999584961,0|0,0:0|1:0,0:0:0:0:
211,222,88487,5,0,3:0:0:0:
377,126,88670,1,2,1:3:0:0:
377,126,88761,2,0,P|339:188|383:251,1,113.333333333333,6|2,3:2|1:2,0:0:0:0:
159,374,89123,6,0,L|143:316,1,56.6666666666667,2|0,3:2|0:0,0:0:0:0:
323,236,89297,2,0,P|361:298|353:326,1,85,2|2,3:2|3:2,0:0:0:0:
336,332,89471,2,0,L|260:361,1,56.6666666666667,0|4,1:0|3:0,0:0:0:0:
224,264,89692,6,0,L|249:154,1,101.999996887207,2|0,3:2|0:0,0:0:0:0:
285,137,89871,2,0,L|247:22,1,101.999996887207,2|0,0:2|1:0,0:0:0:0:
332,2,90094,1,4,3:0:0:0:
485,251,90273,1,2,1:2:0:0:
485,251,90362,2,0,L|355:212,1,135.99999584961,4|0,3:0|1:0,0:0:0:0:
256,269,90632,6,0,L|275:361,1,67.9999979248048,4|0,3:0|0:0,0:0:0:0:
144,241,90815,2,0,L|167:98,1,135.99999584961,0|0,1:0|0:0,0:0:0:0:
93,22,91090,1,0,1:0:0:0:
59,42,91182,1,4,3:0:0:0:
258,156,91320,2,0,P|302:134|312:58,1,101.999996887207,2|4,1:2|3:0,0:0:0:0:
19,150,91584,6,0,L|42:266,1,101.999996887207,2|4,1:2|3:0,0:0:0:0:
173,376,91800,1,0,1:0:0:0:
217,335,91890,1,4,3:0:0:0:
205,283,91980,2,0,L|137:253,2,67.9999979248048,12|8|2,3:0|3:0|1:2,0:0:0:0:
376,271,92249,1,4,1:0:0:0:
344,289,92338,2,0,P|302:245|317:175,1,135.99999584961,2|0,1:2|1:0,0:0:0:0:
409,72,92652,2,0,L|458:90,2,33.9999989624024,2|0|0,1:2|0:0|0:0,0:0:0:0:
392,49,92788,6,0,L|279:83,1,101.999996887207
54,120,93055,1,6,3:2:0:0:
63,58,93145,1,0,3:0:0:0:
122,39,93234,1,0,3:0:0:0:
175,61,93323,2,0,P|188:123|198:152,1,67.9999979248048,2|0,1:2|3:3,0:0:0:0:
129,214,93502,1,0,3:3:0:0:
129,214,93591,2,0,P|110:284|81:347,1,135.99999584961,2|0,1:2|3:3,0:0:0:0:
273,308,93859,6,0,P|263:273|238:235,2,67.9999979248048,2|0|0,1:2|3:3|3:3,0:0:0:0:
379,367,94127,2,0,P|401:336|403:287,1,67.9999979248048,2|0,1:2|3:3,0:0:0:0:
504,263,94305,1,0,3:3:0:0:
504,263,94395,2,0,P|491:213|424:141,1,135.99999584961,2|0,1:2|3:3,0:0:0:0:
272,128,94663,2,0,P|301:99|377:84,1,101.999996887207,2|0,1:2|0:0,0:0:0:0:
457,41,94886,5,0,1:0:0:0:
457,41,94930,2,0,P|365:24|317:-14,1,135.99999584961,6|0,0:2|0:0,0:0:0:0:
152,65,95198,2,0,L|83:87,2,50.9999984436036,4|0|0,3:0|0:0|0:0,0:0:0:0:
308,141,95466,2,0,L|377:163,2,50.9999984436036,4|0|0,3:0|0:0|0:0,0:0:0:0:
244,224,95734,2,0,L|175:246,2,50.9999984436036,4|0|0,1:3|0:0|0:0,0:0:0:0:
410,289,96002,5,4,1:1:0:0:
329,377,96134,2,0,L|311:315,2,50.9999984436036,0|0|4,1:0|1:0|3:0,0:0:0:0:
99,255,96398,2,0,L|117:193,2,50.9999984436036,0|4|0,1:0|3:0|1:0,0:0:0:0:
368,130,96662,2,0,L|350:68,2,50.9999984436036,0|4|4,1:0|3:0|1:0,0:0:0:0:
246,20,96927,1,4,3:0:0:0:
276,215,97057,5,4,3:0:0:0:
276,215,97199,2,0,P|255:163|250:139,1,67.9999979248048,4|2,3:2|1:2,0:0:0:0:
263,142,97341,1,0,0:0:0:0:
339,366,97483,2,0,P|360:314|365:290,2,67.9999979248048,0|4|0,1:0|3:0|1:0,0:0:0:0:
68,189,97767,1,2,0:0:0:0:
68,189,97862,2,0,P|110:199|172:242,1,101.999996887207,4|0,3:0|1:0,0:0:0:0:
298,23,98099,6,0,P|243:31|169:70,1,135.99999584961,8|0,3:0|1:0,0:0:0:0:
293,159,98365,2,0,P|352:191|418:203,1,135.99999584961,4|0,3:2|1:0,0:0:0:0:
488,301,98632,1,8,3:0:0:0:
321,316,98765,2,0,P|259:328|193:341,1,101.999996887207,4|0,1:0|0:0,0:0:0:0:
209,349,98943,1,0,0:0:0:0:
129,377,99032,2,0,P|67:365|1:352,1,101.999996887207,0|4,0:0|1:2,0:0:0:0:
150,238,99302,6,0,P|171:195|179:157,1,67.9999979248048
197,167,99438,2,0,P|196:123|144:43,1,135.99999584961,0|8,1:0|3:0,0:0:0:0:
294,18,99709,1,4,1:2:0:0:
294,18,99800,2,0,P|348:62|386:76,1,101.999996887207,4|0,3:0|0:0,0:0:0:0:
387,69,99981,2,0,P|421:50|460:36,2,67.9999979248048,0|8|8,1:0|3:0|3:0,0:0:0:0:
311,164,100252,5,4,1:2:0:0:
335,216,100343,1,4,3:0:0:0:
392,239,100433,1,4,3:0:0:0:
452,217,100524,2,0,P|460:172|468:138,3,67.9999979248048,0|8|8|4,1:0|3:0|3:0|1:2,0:0:0:0:
451,143,100841,5,0,0:0:0:0:
296,316,100976,1,0,1:0:0:0:
276,285,101066,2,0,P|233:265|139:248,1,135.99999584961,2|8,1:2|3:0,0:0:0:0:
37,158,101346,6,0,P|86:153|136:29,1,169.999994812012,4|0,3:1|0:0,0:0:0:0:
127,48,101623,1,0,0:0:0:0:
154,143,101919,1,0,0:0:0:0:
381,107,102188,5,0,0:0:0:0:
343,197,102340,2,0,P|290:180|275:116,1,118.999996368408
272,123,102698,1,0,0:0:0:0:
480,206,102967,1,0,0:0:0:0:
144,354,103236,5,0,0:0:0:0:
194,271,103414,2,0,P|195:236|162:144,1,118.999996368408
69,213,103779,2,0,P|57:247|36:275,2,59.4999981842042
154,37,104210,5,0,0:0:0:0:
154,37,104295,2,0,P|104:68|72:78,1,79.3333309122722
36,0,104596,1,0,0:0:0:0:
186,151,104756,6,0,P|223:161|256:171,1,56.6666666666667,2|4,0:3|0:0,0:0:0:0:
272,153,104891,2,0,P|309:163|360:179,1,85
415,111,105117,1,2,3:0:0:0:
512,261,105300,1,8,3:0:0:0:
511,260,105385,2,0,P|487:308|421:316,1,113.333333333333,4|4,3:0|0:0,0:0:0:0:
283,249,105640,6,0,P|297:181|309:65,2,170,4|2|8,3:1|0:0|0:2,0:0:0:0:
62,112,106383,1,0,0:0:0:0:
62,112,106483,2,0,P|80:154|87:185,1,56.6666666666667
64,192,106634,2,0,B|35:100|83:151|57:3,1,170,4|0,3:0|0:0,0:0:0:0:
9,274,107030,1,0,0:0:0:0:
266,113,107294,2,0,P|225:81|176:92,1,85,8|2,0:2|0:0,0:0:0:0:
181,170,107515,1,2,0:3:0:0:
411,204,107692,5,10,0:0:0:0:
411,204,107777,2,0,P|390:163|372:80,1,113.333333333333,0|2,0:0|3:2,0:0:0:0:
295,215,108078,2,0,P|276:252|263:307,1,85,4|0,3:0|0:0,0:0:0:0:
161,332,108292,1,0,0:0:0:0:
108,358,108378,1,0,0:0:0:0:
54,329,108464,2,0,L|33:267,3,42.5,0|0|0|0,1:2|1:2|1:2|1:2,0:0:0:0:
110,229,108723,5,2,3:0:0:0:
457,60,109968,6,0,P|384:82|357:168,1,130.333335819244,4|0,3:1|1:0,0:0:0:0:
263,201,110231,2,0,P|325:216|363:268,1,130.333335819244,8|0,3:0|1:0,0:0:0:0:
275,328,110495,2,0,P|202:306|175:220,1,130.333335819244,8|0,3:0|1:0,0:0:0:0:
181,120,110758,2,0,P|143:171|81:185,1,130.333335819244,8|0,3:0|1:0,0:0:0:0:
37,94,111022,5,4,3:0:0:0:
248,7,111198,1,0,1:0:0:0:
248,7,111286,2,0,P|288:92|287:144,1,130.333335819244,4|0,3:0|1:0,0:0:0:0:
404,100,111550,2,0,P|395:164|362:219,1,130.333335819244,4|0,3:0|1:0,0:0:0:0:
468,243,111814,2,0,P|476:307|509:362,1,130.333335819244,4|0,3:0|1:0,0:0:0:0:
417,384,112076,6,0,P|378:337|269:331,1,130.333335819244,6|0,3:0|1:0,0:0:0:0:
271,235,112341,2,0,P|206:249|164:299,1,130.333335819244,4|0,3:0|1:0,0:0:0:0:
87,242,112606,2,0,P|51:297|56:362,1,130.333335819244,4|0,3:0|1:0,0:0:0:0:
136,384,112872,1,4,3:0:0:0:
165,166,113049,5,0,1:0:0:0:
165,166,113137,2,0,P|87:147|3:123,1,130.333335819244,4|0,3:0|1:0,0:0:0:0:
61,43,113399,2,0,P|124:60|188:76,1,130.333335819244,4|0,3:0|1:0,0:0:0:0:
269,130,113661,2,0,P|332:114|395:97,1,130.333335819244,4|0,3:0|1:0,0:0:0:0:
400,3,113923,2,0,P|337:20|273:35,1,130.333335819244,4|0,3:0|1:2,0:0:0:0:
179,59,114209,5,4,3:2:0:0:
327,220,114382,1,0,1:0:0:0:
327,220,114469,2,0,B|364:278|364:278|325:351,1,130.333335819244,8|0,3:0|1:0,0:0:0:0:
245,306,114730,2,0,B|213:367|213:367|130:369,1,130.333335819244,8|0,3:0|1:0,0:0:0:0:
120,287,114991,2,0,B|51:290|51:290|7:219,1,130.333335819244,8|0,3:0|1:0,0:0:0:0:
68,166,115280,5,4,3:0:0:0:
240,74,115454,1,0,1:0:0:0:
240,74,115542,2,0,L|221:236,1,130.333335819244,4|0,3:0|1:0,0:0:0:0:
353,267,115804,2,0,L|337:137,1,130.333335819244,4|0,3:0|1:0,0:0:0:0:
472,69,116066,2,0,L|456:198,1,130.333335819244,4|0,3:0|1:2,0:0:0:0:
511,291,116340,5,4,3:1:0:0:
332,373,116515,1,0,1:0:0:0:
332,373,116602,2,0,L|174:338,1,130.333335819244,8|0,3:0|1:0,0:0:0:0:
120,376,116865,1,8,3:0:0:0:
309,191,117040,1,0,1:0:0:0:
309,191,117127,2,0,L|151:226,1,130.333335819244,8|0,3:0|1:0,0:0:0:0:
66,193,117424,6,0,P|60:121|116:106,1,130.333335819244,4|0,3:0|1:0,0:0:0:0:
266,53,117684,1,8,3:0:0:0:
223,20,117771,2,0,P|201:9|134:0,2,65.1666679096222,8|8|8,3:0|3:0|3:0,0:0:0:0:
294,165,118032,1,12,3:0:0:0:
357,208,118119,1,12,3:0:0:0:
430,182,118206,1,4,3:0:0:0:
465,111,118293,2,0,P|470:93|442:31,1,65.1666679096222,4|8,3:0|3:0,0:0:0:0:
328,15,118468,6,0,P|293:80|276:193,1,170,4|0,1:2|1:0,0:0:0:0:
134,171,118875,2,0,P|169:236|179:336,1,170,4|0,3:2|1:0,0:0:0:0:
316,352,119282,6,0,P|394:304|439:190,1,198.333327280681,4|2,3:1|0:0,0:0:0:0:
434,111,119825,1,4,0:0:0:0:
145,60,120096,6,0,L|229:85,1,56.6666666666667,0|0,1:0|0:0,0:0:0:0:
284,40,120277,1,0,1:0:0:0:
284,40,120368,2,0,L|309:175,1,113.333333333333,8|0,3:0|0:0,0:0:0:0:
249,229,120639,5,4,1:0:0:0:
464,303,120780,1,4,3:0:0:0:
464,303,121171,1,0,0:0:0:0:
365,318,121432,5,0,1:0:0:0:
332,240,121583,1,4,3:0:0:0:
259,325,122229,5,0,1:0:0:0:
436,237,122376,1,4,3:0:0:0:
436,237,122586,2,0,L|446:183,2,42.5,2|2|2,3:0|3:0|3:0,0:0:0:0:
512,299,122796,5,0,1:0:0:0:
276,165,122959,1,4,3:0:0:0:
191,158,123600,5,0,1:0:0:0:
377,61,123752,1,4,3:0:0:0:
315,231,124401,5,0,1:0:0:0:
88,138,124555,1,4,3:0:0:0:
88,138,124749,2,0,L|103:79,2,42.5,2|2|2,3:0|3:0|3:0,0:0:0:0:
16,183,124944,5,2,1:2:0:0:
190,62,125102,2,0,P|268:75|316:173,1,170,2|0,1:3|0:0,0:0:0:0:
267,11,125756,5,2,1:2:0:0:
216,296,125912,1,2,1:3:0:0:
269,222,126555,5,2,1:2:0:0:
208,82,126684,1,2,1:3:0:0:
155,177,127070,5,4,3:1:0:0:
312,127,127245,2,0,P|380:156|486:165,1,170,4|0,3:0|0:0,0:0:0:0:
278,241,127894,5,0,1:0:0:0:
180,73,128060,1,4,3:0:0:0:
24,79,128712,5,0,1:0:0:0:
187,167,128862,2,0,L|162:267,1,85,4|0,3:0|0:0,0:0:0:0:
95,183,129253,5,0,1:0:0:0:
303,128,129410,1,4,3:0:0:0:
303,128,129794,1,0,0:0:0:0:
244,31,130050,5,0,1:0:0:0:
498,121,130227,1,4,3:0:0:0:
448,51,130865,5,0,1:0:0:0:
219,171,131012,1,4,3:0:0:0:
273,244,131390,5,0,1:0:0:0:
4,104,131530,1,4,3:0:0:0:
80,35,132203,5,0,1:0:0:0:
143,214,132341,1,4,3:0:0:0:
51,200,133001,5,0,1:0:0:0:
7,322,133134,1,4,3:0:0:0:
112,311,133540,5,0,1:0:0:0:
142,384,133699,1,8,3:0:0:0:
215,318,134354,5,0,1:0:0:0:
398,179,134485,2,0,P|448:220|459:321,1,170,8|0,3:0|0:0,0:0:0:0:
225,184,135140,5,0,1:0:0:0:
487,150,135298,2,0,P|424:142|322:100,1,170,8|0,3:0|0:0,0:0:0:0:
244,65,135680,5,0,1:0:0:0:
297,285,135808,1,4,3:0:0:0:
99,195,136477,5,0,1:0:0:0:
152,11,136634,1,4,3:0:0:0:
371,121,137290,5,0,1:0:0:0:
415,271,137455,1,4,3:0:0:0:
187,322,137841,5,0,1:0:0:0:
217,200,137970,1,4,3:0:0:0:
312,291,138615,5,0,1:0:0:0:
332,372,138792,1,4,3:0:0:0:
212,286,139395,5,0,1:0:0:0:
229,242,139571,1,4,3:0:0:0:
415,253,139948,5,0,1:0:0:0:
109,148,140095,1,4,3:0:0:0:
373,161,140748,5,0,1:0:0:0:
153,217,140932,1,4,3:0:0:0:
291,105,141562,5,0,1:0:0:0:
227,281,141714,1,4,3:0:0:0:
207,137,142105,5,0,1:0:0:0:
315,245,142280,1,8,3:0:0:0:
219,220,142916,5,0,1:0:0:0:
298,154,143090,1,8,3:0:0:0:
27,168,143753,5,0,1:0:0:0:
27,168,143796,2,0,L|43:59,1,85
141,32,144006,2,0,L|156:98,2,56.6666666666667,2|2|2,3:0|3:0|3:0,0:0:0:0:
268,58,144258,5,4,1:0:0:0:
138,264,144701,5,0,0:0:0:0:
138,264,144790,2,0,P|194:221|219:216,1,85,2|0,0:0|0:0,0:0:0:0:
225,306,145011,2,0,P|268:338|334:358,1,113.333333333333,0|4,0:0|3:0,0:0:0:0:
469,301,145322,5,2,0:0:0:0:
311,106,145588,1,0,0:0:0:0:
391,180,145721,1,2,0:0:0:0:
311,106,145854,2,0,L|327:13,1,85,0|4,1:0|3:0,0:0:0:0:
325,22,146120,1,2,0:0:0:0:
191,79,146386,6,0,L|19:130,1,170,2|2,1:2|0:0,0:0:0:0:
190,179,146918,1,0,0:0:0:0:
44,307,147184,1,2,1:2:0:0:
116,272,147317,2,0,L|282:319,1,170
381,380,147716,1,0,0:0:0:0:
312,169,147983,5,0,1:2:0:0:
385,247,148116,2,0,P|440:209|423:111,1,170,4|0,3:0|0:0,0:0:0:0:
342,40,148512,5,0,1:0:0:0:
342,40,148646,2,0,L|245:76,1,85,4|0,3:0|0:0,0:0:0:0:
0,260,149050,5,2,0:0:0:0:
166,113,149319,1,0,1:0:0:0:
82,64,149453,2,0,L|65:152,1,85,2|0,0:0|0:0,0:0:0:0:
135,219,149857,1,0,0:0:0:0:
353,69,150126,1,2,1:2:0:0:
273,33,150260,1,4,3:0:0:0:
353,69,150395,2,0,L|368:157,1,85,2|0,0:0|0:0,0:0:0:0:
324,287,150669,5,2,1:2:0:0:
400,333,150801,1,0,0:0:0:0:
461,271,150933,2,0,L|482:150,1,113.333333333333,2|0,0:0|0:0,0:0:0:0:
382,176,151197,2,0,P|317:168|277:120,1,113.333333333333
197,160,151461,1,2,1:2:0:0:
197,160,151594,2,0,L|178:62,1,85,4|0,3:0|0:0,0:0:0:0:
246,19,151990,5,2,0:0:0:0:
105,221,152254,1,0,1:0:0:0:
66,143,152387,1,0,0:0:0:0:
96,237,152519,2,0,L|216:284,1,113.333333333333
294,356,152786,6,0,L|279:295,1,56.6666666666667,4|0,1:2|0:0,0:0:0:0:
315,276,152920,2,0,L|331:185,1,85,4|0,3:0|0:0,0:0:0:0:
273,128,153324,1,2,0:0:0:0:
500,65,153593,6,0,L|421:99,1,85,0|4,1:0|3:0,0:0:0:0:
360,38,153862,2,0,L|188:-2,1,170,2|0,0:0|0:0,0:0:0:0:
53,204,154400,1,2,1:2:0:0:
45,117,154534,1,4,3:0:0:0:
129,133,154669,1,0,0:0:0:0:
28,338,154941,5,2,1:2:0:0:
150,245,155074,1,4,3:0:0:0:
150,245,155207,2,0,L|248:282,1,85
297,330,155474,2,0,L|268:178,1,141.666666666667,2|0,0:0|0:0,0:0:0:0:
285,173,155741,1,0,1:0:0:0:
378,227,155874,2,0,L|402:128,1,85
208,27,156274,6,0,P|150:34|123:79,1,113.333333333333
181,147,156541,2,0,L|274:106,2,85,0|2|0,1:0|3:2|0:0,0:0:0:0:
0,346,157070,5,0,1:0:0:0:
51,199,157205,2,0,L|68:296,1,85,4|0,3:0|0:0,0:0:0:0:
326,338,157612,2,0,P|378:303|379:254,1,113.333333333333
301,211,157884,2,0,L|205:255,1,85,2|4,1:2|3:0,0:0:0:0:
218,148,158155,6,0,P|226:105|256:9,1,141.666666666667,2|0,0:0|0:0,0:0:0:0:
221,8,158427,2,0,P|183:45|95:87,1,141.666666666667
73,74,158698,2,0,P|98:125|127:247,1,170,2|2,1:2|3:0,0:0:0:0:
125,234,159038,1,2,3:0:0:0:
125,234,159106,1,2,3:0:0:0:
125,234,159174,1,2,3:0:0:0:
125,234,159240,5,4,3:1:0:0:
501,187,159775,1,0,0:0:0:0:
231,76,160043,1,2,1:2:0:0:
280,174,160177,1,4,3:0:0:0:
365,113,160311,2,0,L|339:-14,1,113.333333333333,0|0,0:0|1:0,0:0:0:0:
449,0,160579,2,0,P|480:22|475:107,1,113.333333333333,0|0,3:0|1:0,0:0:0:0:
444,263,160845,6,0,L|362:231,1,85,0|0,1:0|0:0,0:0:0:0:
355,238,161013,1,8,3:0:0:0:
260,304,161097,2,0,L|136:344,1,113.333333333333,4|0,3:0|1:0,0:0:0:0:
7,369,161349,6,0,B|1:243|82:316|67:150,1,203.999993774414,4|0,0:0|1:0,0:0:0:0:
38,1,161769,2,0,P|93:62|198:72,1,169.999994812012,4|0,0:0|0:0,0:0:0:0:
194,61,162096,1,0,0:0:0:0:
229,171,162190,2,0,P|321:161|390:51,1,203.999993774414,4|0,0:0|1:0,0:0:0:0:
494,0,162599,2,0,P|498:46|512:187,1,170,4|0,0:0|0:0,0:0:0:0:
442,291,162992,5,0,1:0:0:0:
378,233,163079,1,0,1:0:0:0:
296,240,163166,1,8,3:0:0:0:
244,302,163254,5,8,3:0:0:0:
208,335,163341,1,4,3:0:0:0:
160,348,163428,1,4,3:0:0:0:
90,289,163516,6,0,P|106:200|120:108,1,169.999994812012,14|0,1:3|0:0,0:0:0:0:
132,117,163792,1,0,0:0:0:0:
226,0,163930,2,0,P|242:89|256:181,1,169.999994812012,14|0,1:3|0:0,0:0:0:0:
268,172,164206,1,0,0:0:0:0:
465,173,164345,6,0,P|457:84|404:70,1,141.666666666667,14|0,1:3|0:0,0:0:0:0:
402,82,164607,1,0,0:0:0:0:
351,219,164738,2,0,P|343:307|290:321,1,141.666666666667,14|0,1:3|0:0,0:0:0:0:
288,310,165000,1,0,0:0:0:0:
174,367,165130,6,0,L|193:262,1,101.999996887207,8|0,3:0|0:0,0:0:0:0:
168,244,165309,2,0,B|120:261|120:261|95:306|95:306|26:332,1,169.999994812012,0|0,1:0|0:0,0:0:0:0:
31,329,165600,5,0,3:0:0:0:
31,329,165667,1,4,1:0:0:0:
81,243,165798,2,0,L|108:75,1,170,0|0,0:0|3:0,0:0:0:0:
108,75,166127,1,0,3:0:0:0:
108,75,166193,1,0,1:0:0:0:
206,116,166324,2,0,P|262:114|330:216,1,170
321,210,166631,1,0,1:0:0:0:
244,251,166718,5,4,3:0:0:0:
424,237,166902,1,0,1:0:0:0:
443,208,166994,1,4,3:0:0:0:
250,110,167178,1,4,3:0:0:0:
239,77,167270,1,0,1:0:0:0:
426,5,167455,1,0,1:0:0:0:
426,5,167685,6,0,L|345:21,1,56.6666666666667,0|0,3:0|0:0,0:0:0:0:
360,29,167826,1,4,1:2:0:0:
140,172,168002,1,0,1:0:0:0:
140,172,168091,2,0,L|63:149,1,56.6666666666667
58,171,168224,2,0,L|40:99,1,56.6666666666667,0|0,3:0|0:0,0:0:0:0:
23,103,168356,5,0,1:0:0:0:
203,247,168489,2,0,P|241:199|320:188,1,141.666666666667
328,205,168755,1,0,0:0:0:0:
424,349,168887,5,0,1:0:0:0:
424,349,168954,1,0,3:0:0:0:
424,349,169020,2,0,L|437:278,1,42.5,0|0,3:0|3:0,0:0:0:0:
507,255,169153,1,4,3:0:0:0:
507,255,169220,1,4,3:0:0:0:
507,255,169286,2,0,L|494:184,1,42.5,4|4,3:0|3:0,0:0:0:0:
426,168,169418,2,0,L|460:-8,1,170,4|0,3:2|0:0,0:0:0:0:
458,1,169950,6,0,P|388:42|302:68,1,153.000000583649,4|0,3:1|1:0,0:0:0:0:
315,158,170216,2,0,P|243:134|178:95,1,153.000000583649,4|0,3:0|1:0,0:0:0:0:
194,8,170483,1,4,3:0:0:0:
36,172,170661,1,0,1:0:0:0:
36,172,170750,2,0,P|77:167|103:256,1,153.000000583649,4|0,3:0|1:0,0:0:0:0:
57,368,171016,6,0,L|207:321,1,153.000000583649,4|4,3:0|3:2,0:0:0:0:
260,248,171283,1,0,0:0:0:0:
403,384,171416,2,0,L|366:140,1,229.500000875473
383,141,171727,1,0,1:0:0:0:
338,69,171816,2,0,P|361:47|416:39,2,76.5000002918244,4|0|0,3:0|0:0|0:0,0:0:0:0:
266,132,172083,6,0,B|219:86|219:86|235:-13,1,153.000000583649,4|0,3:1|1:0,0:0:0:0:
129,47,172350,2,0,B|82:93|82:93|98:192,1,153.000000583649,4|0,3:0|1:0,0:0:0:0:
184,210,172616,1,4,3:0:0:0:
17,376,172794,1,0,1:0:0:0:
17,376,172883,2,0,L|174:331,1,153.000000583649,4|0,3:0|1:0,0:0:0:0:
252,380,173150,5,4,3:0:0:0:
400,250,173327,1,4,3:2:0:0:
381,283,173416,1,0,0:0:0:0:
170,221,173550,2,0,P|239:224|276:73,1,229.500000875473
265,93,173861,1,0,1:0:0:0:
226,8,173950,2,0,P|182:6|150:110,1,153.000000583649,4|0,3:0|1:0,0:0:0:0:
317,189,174216,6,0,B|399:159|334:143|462:101,1,153.000000583649,4|0,3:0|1:0,0:0:0:0:
484,193,174483,2,0,P|464:260|438:357,1,153.000000583649,4|0,3:0|1:0,0:0:0:0:
356,379,174750,2,0,B|274:349|339:333|211:291,1,153.000000583649,4|0,3:0|1:0,0:0:0:0:
137,337,175016,2,0,P|117:270|91:173,1,153.000000583649,4|0,3:0|1:0,0:0:0:0:
190,177,175283,5,4,3:0:0:0:
44,70,175461,1,0,0:0:0:0:
72,77,175550,2,0,P|117:49|165:41,1,76.5000002918244,4|0,3:0|0:0,0:0:0:0:
162,68,175683,2,0,P|208:67|347:157,1,191.250000729561,4|0,3:2|0:0,0:0:0:0:
502,233,175994,1,0,1:0:0:0:
512,197,176083,2,0,P|448:186|382:275,1,153.000000583649,4|0,3:0|1:0,0:0:0:0:
309,294,176350,6,0,P|305:220|278:131,1,153.000000583649,4|0,3:1|1:0,0:0:0:0:
218,75,176616,2,0,P|144:95|68:100,1,153.000000583649,8|0,3:0|1:0,0:0:0:0:
0,174,176883,2,0,P|20:247|25:323,1,153.000000583649,8|0,3:0|1:0,0:0:0:0:
93,384,177150,2,0,P|166:363|242:358,1,153.000000583649,8|0,3:0|0:0,0:0:0:0:
331,300,177416,5,4,3:0:0:0:
81,175,177594,1,8,3:0:0:0:
102,214,177683,1,0,0:0:0:0:
281,214,177816,2,0,P|258:109|252:15,1,191.250000729561,4|0,3:2|0:0,0:0:0:0:
435,135,178127,1,0,1:0:0:0:
453,104,178216,1,4,3:0:0:0:
288,128,178350,1,0,1:0:0:0:
493,257,178483,5,0,1:0:0:0:
474,245,178616,2,0,L|388:270,1,76.5000002918244,0|0,1:0|0:0,0:0:0:0:
391,304,178750,2,0,B|315:283|368:256|232:227,1,153.000000583649,8|8,3:0|3:0,0:0:0:0:
177,295,179016,2,0,P|133:322|75:285,1,114.750000437737,4|0,3:0|0:0,0:0:0:0:
51,290,179194,2,0,L|46:205,1,76.5000002918244,4|4,3:0|3:0,0:0:0:0:
0,37,179420,6,0,P|119:41|211:114,1,229.500000875473,4|0,1:0|0:0,0:0:0:0:
221,119,179727,1,0,1:0:0:0:
317,119,179814,2,0,P|370:99|412:42,1,114.750000437737,8|0,3:0|0:0,0:0:0:0:
254,228,180077,2,0,P|302:231|405:304,1,153.000000583649,8|4,3:0|3:0,0:0:0:0:
490,193,180341,1,4,3:0:0:0:
390,283,180473,6,0,L|147:350,1,229.500000875473,4|0,1:0|0:0,0:0:0:0:
160,358,180794,1,0,1:0:0:0:
64,319,180885,2,0,P|3:281|7:213,1,114.750000437737,8|0,3:0|0:0,0:0:0:0:
93,226,181161,2,0,P|131:184|187:179,1,114.750000437737,8|0,3:0|0:0,0:0:0:0:
195,196,181344,1,0,0:0:0:0:
271,272,181436,2,0,P|287:200|307:129,1,114.750000437737,4|4,3:0|1:0,0:0:0:0:
242,36,181706,5,0,0:0:0:0:
298,160,181839,2,0,B|353:114|353:114|323:12,1,153.000000583649
140,70,182104,1,0,1:0:0:0:
115,59,182193,2,0,B|60:105|60:105|90:207,1,153.000000583649,4|0,3:0|0:0,0:0:0:0:
6,339,182503,2,0,L|141:298,1,114.750000437737,4|0,3:0|0:0,0:0:0:0:
131,316,182680,1,2,0:3:0:0:
195,384,182771,6,0,P|258:344|270:271,1,153.000000583649,4|0,1:2|0:0,0:0:0:0:
362,260,183041,2,0,P|349:186|286:147,1,153.000000583649,4|0,3:0|1:0,0:0:0:0:
208,76,183311,2,0,P|183:172|174:260,1,153.000000583649,4|0,3:0|1:0,0:0:0:0:
90,290,183581,2,0,P|78:214|58:140,1,153.000000583649,4|0,3:0|1:0,0:0:0:0:
111,50,183851,5,4,3:0:0:0:
294,229,184024,1,0,1:0:0:0:
323,200,184111,2,0,L|300:78,1,114.750000437737,4|0,3:0|0:0,0:0:0:0:
324,63,184285,1,8,3:0:0:0:
346,73,184372,1,4,3:0:0:0:
207,167,184503,2,0,P|165:179|139:260,1,114.750000437737
381,366,184807,5,8,3:0:0:0:
342,384,184893,2,0,P|266:364|244:272,1,153.000000583649,4|0,3:2|1:0,0:0:0:0:
320,242,185161,2,0,P|384:226|469:189,1,153.000000583649,0|0,0:0|1:0,0:0:0:0:
460,94,185429,5,8,3:0:0:0:
419,52,185519,1,0,0:0:0:0:
364,69,185608,1,4,3:0:0:0:
294,105,185698,5,4,3:0:0:0:
228,156,185787,1,4,3:0:0:0:
151,128,185877,1,4,3:0:0:0:
151,45,185966,6,0,L|269:11,1,114.750000437737,2|0,0:0|0:0,0:0:0:0:
100,215,186235,1,0,0:0:0:0:
73,232,186324,2,0,P|43:178|54:152,1,76.5000002918244,4|4,3:0|3:0,0:0:0:0:
213,161,186503,1,8,3:0:0:0:
232,181,186593,2,0,P|230:218|204:245,1,76.5000002918244,8|8,3:0|3:0,0:0:0:0:
94,338,186772,2,0,P|142:331|239:402,1,153.000000583649,2|0,0:0|0:0,0:0:0:0:
350,353,187039,5,2,3:2:0:0:
350,353,187107,2,0,L|373:266,1,57.3750002188683,0|0,3:0|3:0,0:0:0:0:
441,249,187244,1,0,3:0:0:0:
441,249,187312,2,0,L|422:188,2,57.3750002188683,0|0|0,3:0|3:0|3:0,0:0:0:0:
336,195,187518,1,0,3:0:0:0:
336,195,187586,2,0,L|350:139,1,57.3750002188683,4|0,3:0|3:0,3:0:0:0:
420,83,187723,1,4,3:0:0:0:
420,83,187792,1,0,3:0:0:0:
420,83,187860,2,0,L|436:23,2,57.3750002188683,4|0|4,3:0|3:0|3:0,3:0:0:0:
250,132,188134,5,8,3:0:0:0:
224,97,188203,1,0,1:0:0:0:
180,92,188271,1,8,3:0:0:0:
144,109,188340,1,0,1:0:0:0:
128,140,188408,2,0,L|145:199,1,57.3750002188683,8|0,3:0|1:0,0:0:0:0:
51,200,188545,2,0,L|66:255,3,57.3750002188683,8|0|8|0,3:0|1:0|3:0|1:0,0:0:0:0:
128,321,188819,1,8,3:0:0:0:
154,286,188888,1,0,1:0:0:0:
198,281,188956,1,8,3:0:0:0:
234,298,189025,1,0,1:0:0:0:
250,329,189093,2,0,L|233:388,2,57.3750002188683,8|0|0,3:0|1:0|0:0,0:0:0:0:
446,304,189504,5,2,0:0:0:0:
484,216,189778,1,2,0:0:0:0:
421,134,190052,1,2,0:0:0:0:
318,149,190323,1,2,0:0:0:0:
271,231,190598,1,2,0:0:0:0:
197,284,190873,1,2,0:0:0:0:
112,250,191148,1,2,0:0:0:0:
89,164,191422,1,6,0:0:0:0:
89,164,191682,6,0,P|128:106|212:121,1,152.999995330811,4|0,3:0|0:0,0:0:0:0:
270,55,191943,2,0,P|352:60|387:156,1,172.125000656605,4|0,3:0|0:0,0:0:0:0:
471,119,192204,2,0,P|507:193|442:271,1,191.250007295609,4|0,3:0|0:0,0:0:0:0:
367,217,192465,6,0,L|407:27,1,178.499994552612,4|0,3:1|0:0,0:0:0:0:
403,42,193003,1,4,3:1:0:0:
403,42,193541,6,0,P|357:25|282:97,1,141.666666666667,6|0,3:2|1:0,0:0:0:0:
188,47,193803,2,0,L|218:199,1,141.666666666667,6|0,3:0|1:0,0:0:0:0:
262,299,194065,2,0,L|118:247,1,141.666666666667,6|0,3:0|1:0,0:0:0:0:
65,184,194327,2,0,P|22:217|29:317,1,141.666666666667,6|0,3:0|1:0,0:0:0:0:
102,354,194591,5,6,3:0:0:0:
336,168,194763,1,8,3:0:0:0:
299,151,194849,2,0,L|320:241,1,70.8333333333333,4|0,3:0|0:0,0:0:0:0:
291,251,194978,2,0,L|330:42,1,212.5,6|0,3:2|0:0,0:0:0:0:
309,36,195280,1,0,1:0:0:0:
241,80,195366,2,0,P|178:84|133:17,1,141.666666666667,6|0,3:0|1:0,0:0:0:0:
40,0,195627,6,0,P|14:94|-9:159,1,141.666666666667,4|0,3:1|1:0,0:0:0:0:
0,239,195893,2,0,P|67:216|135:198,1,141.666666666667,6|0,3:0|1:0,0:0:0:0:
211,129,196159,2,0,P|233:196|251:264,1,141.666666666667,6|0,3:0|1:0,0:0:0:0:
188,343,196425,2,0,P|255:365|323:383,1,141.666666666667,6|0,3:0|1:0,0:0:0:0:
414,349,196691,5,6,3:0:0:0:
493,157,196868,1,0,1:0:0:0:
459,168,196957,1,4,3:0:0:0:
279,266,197134,2,0,P|300:176|324:65,1,177.083333333333,6|0,3:2|0:0,0:0:0:0:
341,78,197400,1,0,1:0:0:0:
271,23,197489,2,0,B|181:53|253:70|123:110,1,141.666666666667,6|0,3:0|1:0,0:0:0:0:
28,110,197755,6,0,P|76:110|122:212,1,141.666666666667,4|0,3:1|1:0,0:0:0:0:
140,263,198021,2,0,P|207:253|240:192,1,141.666666666667,6|0,3:0|1:0,0:0:0:0:
319,144,198287,2,0,P|418:174|471:194,1,141.666666666667,6|0,3:0|1:0,0:0:0:0:
512,260,198553,2,0,P|413:290|360:310,1,141.666666666667,6|0,3:0|1:0,0:0:0:0:
292,370,198819,6,0,B|252:338|252:338|273:261,1,106.25,6|0,3:0|0:0,0:0:0:0:
284,283,198997,1,0,1:0:0:0:
230,214,199085,2,0,L|155:250,1,70.8333333333333,4|0,3:0|0:0,0:0:0:0:
155,266,199219,2,0,B|150:154|201:209|192:65,1,177.083333333333,6|0,3:2|0:0,0:0:0:0:
175,82,199529,2,0,P|148:43|69:57,1,106.25,2|0,1:2|0:0,0:0:0:0:
23,110,199751,2,0,L|48:196,1,70.8333333333333,0|0,0:0|1:0,0:0:0:0:
28,195,199884,6,0,P|130:219|210:282,1,177.083333333333,4|0,3:0|1:0,0:0:0:0:
222,350,200163,2,0,P|288:309|361:293,1,130.333335819244,6|0,3:0|1:0,0:0:0:0:
457,349,200426,2,0,P|438:291|433:202,1,130.333335819244,6|0,3:0|1:0,0:0:0:0:
337,190,200690,2,0,P|362:115|366:43,1,130.333335819244,6|0,3:0|1:0,0:0:0:0:
453,28,200953,5,6,3:0:0:0:
254,107,201128,1,0,1:0:0:0:
237,77,201216,1,4,3:0:0:0:
435,185,201391,2,0,B|392:197|361:208|361:208|335:247|335:247|298:261|249:272,1,203.999993774414,6|0,3:2|0:0,0:0:0:0:
234,296,201654,1,0,1:0:0:0:
160,348,201786,2,0,P|149:307|166:182,1,170.000006484986,4|0,3:0|1:0,0:0:0:0:
15,30,202049,6,0,P|7:121|38:269,1,212.5,4|4,3:1|3:0,0:0:0:0:
27,239,202385,1,0,0:0:0:0:
27,239,202452,2,0,L|92:210,1,53.125,0|0,1:0|0:0,0:0:0:0:
195,121,202587,2,0,L|314:159,1,106.25,4|0,3:0|3:0,0:0:0:0:
296,153,202788,1,8,3:0:0:0:
296,153,202856,1,4,3:0:0:0:
436,72,202990,6,0,L|392:314,1,212.5,4|0,3:1|1:0,0:0:0:0:
269,356,203394,2,0,P|240:327|249:250,1,106.25,2|0,0:0|1:0,0:0:0:0:
239,264,203596,1,0,3:0:0:0:
239,264,203664,2,0,L|306:292,1,53.125,4|0,3:0|3:0,0:0:0:0:
444,165,203798,1,8,3:0:0:0:
444,165,203866,2,0,L|341:204,1,106.25,4|0,3:0|3:0,0:0:0:0:
254,149,204068,6,0,P|222:91|340:46,1,212.5,4|0,3:1|1:0,0:0:0:0:
475,0,204473,2,0,P|461:49|413:68,1,106.25,4|0,3:0|1:0,0:0:0:0:
173,115,204742,2,0,P|122:81|7:65,1,159.375,4|8,3:0|3:0,0:0:0:0:
26,62,205012,1,4,3:0:0:0:
301,21,205147,6,0,B|334:124|240:85|288:210,1,159.375,4|0,3:1|3:0,0:0:0:0:
276,171,205416,2,0,B|314:209|314:209|299:280,1,106.25,0|4,1:0|3:0,0:0:0:0:
208,318,205686,1,0,1:0:0:0:
186,334,205776,2,0,B|148:296|148:296|163:225,1,106.25,4|0,3:0|0:0,0:0:0:0:
175,237,205956,1,8,3:0:0:0:
334,95,206091,2,0,L|446:133,1,106.25,4|2,3:0|0:0,0:0:0:0:
487,235,206358,6,0,P|426:236|401:317,1,141.666666666667,4|0,3:2|1:0,0:0:0:0:
313,362,206622,2,0,P|281:309|198:328,1,141.666666666667,4|0,3:0|1:0,0:0:0:0:
117,287,206886,2,0,P|146:233|88:171,1,141.666666666667,4|0,3:0|1:0,0:0:0:0:
154,95,207150,2,0,P|215:94|240:13,1,141.666666666667,8|4,3:0|3:1,0:0:0:0:
345,32,207415,5,0,1:0:0:0:
395,45,207503,1,0,1:0:0:0:
419,99,207591,1,0,1:0:0:0:
401,157,207679,1,0,1:0:0:0:
354,179,207767,1,0,1:0:0:0:
302,161,207855,1,0,1:0:0:0:
226,128,207943,5,4,3:1:0:0:
146,117,208028,1,0,1:0:0:0:
87,170,208114,1,0,1:0:0:0:
88,248,208199,1,0,1:0:0:0:
152,299,208285,1,0,1:0:0:0:
229,283,208371,1,0,1:0:0:0:
176,205,208456,5,4,1:2:0:0:
367,62,208953,5,0,3:0:0:0:
367,62,209015,1,0,3:0:0:0:
367,62,209079,2,0,P|378:151|389:200,1,127.5,0|0,3:0|0:0,1:0:0:0:
476,178,209831,2,0,P|466:225|457:295,1,113.333333333333,0|0,3:0|0:0,1:0:0:0:
374,303,210707,2,0,P|392:359|397:390,1,84.9999974060059,0|0,3:0|0:0,1:0:0:0:
462,81,212070,5,4,3:0:0:0:
443,119,212140,1,4,3:1:0:0:
256,192,212277,12,4,219828,0:0:0:0:
