osu file format v14

[General]
AudioFilename: okami no uta.mp3
AudioLeadIn: 0
PreviewTime:552
Countdown: 0
SampleSet: Soft
StackLeniency: 0.2
Mode: 0
LetterboxInBreaks: 0
WidescreenStoryboard: 1

[Editor]
Bookmarks:622,4943,9230,17802,28496,52070,56356,71101,75655,84222,101416,110033,120707,144324,156429,161419,170016,189299,193606,202087,206523,208505,212106,218965
DistanceSpacing: 0.8
BeatDivisor: 6
GridSize: 16
TimelineZoom: 4.300001

[Metadata]
Title:Ookami no Uta
TitleUnicode:狼の詩
Artist:ATARASHII GAKKO!
ArtistUnicode:新しい学校のリーダーズ
Creator:Fisky
Version:Hard
Source:
Tags:yudragen laura- -tatsuo jasontime12345 Mizunashi Akari atarashii gakkou no leaders new school wakage gaitaru suzuka H ZETTRIO 阿久悠 ZETT M j-pop jpop pop jazz japanese piano victor entertainment single 2018
BeatmapID:3470248
BeatmapSetID:1562875

[Difficulty]
HPDrainRate:4
CircleSize:3.8
OverallDifficulty:7
ApproachRate:8.5
SliderMultiplier:1.5
SliderTickRate:1

[Events]
//Background and Video events
0,0,"bg okami no uta.jpg",0,0
//Break Periods
2,101546,104081
//Storyboard Layer 0 (Background)
//Storyboard Layer 1 (Fail)
//Storyboard Layer 2 (Pass)
//Storyboard Layer 3 (Foreground)
//Storyboard Layer 4 (Overlay)
//Storyboard Sound Samples

[TimingPoints]
622,277.777777777778,4,2,1,60,1,0
622,-100,4,2,1,60,0,0
1733,269.058295964126,4,2,1,60,1,0
2808,266.903914590747,4,2,1,60,1,0
4142,-97.0873786407767,4,2,1,60,0,0
4573,266.903914590747,4,2,1,60,1,0
4586,-100,4,2,1,80,0,0
4928,-85.6017399174694,4,2,1,80,0,0
5113,269.299820466786,4,2,1,80,1,0
5337,-111.111111111111,4,2,1,80,0,0
6016,263.736263736264,4,2,1,80,1,0
7067,270.27027027027,4,2,1,80,1,0
9230,263.157894736842,4,2,1,80,1,0
9230,-111.111111111111,4,2,1,80,0,0
10283,259.74025974026,4,2,1,80,1,0
10283,-111.111111111111,4,2,1,80,0,0
11323,272.108843537415,4,2,1,80,1,0
11323,-111.111111111111,4,2,1,80,0,0
12417,264.31718061674,4,2,1,80,1,0
12417,-111.111111111111,4,2,1,80,0,0
13473,269.058295964126,4,2,1,80,1,0
13473,-111.111111111111,4,2,1,80,0,0
14549,250,4,2,1,80,1,0
14549,-111.111111111111,4,2,1,80,0,0
14965,-103.092783505155,4,2,1,80,0,0
15235,257.510729613734,4,2,1,80,1,0
15580,288.461538461538,4,2,1,80,1,0
16736,266.666666666667,4,2,1,80,1,0
16913,-111.111111111111,4,2,1,80,0,0
17802,275.229357798165,4,2,1,80,1,0
18903,264.900662251656,4,2,1,80,1,0
19962,260.869565217392,4,2,1,80,1,0
20744,-106.382978723404,4,2,1,80,0,0
21018,263.157894736842,4,2,1,80,1,0
22070,267.857142857143,4,2,1,80,1,0
23141,260.869565217391,4,2,1,80,1,0
24196,270.27027027027,4,2,1,80,1,0
25282,260.869565217391,4,2,1,80,1,0
26326,284.36018957346,4,2,1,80,1,0
26753,257.510729613734,4,2,1,80,1,0
27140,283.018867924528,4,2,1,80,1,0
27894,317.460317460317,4,2,1,80,1,0
28000,247.933884297521,4,2,1,80,1,0
28496,361.44578313253,4,2,1,80,1,0
28677,269.058295964126,4,2,1,80,1,0
29306,240,4,2,1,80,1,0
29466,260.869565217391,4,2,1,80,1,0
30119,294.117647058824,4,2,1,80,1,0
30266,267.857142857143,4,2,1,80,1,0
30667,-103.524544872771,4,2,1,60,0,0
30804,262.008733624454,4,2,1,60,1,0
31458,306.122448979592,4,2,1,60,1,0
31611,257.510729613734,4,2,1,60,1,0
32771,337.078651685393,4,2,1,60,1,0
32940,265.486725663717,4,2,1,60,1,0
33605,312.5,4,2,1,60,1,0
33761,248.96265560166,4,2,1,60,1,0
34384,337.078651685393,4,2,1,60,1,0
34553,248.96265560166,4,2,1,60,1,0
34927,288.461538461538,4,2,1,60,1,0
35071,269.058295964126,4,2,1,60,1,0
35744,298.507462686567,4,2,1,60,1,0
35893,263.157894736842,4,2,1,60,1,0
36551,304.568527918782,4,2,1,60,1,0
36703,267.857142857143,4,2,1,60,1,0
37105,317.460317460317,4,2,1,60,1,0
37264,255.31914893617,4,2,1,60,1,0
37902,300,4,2,1,60,1,0
38052,262.008733624454,4,2,1,60,1,0
38706,301.507537688442,4,2,1,60,1,0
38857,258.620689655172,4,2,1,60,1,0
39244,-99.7654417513684,4,2,1,60,0,0
39376,269.058295964126,4,2,1,60,1,0
41393,-99.5976952712146,4,2,1,60,0,0
41524,263.157894736842,4,2,1,60,1,0
42183,288.461538461538,4,2,1,60,1,0
42327,265.486725663717,4,2,1,60,1,0
43518,243.90243902439,4,2,1,60,1,0
43640,272.727272727273,4,2,1,60,1,0
44321,-99.7252747252746,4,2,1,60,0,0
44453,270.02700270027,4,2,1,60,1,0
46474,298.507462686567,4,2,1,60,1,0
46623,260.869565217391,4,2,1,60,1,0
47274,306.122448979592,4,2,1,60,1,0
47427,257.510729613734,4,2,1,60,1,0
47813,-99.4266914231734,4,2,1,60,0,0
47944,268.000714668572,4,2,1,60,1,0
48614,-88.3555793903747,4,2,1,60,0,0
48754,262.008733624454,4,2,1,60,1,0
49540,272.727272727273,4,2,1,60,1,0
49949,317.460317460317,4,2,1,60,1,0
50108,255.31914893617,4,2,1,60,1,0
50745,304.568527918782,4,2,1,60,1,0
50897,258.620689655172,4,2,1,60,1,0
51674,322.58064516129,4,2,1,60,1,0
51835,235.294117647059,4,2,1,60,1,0
52070,270.27027027027,4,2,1,60,1,0
53291,256.410256410256,4,2,1,60,1,0
54190,271.493212669683,4,2,1,60,1,0
56356,268.456375838926,4,2,1,80,1,0
56356,-90.9090909090909,4,2,1,80,0,0
60651,262.582056892779,4,2,1,80,1,0
60651,-90.9090909090909,4,2,1,80,0,0
62801,258.620689655172,4,2,1,80,1,0
62801,-90.9090909090909,4,2,1,80,0,0
63858,264.31718061674,4,2,1,80,1,0
63858,-90.9090909090909,4,2,1,80,0,0
64918,267.857142857143,4,2,1,80,1,0
65855,-90.9090909090909,4,2,1,80,0,0
66946,262.008733624454,4,2,1,80,1,0
66946,-90.9090909090909,4,2,1,80,0,0
67995,265.486725663717,4,2,1,80,1,0
67995,-90.9090909090909,4,2,1,80,0,0
68525,-92.4214417744917,4,2,1,80,0,0
69198,271.985494106981,4,2,1,80,1,0
70285,-90.9090909090909,4,2,1,80,0,0
72456,271.493212669683,4,2,1,80,1,0
73541,263.736263736264,4,2,1,80,1,0
74595,-111.111111111111,4,2,1,80,0,0
75655,260.869565217391,4,2,1,80,1,0
75655,-111.111111111111,4,2,1,80,0,0
76699,265.486725663717,4,2,1,80,1,0
76699,-111.111111111111,4,2,1,80,0,0
77761,267.857142857143,4,2,1,80,1,0
77761,-111.111111111111,4,2,1,80,0,0
79899,270.27027027027,4,2,1,80,1,0
79899,-111.111111111111,4,2,1,80,0,0
80980,260.869565217391,4,2,1,80,1,0
80980,-111.111111111111,4,2,1,80,0,0
82022,295.566502463054,4,2,1,80,1,0
82612,276.497695852535,4,2,1,80,1,0
83165,251.046025104603,4,2,1,80,1,0
83668,276.497695852535,4,2,1,80,1,0
84222,269.058295964126,4,2,1,80,1,0
85300,260.869565217391,4,2,1,80,1,0
86345,267.857142857143,4,2,1,80,1,0
88488,273.972602739726,4,2,1,80,1,0
89037,260.869565217391,4,2,1,80,1,0
89559,267.857142857143,4,2,1,80,1,0
90632,275.229357798165,4,2,1,80,1,0
91457,254.237288135593,4,2,1,80,1,0
91584,-91.3123443687348,4,2,1,80,0,0
91711,269.058295964126,4,2,1,80,1,0
92788,267.857142857143,4,2,1,80,1,0
96002,264.31718061674,4,2,1,80,1,0
97057,284.36018957346,4,2,1,80,1,0
98099,266.666666666667,4,2,1,80,1,0
99167,271.493212669683,4,2,1,80,1,0
101066,280.373831775701,4,2,1,80,1,0
101623,295.566502463054,4,2,1,80,1,0
101919,269.058295964126,4,2,1,80,1,0
102188,304.568527918782,4,2,1,80,1,0
102340,269.058295964126,4,2,1,80,1,0
103414,242.914979757085,4,2,1,80,1,0
103779,287.081339712919,4,2,1,80,1,0
104210,257.510729613734,4,2,1,80,1,0
104596,320.855614973262,4,2,1,80,1,0
104756,271.493212669683,4,2,1,80,1,0
104846,-111.111111111111,4,2,1,60,0,0
105300,255.31914893617,4,2,1,60,1,0
105555,-100,4,2,1,40,0,0
105640,271.493212669683,4,2,1,60,1,0
105640,-111.111111111111,4,2,1,60,0,0
106182,301.507537688442,4,2,1,60,1,0
106634,264.31718061674,4,2,1,60,1,0
106634,-111.111111111111,4,2,1,60,0,0
107692,257.510729613734,4,2,1,60,1,0
107692,-111.111111111111,4,2,1,60,0,0
108335,-111.111111111111,4,2,1,40,0,0
108723,310.880829015544,4,2,1,60,1,0
109968,263.736263736264,4,2,1,80,1,0
112076,265.486725663717,4,2,1,80,1,0
113137,262.008733624455,4,2,1,80,1,0
114209,260.869565217392,4,2,1,80,1,0
114991,-108.695652173913,4,2,1,80,0,0
115280,262.008733624454,4,2,1,80,1,0
116340,262.582056892779,4,2,1,80,1,0
117127,-113.378684807256,4,2,1,80,0,0
117424,260.869565217391,4,2,1,80,1,0
118468,271.493212669683,4,2,1,80,1,0
120639,-100,4,2,1,60,0,0
120780,260.869565217391,4,2,1,60,1,0
121432,301.507537688442,4,2,1,60,1,0
121583,258.620689655172,4,2,1,60,1,0
122229,294.117647058824,4,2,1,60,1,0
122376,280.373831775701,4,2,1,60,1,0
122797,324.324324324324,4,2,1,60,1,0
122959,256.410256410256,4,2,1,60,1,0
123599,306.122448979592,4,2,1,60,1,0
123752,259.74025974026,4,2,1,60,1,0
124402,306.122448979592,4,2,1,60,1,0
124555,259.74025974026,4,2,1,60,1,0
124944,315.789473684211,4,2,1,60,1,0
125102,262.008733624454,4,2,1,60,1,0
125756,312.5,4,2,1,60,1,0
125912,257.510729613734,4,2,1,60,1,0
127072,346.820809248555,4,2,1,60,1,0
127245,277.777777777778,4,2,1,60,1,0
127894,250,4,2,1,60,1,0
128061,260.869565217391,4,2,1,60,1,0
128712,300,4,2,1,60,1,0
128862,260.869565217391,4,2,1,60,1,0
129253,314.13612565445,4,2,1,60,1,0
129410,256.410256410256,4,2,1,60,1,0
130050,355.029585798817,4,2,1,60,1,0
130227,255.31914893617,4,2,1,60,1,0
130866,292.682926829268,4,2,1,60,1,0
131012,252.100840336134,4,2,1,60,1,0
131390,281.69014084507,4,2,1,60,1,0
131531,269.058295964126,4,2,1,60,1,0
132341,264.31718061674,4,2,1,60,1,0
133134,270.27027027027,4,2,1,60,1,0
133540,317.460317460317,4,2,1,60,1,0
133699,262.008733624454,4,2,1,60,1,0
135139,317.460317460317,4,2,1,60,1,0
135298,255.31914893617,4,2,1,60,1,0
135812,265.486725663717,4,2,1,60,1,0
136477,315.789473684211,4,2,1,60,1,0
136635,262.008733624454,4,2,1,60,1,0
137289,331.491712707182,4,2,1,60,1,0
137455,257.510729613734,4,2,1,60,1,0
138615,355.029585798817,4,2,1,60,1,0
138792,240.963855421687,4,2,1,60,1,0
139395,352.941176470588,4,2,1,60,1,0
139571,251.046025104603,4,2,1,60,1,0
139948,294.117647058824,4,2,1,60,1,0
140095,326.086956521739,4,2,1,60,1,0
140748,368.098159509202,4,2,1,60,1,0
140932,252.100840336134,4,2,1,60,1,0
141561,306.122448979592,4,2,1,60,1,0
141714,260.869565217391,4,2,1,60,1,0
142106,348.837209302326,4,2,1,60,1,0
142280,255.31914893617,4,2,1,60,1,0
142916,342.857142857143,4,2,1,60,1,0
143090,265.486725663717,4,2,1,60,1,0
143754,252.100840336134,4,2,1,60,1,0
143754,-111.111111111111,4,2,1,60,0,0
144258,266.075388026608,4,2,1,60,1,0
147184,-142.857142857143,4,2,1,60,0,0
148512,269.058295964126,4,2,1,60,1,0
150669,264.31718061674,4,2,1,60,1,0
152254,-111.111111111111,4,2,1,60,0,0
152786,269.058295964126,4,2,1,60,1,0
153593,-142.857142857143,4,2,1,60,0,0
154941,266.666666666667,4,2,1,60,1,0
154941,-142.857142857143,4,2,1,60,0,0
157070,271.493212669683,4,2,1,60,1,0
158155,-142.857142857143,4,2,1,60,0,0
159240,267.857142857143,4,2,1,60,1,0
160845,252.100840336134,4,2,1,60,1,0
161349,280.373831775701,4,2,1,60,1,0
162468,262.008733624454,4,2,1,60,1,0
163516,276.497695852535,4,2,1,60,1,0
164345,262.008733624454,4,2,1,60,1,0
165130,269.058295964126,4,2,1,60,1,0
165667,263.157894736842,4,2,1,60,1,0
166718,276.497695852535,4,2,1,60,1,0
167826,265.486725663717,4,2,1,60,1,0
168887,-90.9090909090909,4,2,1,60,0,0
169950,266.666666666667,4,2,1,80,1,0
169950,-90.9090909090909,4,2,1,80,0,0
179420,263.157894736842,4,2,1,80,1,0
179420,-90.9090909090909,4,2,1,80,0,0
180473,275.229357798165,4,2,1,80,1,0
180518,-90.9090909090909,4,2,1,80,0,0
181574,265.486725663717,4,2,1,80,1,0
181574,-90.9090909090909,4,2,1,80,0,0
182771,270.27027027027,4,2,1,80,1,0
183851,260.869565217391,4,2,1,80,1,0
184893,268.456375838926,4,2,1,80,1,0
187039,273.972602739726,4,2,1,80,1,0
188134,-100,4,2,1,90,0,0
190323,275.229357798165,4,2,1,90,1,0
191422,260.869565217391,4,2,1,90,1,0
192465,269.058295964126,4,2,1,80,1,0
192465,-111.111111111111,4,2,1,80,0,0
193541,262.008733624454,4,2,1,80,1,0
194591,258.620689655172,4,2,1,80,1,0
195627,266.075388026607,4,2,1,80,1,0
200076,263.157894736842,4,2,1,80,1,0
202049,269.058295964126,4,2,1,80,1,0
202318,-90.9090909090909,4,2,1,80,0,0
202990,269.662921348315,4,2,1,80,1,0
203349,-90.9090909090909,4,2,1,80,0,0
206358,264.31718061674,4,2,1,80,1,0
207943,256.959314775161,4,2,1,80,1,0
208953,377.358490566038,4,2,1,80,1,0
209079,376.175548589341,4,2,1,80,1,0
209831,437.956204379562,4,2,1,80,1,0
210707,681.818181818182,4,2,1,80,1,0
212072,410.958904109589,4,2,1,80,1,0
212892,231.660231660232,4,2,1,80,1,0
213124,226.415094339623,4,2,1,80,1,0
213809,247.933884297521,4,2,1,80,1,0
214057,211.267605633803,4,2,1,80,1,0
214694,192.926045016077,4,2,1,80,1,0
214887,235.294117647059,4,2,1,80,1,0

[Colours]
Combo1 : 73,199,83
Combo2 : 253,112,96
Combo3 : 253,135,85

[HitObjects]
299,49,622,5,6,3:2:0:0:
212,40,807,1,0,2:0:0:0:
263,127,2808,6,0,L|256:197,7,37.5,2|0|0|0|0|0|0|0,1:2|3:0|3:0|3:0|3:0|3:0|3:0|0:0,0:0:0:0:
231,196,3341,2,0,L|245:265,8,37.5,0|0|0|0|0|0|0|0|4,3:0|3:0|3:0|3:0|3:0|3:0|3:0|3:0|3:0,2:0:0:0:
102,203,4142,6,0,L|362:222,1,250,4|0,3:1|1:0,0:0:0:0:
378,252,4661,1,0,1:2:0:0:
343,348,4839,5,0,1:0:0:0:
343,348,4928,2,0,L|227:384,1,121.457811605512,6|0,3:2|1:0,0:0:0:0:
211,354,5202,1,0,3:0:0:0:
176,255,5382,6,0,L|-25:217,1,180,2|6,1:2|3:0,0:0:0:0:
129,152,5921,5,4,1:2:0:0:
129,152,6016,2,0,L|318:107,1,150,4|4,3:0|3:0,2:0:0:0:
394,145,6455,5,4,1:2:0:0:
394,145,6542,2,0,L|436:-14,2,149.715,6|4|2,3:0|3:0|1:3,0:0:0:0:
394,145,7607,5,2,1:3:0:0:
394,145,8148,5,0,1:2:0:0:
418,258,8328,1,6,1:2:0:0:
276,224,8598,5,0,1:0:0:0:
252,232,8688,1,0,1:0:0:0:
227,238,8778,2,0,L|172:323,1,100,0|0,1:0|1:0,2:0:0:0:
64,384,9139,5,4,1:3:0:0:
64,384,9230,2,0,L|37:279,1,90.0000000000001,6|2,3:2|1:2,2:0:0:0:
104,187,9668,1,2,1:2:0:0:
104,187,9756,2,0,L|127:95,1,90.0000000000001,4|0,3:0|1:0,2:0:0:0:
234,27,10194,1,2,1:2:0:0:
234,27,10283,2,0,L|341:7,1,90.0000000000001,4|2,3:0|1:3,2:0:0:0:
446,22,10672,5,4,3:1:0:0:
350,168,10975,6,0,L|306:154,1,45,0|4,1:0|3:0,2:0:0:0:
427,111,11235,5,0,1:0:0:0:
427,111,11323,2,0,L|447:203,1,90.0000000000001,6|0,3:2|1:0,2:0:0:0:
465,303,11731,1,2,1:2:0:0:
390,319,11867,2,0,L|294:301,1,90.0000000000001,4|0,3:0|1:0,0:0:0:0:
179,356,12320,1,2,1:2:0:0:
179,356,12417,2,0,L|71:374,1,90.0000000000001,12|8,3:0|3:0,2:0:0:0:
0,299,12813,5,4,3:1:0:0:
138,239,13077,6,0,L|173:163,1,67.4999979400635,2|0,1:2|1:0,2:0:0:0:
19,171,13473,6,0,L|-1:79,1,90.0000000000001,6|2,3:2|1:2,0:0:0:0:
96,32,13876,1,2,1:2:0:0:
168,64,14011,2,0,L|242:-11,1,90.0000000000001,4|0,3:0|1:0,0:0:0:0:
367,29,14459,1,2,1:2:0:0:
367,29,14549,2,0,L|391:136,1,90.0000000000001,6|8,3:0|3:0,2:0:0:0:
461,215,14965,6,0,L|473:50,1,157.499995193482,4|0,3:1|1:0,2:0:0:0:
444,17,15321,1,6,3:0:0:0:
301,90,15580,5,2,1:2:0:0:
263,193,15772,1,4,1:2:0:0:
263,193,16156,5,2,1:2:0:0:
224,296,16349,1,4,1:2:0:0:
224,296,16736,5,2,1:2:0:0:
324,291,16913,2,0,L|143:262,1,180,6|2,1:2|2:0,2:0:0:0:
48,364,17536,1,2,1:2:0:0:
36,242,17713,5,0,1:2:0:0:
36,242,17802,2,0,L|17:136,1,100,4|0,3:1|1:0,0:0:0:0:
70,124,18077,2,0,L|104:29,1,100,12|0,3:0|1:2,0:0:0:0:
157,18,18352,2,0,L|175:128,1,100,12|0,3:0|1:0,0:0:0:0:
215,152,18627,2,0,L|227:321,1,150.545,12|4,3:0|3:0,2:0:0:0:
333,342,19079,6,0,L|383:315,1,50,0|4,1:0|3:0,2:0:0:0:
468,245,19344,1,0,1:0:0:0:
468,245,19432,2,0,L|359:221,1,100,4|0,3:0|1:0,0:0:0:0:
316,212,19697,1,4,3:0:0:0:
231,145,19874,5,0,1:0:0:0:
231,145,19962,2,0,L|334:107,1,100,6|0,3:0|1:0,0:0:0:0:
377,127,20222,2,0,L|471:54,1,100,4|0,3:0|1:0,0:0:0:0:
409,34,20483,2,0,L|280:14,1,100,4|0,3:0|1:0,0:0:0:0:
261,45,20744,2,0,L|95:71,1,148.30125,4|4,3:0|3:0,2:0:0:0:
38,146,21193,5,0,1:0:0:0:
38,146,21281,2,0,L|24:253,1,100,4|0,3:0|1:0,0:0:0:0:
11,298,21544,1,4,3:0:0:0:
123,288,21719,1,0,1:0:0:0:
123,288,21807,1,4,3:0:0:0:
257,379,22070,6,0,L|230:261,1,100,6|0,3:2|1:0,0:0:0:0:
276,245,22337,2,0,L|305:116,1,100,8|0,3:0|1:0,0:0:0:0:
345,117,22605,2,0,L|425:223,1,100,8|0,3:0|1:0,0:0:0:0:
408,252,22873,2,0,L|505:335,1,100,8|0,3:0|1:0,2:0:0:0:
488,373,23141,1,4,3:0:0:0:
378,344,23314,5,0,1:0:0:0:
378,344,23401,2,0,L|408:181,1,150,4|4,3:0|3:0,0:0:0:0:
505,148,23836,5,0,1:0:0:0:
505,148,23923,2,0,L|482:6,1,100,4|0,3:0|1:0,2:0:0:0:
483,0,24196,6,0,L|351:38,1,100,4|0,3:1|1:0,0:0:0:0:
367,79,24466,2,0,L|235:41,1,100,8|0,3:0|1:0,0:0:0:0:
249,0,24736,2,0,L|117:38,1,100,8|0,3:0|1:0,0:0:0:0:
129,77,25006,2,0,L|-22:50,1,150.5525,8|4,3:0|3:0,0:0:0:0:
46,153,25455,6,0,L|53:213,3,50,4|0|0|4,1:0|0:0|1:0|3:0,2:0:0:0:
98,228,25803,5,8,1:2:0:0:
103,257,25890,1,8,1:2:0:0:
108,286,25977,2,0,L|130:348,3,50,0|8|12|4,1:0|3:0|3:0|3:0,2:0:0:0:
173,348,26326,6,0,L|346:295,1,150,4|0,3:2|0:0,0:0:0:0:
379,237,26753,2,0,L|206:184,1,150,4|0,3:0|0:0,0:0:0:0:
191,120,27140,2,0,L|261:372,1,250,4|2,3:1|0:3,0:0:0:0:
308,383,27706,1,4,0:0:0:0:
497,335,28000,5,0,1:0:0:0:
435,250,28165,1,0,1:0:0:0:
435,250,28247,1,8,3:0:0:0:
493,152,28496,6,0,L|503:77,1,75.415,4|4,1:0|3:0,2:0:0:0:
408,141,29306,2,0,L|411:41,1,100,0|4,1:0|3:0,2:0:0:0:
328,148,30119,2,0,L|317:73,1,75,0|4,1:0|3:0,2:0:0:0:
187,35,30667,6,0,L|183:109,1,74.1080292545956,0|4,1:0|3:0,2:0:0:0:
100,29,31458,2,0,L|88:103,1,75,0|0,1:0|0:0,2:0:0:0:
24,8,32254,2,0,L|0:78,1,75,0|4,1:0|3:0,2:0:0:0:
0,268,32771,5,2,1:2:0:0:
100,238,32940,1,6,1:2:0:0:
222,130,33605,5,2,1:2:0:0:
322,160,33761,1,14,3:0:0:0:
393,282,34384,5,2,1:2:0:0:
493,252,34553,1,12,3:0:0:0:
284,299,34927,6,0,L|297:390,1,75,0|4,1:0|3:0,2:0:0:0:
199,310,35744,2,0,L|202:399,1,75,0|4,1:0|3:0,2:0:0:0:
119,303,36551,2,0,L|105:400,1,75,0|4,1:0|3:0,2:0:0:0:
231,239,37105,6,0,L|267:154,1,75.4725,0|4,1:0|3:0,2:0:0:0:
151,206,37902,2,0,L|177:120,1,75,0|4,1:0|3:0,2:0:0:0:
72,192,38706,2,0,L|84:93,1,75.4975,0|4,1:0|3:0,2:0:0:0:
262,22,39244,6,0,L|225:106,1,76.74,0|4,1:0|3:0,2:0:0:0:
343,55,40048,2,0,L|316:140,1,75,0|4,1:0|3:0,2:0:0:0:
422,69,40855,2,0,L|409:167,1,75,0|4,1:0|3:0,2:0:0:0:
468,308,41393,6,0,L|465:216,1,73.3275,0|12,1:0|3:0,2:0:0:0:
381,311,42183,2,0,L|368:222,1,75,0|12,1:0|3:0,2:0:0:0:
304,332,42990,2,0,L|273:237,1,75,0|12,1:0|3:0,2:0:0:0:
87,159,43518,6,0,L|89:67,1,75.615,0|4,1:0|3:0,2:0:0:0:
184,87,44321,2,0,L|174:162,1,72.8,0|4,1:0|3:0,2:0:0:0:
273,111,45128,2,0,L|251:183,1,75,0|4,1:0|3:0,2:0:0:0:
189,358,45668,6,0,L|186:266,1,75,0|4,1:0|3:0,2:0:0:0:
91,286,46474,2,0,L|101:360,1,75,0|4,1:0|3:0,2:0:0:0:
2,310,47274,2,0,L|24:381,1,75,0|4,1:0|3:0,2:0:0:0:
79,133,47813,6,0,L|58:222,1,76.7475,0|4,1:0|3:0,2:0:0:0:
163,152,48614,2,0,L|152:240,1,88.684835231284,0|4,1:0|3:0,2:0:0:0:
242,152,49409,2,0,L|246:250,1,75,0|4,1:0|3:0,2:0:0:0:
345,352,49949,6,0,L|324:262,1,75.4725,0|8,1:0|3:0,2:0:0:0:
429,333,50745,2,0,L|418:244,1,75,0|8,1:0|3:0,2:0:0:0:
512,344,51543,1,0,1:0:0:0:
512,137,51835,6,0,B|494:172,3,37.5,0|0|0|0,1:0|1:0|1:0|1:0,2:0:0:0:
500,201,52070,6,0,L|338:161,1,150,4|0,1:0|1:0,0:0:0:0:
302,219,52475,2,0,L|153:241,1,150,4|0,3:2|1:0,0:0:0:0:
90,283,52880,2,0,L|269:310,1,175,4|0,1:2|2:0,0:0:0:0:
283,367,53291,2,0,L|193:380,1,75,4|0,3:2|2:0,2:0:0:0:
31,374,53675,6,0,L|22:308,5,50,8|8|12|12|4|4,3:0|3:0|3:0|3:0|3:0|3:0,2:0:0:0:
0,273,54190,6,0,P|62:205|156:220,1,175,14|0,1:3|1:0,0:0:0:0:
164,160,54597,2,0,P|253:179|287:268,1,175,14|0,1:3|1:0,0:0:0:0:
263,297,55004,2,0,P|354:301|391:241,1,150,14|0,1:3|1:0,0:0:0:0:
467,251,55411,2,0,P|516:173|504:130,1,125,14|0,1:3|2:0,2:0:0:0:
469,117,55728,5,0,1:0:0:0:
469,117,55818,1,8,3:0:0:0:
380,158,55999,2,0,L|330:142,1,50,8|4,3:0|3:0,2:0:0:0:
175,32,56356,6,0,L|9:57,2,165,4|4|4,3:1|3:0|3:0,0:0:0:0:
291,79,57071,1,0,1:0:0:0:
291,79,57161,1,4,3:0:0:0:
280,205,57340,1,8,3:0:0:0:
280,205,57429,2,0,L|149:177,1,110,4|4,3:0|3:2,0:0:0:0:
29,215,57832,6,0,L|-3:393,1,165,4|0,1:2|1:0,0:0:0:0:
91,377,58235,2,0,L|111:331,3,41.2500012588501,0|0|0|0,1:0|1:0|1:0|1:0,0:0:0:0:
86,297,58503,6,0,L|40:130,2,165,4|4|4,3:1|3:0|3:0,0:0:0:0:
212,332,59219,1,0,1:0:0:0:
212,332,59309,1,4,3:0:0:0:
318,280,59487,1,0,1:0:0:0:
318,280,59577,2,0,L|282:401,1,110,4|8,3:0|3:0,2:0:0:0:
196,247,59980,6,0,L|171:84,1,165,4|0,3:2|1:0,0:0:0:0:
209,36,60382,2,0,L|263:46,3,41.25,0|0|0|0,1:0|1:0|1:0|1:0,0:0:0:0:
279,78,60651,6,0,L|444:19,3,165,4|4|4|4,3:1|3:0|3:0|3:0,0:0:0:0:
482,138,61613,5,0,1:0:0:0:
482,138,61701,2,0,L|509:319,1,165,4|4,3:0|3:0,2:0:0:0:
457,384,62095,2,0,L|371:219,1,165,4|0,3:2|1:0,0:0:0:0:
284,215,62489,2,0,B|251:320,1,110,2|0,0:0|1:0,0:0:0:0:
202,352,62801,6,0,B|169:224,1,110,4|0,3:1|1:0,0:0:0:0:
122,226,63059,2,0,B|189:112,1,110,4|0,3:0|1:0,0:0:0:0:
154,80,63318,2,0,B|282:47,1,110,4|0,3:0|1:0,0:0:0:0:
293,2,63576,1,4,3:0:0:0:
379,103,63749,5,0,1:0:0:0:
379,103,63858,2,0,L|498:-16,1,165,4|4,3:0|3:0,2:0:0:0:
512,82,64254,2,0,L|500:292,1,192.5,4|0,3:2|1:0,0:0:0:0:
496,328,64650,1,0,1:0:0:0:
393,384,64827,1,0,1:0:0:0:
393,384,64918,1,6,3:2:0:0:
401,199,65185,5,8,3:0:0:0:
253,215,65453,1,8,3:0:0:0:
183,189,65587,1,4,3:0:0:0:
39,144,65855,6,0,L|64:340,1,192.5,4|0,1:1|2:0,0:0:0:0:
104,363,66257,2,0,L|192:341,1,82.5,4|0,3:0|2:0,0:0:0:0:
260,324,66525,1,8,3:0:0:0:
332,339,66659,1,4,3:0:0:0:
485,370,66946,6,0,L|460:174,1,192.5,4|0,1:1|1:0,0:0:0:0:
427,136,67339,5,8,3:0:0:0:
279,117,67601,1,4,3:0:0:0:
131,101,67863,5,4,3:0:0:0:
35,117,67995,2,0,L|292:161,1,247.5,4|4,1:1|3:0,0:0:0:0:
352,208,68525,2,0,L|-20:387,1,411.884012588501,0|4,1:0|1:2,2:0:0:0:
0,280,69469,5,12,3:0:0:0:
0,280,69741,1,12,3:0:0:0:
0,280,70013,1,12,3:0:0:0:
60,225,70195,5,0,0:0:0:0:
60,225,70285,2,0,L|126:234,6,55,8|8|8|4|0|12|4,1:2|3:0|3:0|3:0|3:0|3:0|3:0,2:0:0:0:
108,309,71101,6,0,L|77:131,1,165,2|0,1:2|2:0,2:0:0:0:
60,65,73541,5,6,0:0:0:0:
220,251,73804,1,4,1:3:0:0:
258,90,74068,1,4,1:3:0:0:
364,215,74332,1,4,1:3:0:0:
323,357,74595,6,0,L|350:76,1,270,4|4,3:1|3:1,2:0:0:0:
481,367,75655,6,0,L|451:272,1,90.0000000000001,6|0,3:2|1:0,2:0:0:0:
503,157,76089,1,0,1:0:0:0:
503,157,76176,2,0,L|419:112,1,90.0000000000001,4|0,3:0|1:0,2:0:0:0:
346,9,76611,1,0,1:0:0:0:
346,9,76699,2,0,L|239:29,1,90.0000000000001,4|8,3:0|3:0,2:0:0:0:
275,136,77097,5,4,3:1:0:0:
136,62,77406,2,0,L|114:103,1,45,0|2,1:0|3:0,2:0:0:0:
38,146,77672,5,4,1:2:0:0:
38,146,77761,2,0,L|58:238,1,90.0000000000001,4|0,3:0|1:0,2:0:0:0:
57,346,78162,5,0,1:0:0:0:
113,297,78296,2,0,L|209:315,1,90.0000000000001,4|0,3:0|1:0,2:0:0:0:
327,376,78743,1,0,1:0:0:0:
327,376,78832,2,0,L|309:268,1,90.0000000000001,4|8,3:0|3:0,2:0:0:0:
293,175,79234,5,4,3:1:0:0:
408,104,79502,2,0,L|396:177,1,67.5000000000001,0|0,1:0|2:0,2:0:0:0:
293,175,79814,5,0,2:0:0:0:
293,175,79899,2,0,L|201:195,1,90.0000000000001,4|0,3:2|1:0,2:0:0:0:
99,235,80304,1,0,1:0:0:0:
126,163,80439,2,0,L|141:56,1,90.0000000000001,4|0,3:0|1:0,2:0:0:0:
277,75,80889,1,0,1:0:0:0:
277,75,80980,2,0,L|335:-17,1,90.0000000000001,4|0,3:0|1:0,2:0:0:0:
450,1,81371,6,0,L|441:167,1,157.5,4|0,3:1|1:0,2:0:0:0:
437,203,81762,1,0,3:0:0:0:
365,355,82022,5,0,1:0:0:0:
289,381,82219,1,4,1:2:0:0:
279,280,82612,5,0,1:0:0:0:
204,250,82796,1,4,1:2:0:0:
165,337,83165,5,0,1:0:0:0:
87,357,83332,1,4,1:2:0:0:
204,250,83499,5,2,0:0:0:0:
220,257,83583,1,2,1:2:0:0:
235,265,83668,2,0,L|211:164,2,100,4|12|8,3:0|3:0|3:0,2:0:0:0:
109,216,84222,5,4,1:0:0:0:
43,95,84401,1,2,3:2:0:0:
14,224,84580,1,2,3:2:0:0:
28,93,84760,1,2,3:2:0:0:
96,207,84939,1,2,3:2:0:0:
38,84,85118,1,2,3:2:0:0:
2,210,85300,1,2,3:2:0:0:
21,84,85473,1,2,3:2:0:0:
93,193,85647,1,2,3:2:0:0:
35,68,85821,6,0,L|-18:57,2,50,2|0|0,3:2|2:0|2:0,0:0:0:0:
87,48,86082,2,0,L|122:-3,2,50,6|0|0,3:0|0:0|1:0,2:0:0:0:
112,97,86345,6,0,L|278:72,1,150,14|0,3:0|0:0,2:0:0:0:
286,123,86702,2,0,L|338:122,1,50,0|0,0:0|1:0,2:0:0:0:
377,164,86880,2,0,L|472:75,2,125,6|0|0,3:0|2:0|0:0,2:0:0:0:
368,214,87416,6,0,L|390:272,2,50,6|0|0,3:0|0:0|1:0,0:0:0:0:
313,205,87684,2,0,L|255:188,2,50,6|0|0,3:0|0:0|1:0,0:0:0:0:
306,260,87952,5,6,3:0:0:0:
286,367,88130,1,0,1:0:0:0:
456,384,88398,1,0,1:0:0:0:
462,248,88624,5,0,1:0:0:0:
493,171,88761,2,0,L|470:74,3,100,6|2|2|2,3:2|1:2|3:2|1:2,0:0:0:0:
382,19,89471,5,2,1:2:0:0:
248,46,89692,1,2,3:2:0:0:
166,14,89871,1,2,0:2:0:0:
17,212,90273,1,2,1:2:0:0:
148,382,90632,5,4,3:0:0:0:
224,303,90815,2,0,L|291:311,1,50,0|4,1:0|3:0,0:0:0:0:
331,368,91044,6,0,L|421:355,1,75,0|4,1:0|3:0,2:0:0:0:
484,383,91320,1,0,1:0:0:0:
390,269,91584,2,0,L|416:73,1,197.716969428524,2|4,1:2|3:0,0:0:0:0:
354,77,91980,6,0,L|344:21,1,50,12|8,3:0|3:0,0:0:0:0:
295,3,92159,1,4,1:0:0:0:
187,88,92383,1,2,1:2:0:0:
34,26,92652,1,2,1:2:0:0:
5,164,92877,5,4,2:3:0:0:
5,164,92966,1,4,2:3:0:0:
5,164,93055,2,0,L|25:227,2,50,6|0|0,3:2|3:0|3:0,2:0:0:0:
41,115,93323,6,0,L|160:128,1,100,2|0,1:2|3:3,0:0:0:0:
187,88,93591,2,0,L|207:25,2,50,2|0|0,1:2|3:0|3:3,0:0:0:0:
234,125,93859,2,0,L|254:188,2,50,2|0|0,1:2|3:3|3:3,0:0:0:0:
270,76,94127,6,0,L|389:89,1,100,2|0,1:2|3:3,0:0:0:0:
417,59,94395,2,0,L|437:-4,2,50,2|0|0,1:2|3:0|3:3,0:0:0:0:
464,96,94663,2,0,L|484:159,2,50,2|0|0,1:2|3:0|3:0,0:0:0:0:
430,139,94930,6,0,L|446:250,1,100,6|0,0:2|1:0,0:0:0:0:
494,272,95198,1,4,3:0:0:0:
494,272,95288,2,0,L|475:375,1,100,2|4,3:2|3:0,2:0:0:0:
421,379,95555,2,0,L|349:310,1,100,0|0,1:0|1:0,2:0:0:0:
321,296,95823,5,2,0:0:0:0:
321,296,95913,1,2,1:2:0:0:
321,296,96002,2,0,L|336:227,2,50,4|0|0,1:1|1:0|1:0,2:0:0:0:
283,335,96266,2,0,L|298:404,2,50,4|0|4,3:0|1:0|3:0,2:0:0:0:
233,310,96530,2,0,L|80:291,1,150,0|4,1:0|3:0,2:0:0:0:
36,320,96883,1,2,1:2:0:0:
12,142,97199,5,4,3:2:0:0:
12,142,97293,1,2,1:2:0:0:
105,209,97483,1,0,1:0:0:0:
105,209,97578,2,0,L|236:177,1,125,4|4,3:0|3:0,2:0:0:0:
279,197,97910,1,0,1:0:0:0:
392,167,98099,6,0,L|421:51,1,100,8|0,3:0|1:0,0:0:0:0:
464,43,98365,2,0,L|488:140,1,100,4|0,3:2|1:0,0:0:0:0:
499,194,98632,5,8,3:0:0:0:
438,249,98765,2,0,L|429:359,1,100,4|0,1:0|1:0,0:0:0:0:
331,254,99167,6,0,L|314:155,1,100,4|4,1:2|3:0,2:0:0:0:
260,146,99438,2,0,L|228:49,1,100,0|8,1:0|3:0,0:0:0:0:
181,22,99709,2,0,L|164:120,1,100,4|4,1:2|3:0,2:0:0:0:
110,130,99981,2,0,L|78:227,1,100,0|8,1:0|3:0,0:0:0:0:
30,253,100252,2,0,L|140:293,1,100,4|4,1:2|3:0,2:0:0:0:
173,261,100524,2,0,L|258:331,1,100,0|8,1:0|3:0,0:0:0:0:
257,379,100795,5,4,1:2:0:0:
128,369,100976,1,0,1:0:0:0:
128,369,101066,1,2,1:2:0:0:
0,362,101252,1,8,3:0:0:0:
0,362,101346,1,4,3:1:0:0:
246,239,104756,5,2,0:3:0:0:
246,239,104846,2,0,L|274:47,1,180,4|0,0:0|2:0,2:0:0:0:
308,20,105300,1,8,3:0:0:0:
308,20,105385,1,4,3:0:0:0:
410,10,105555,5,4,0:0:0:0:
410,10,105640,2,0,L|434:158,2,134.999995880127,4|2|8,3:1|0:0|0:2,0:0:0:0:
494,53,106634,6,0,L|440:233,1,180,4|12,3:0|3:0,0:0:0:0:
512,356,107294,1,8,0:2:0:0:
441,384,107426,1,2,0:0:0:0:
441,384,107515,1,2,0:3:0:0:
382,312,107692,2,0,L|242:291,1,135,10|2,0:0|3:2,2:0:0:0:
190,352,108335,6,0,L|204:396,6,33.9247489700318,8|0|0|0|0|0|2,1:2|1:2|1:2|1:2|1:2|1:2|3:0,2:0:0:0:
119,384,109968,6,0,L|100:278,1,100,4|0,3:1|1:0,0:0:0:0:
47,281,110231,2,0,L|66:168,1,100,8|0,3:0|1:0,0:0:0:0:
111,210,110495,2,0,L|205:259,1,100,8|0,3:0|1:0,0:0:0:0:
250,232,110759,2,0,L|412:208,1,150,8|4,3:0|3:0,0:0:0:0:
386,91,111198,6,0,L|336:64,1,50,0|4,1:0|3:0,2:0:0:0:
246,22,111462,1,0,1:0:0:0:
246,22,111550,2,0,L|273:137,1,100,4|0,3:0|1:0,0:0:0:0:
317,146,111814,1,4,3:0:0:0:
179,157,111989,5,0,1:0:0:0:
179,157,112076,2,0,L|76:119,1,100,6|0,3:0|1:0,0:0:0:0:
41,92,112341,2,0,L|-19:179,1,100,4|0,3:0|1:0,0:0:0:0:
14,220,112606,2,0,L|118:209,1,100,4|0,3:0|1:0,0:0:0:0:
132,261,112872,2,0,L|280:284,1,150,4|4,3:0|3:0,2:0:0:0:
385,246,113311,5,0,1:0:0:0:
385,246,113399,2,0,L|399:353,1,100,4|0,3:0|1:0,0:0:0:0:
441,380,113661,1,4,3:0:0:0:
509,274,113835,1,0,1:0:0:0:
509,274,113923,1,4,3:0:0:0:
380,169,114209,6,0,L|262:196,1,100,4|0,3:2|1:0,2:0:0:0:
261,243,114469,2,0,L|132:214,1,100,8|0,3:0|1:0,0:0:0:0:
137,172,114730,2,0,L|248:124,1,100,8|0,3:0|1:0,0:0:0:0:
231,77,114991,2,0,L|399:96,1,152.8125,8|4,3:0|3:0,0:0:0:0:
497,39,115454,5,0,1:0:0:0:
497,39,115542,2,0,L|334:9,1,150,4|4,3:0|3:0,0:0:0:0:
240,57,115978,5,0,1:0:0:0:
240,57,116066,2,0,L|133:85,1,100,4|0,3:0|1:2,0:0:0:0:
107,121,116340,6,0,L|157:210,1,100,4|0,3:1|1:0,2:0:0:0:
126,255,116602,2,0,L|224:282,1,100,8|0,3:0|1:0,0:0:0:0:
234,336,116865,2,0,L|323:285,1,100,8|0,3:0|1:0,2:0:0:0:
328,231,117127,2,0,L|485:259,1,149.4475,8|4,3:0|3:0,0:0:0:0:
505,361,117597,6,0,L|444:359,3,50,0|8|8|8,1:0|3:0|3:0|3:0,2:0:0:0:
416,319,117945,5,8,3:0:0:0:
387,326,118032,1,12,3:0:0:0:
361,335,118119,2,0,L|298:346,3,50,12|4|4|8,3:0|3:0|3:0|3:0,2:0:0:0:
263,367,118468,6,0,L|108:319,1,150,4|0,1:2|2:0,0:0:0:0:
80,250,118875,2,0,L|251:183,1,175,4|0,3:2|1:0,2:0:0:0:
268,138,119282,2,0,L|177:383,1,250,4|2,3:1|0:0,0:0:0:0:
154,381,119825,1,4,0:0:0:0:
298,287,120096,5,0,1:0:0:0:
416,316,120277,1,0,1:0:0:0:
416,316,120368,1,8,3:0:0:0:
501,175,120639,6,0,L|425:185,1,78.315,4|4,1:0|3:0,2:0:0:0:
489,90,121432,2,0,L|409:92,1,75.4975,0|4,1:0|3:0,2:0:0:0:
496,10,122229,2,0,L|421:-1,1,75,0|4,1:0|3:0,2:0:0:0:
265,35,122797,6,0,L|339:39,1,75,0|4,1:0|3:0,2:0:0:0:
259,121,123599,2,0,L|333:133,1,75,0|4,1:0|3:0,2:0:0:0:
238,198,124402,2,0,L|308:222,1,75,0|4,1:0|3:0,2:0:0:0:
171,382,124944,5,2,1:2:0:0:
141,282,125102,1,2,1:3:0:0:
16,221,125756,5,2,1:2:0:0:
46,121,125912,1,2,1:3:0:0:
180,100,126555,5,2,1:2:0:0:
150,0,126684,1,2,1:3:0:0:
205,190,127072,6,0,L|114:177,1,75,4|4,3:1|3:0,2:0:0:0:
194,275,127894,2,0,L|87:271,1,100.6,0|4,1:0|3:0,2:0:0:0:
201,355,128712,2,0,L|104:369,1,75,0|4,1:0|3:0,2:0:0:0:
292,287,129253,6,0,L|383:276,1,75,0|4,1:0|3:0,2:0:0:0:
280,202,130050,2,0,L|352:185,1,75,0|4,1:0|3:0,2:0:0:0:
253,126,130866,2,0,L|343:87,1,75,0|4,1:0|3:0,2:0:0:0:
509,58,131390,6,0,L|421:29,1,75.5325,0|4,1:0|3:0,2:0:0:0:
483,140,132203,2,0,L|409:124,1,77.23,0|4,1:0|3:0,2:0:0:0:
476,220,133001,2,0,L|378:216,1,75.5675,0|4,1:0|3:0,2:0:0:0:
230,222,133540,6,0,L|317:193,1,75.4725,0|8,1:0|3:0,2:0:0:0:
255,304,134354,2,0,L|328:288,1,75,0|8,1:0|3:0,2:0:0:0:
262,384,135139,2,0,L|359:380,1,75.4725,0|8,1:0|3:0,2:0:0:0:
73,324,135680,6,0,L|160:352,1,77.9375,0|4,1:0|3:0,2:0:0:0:
171,257,136477,2,0,L|98:242,1,75.475,0|4,1:0|3:0,2:0:0:0:
179,164,137289,2,0,L|105:162,1,75.4525,0|4,1:0|3:0,2:0:0:0:
276,190,137841,6,0,L|367:179,1,75,0|4,1:0|3:0,2:0:0:0:
336,87,138615,2,0,L|263:103,1,75,0|4,1:0|3:0,2:0:0:0:
304,0,139395,2,0,L|235:29,1,75,0|4,1:0|3:0,2:0:0:0:
107,117,139948,6,0,L|19:88,1,75,0|4,1:0|3:0,2:0:0:0:
81,199,140748,2,0,L|7:183,1,75,0|4,1:0|3:0,2:0:0:0:
74,279,141561,2,0,L|-23:275,1,75,0|4,1:0|3:0,2:0:0:0:
171,195,142106,6,0,L|262:205,1,75,0|8,1:0|3:0,2:0:0:0:
159,280,142916,2,0,L|231:296,1,76.3125,0|8,1:0|3:0,2:0:0:0:
132,355,143754,2,0,L|105:74,1,269.999991760254,0|4,1:0|1:0,2:0:0:0:
94,10,144790,5,2,0:0:0:0:
195,99,145056,1,2,1:2:0:0:
301,15,145322,1,2,0:0:0:0:
378,125,145588,1,0,0:0:0:0:
439,77,145721,1,2,0:0:0:0:
493,271,146120,5,2,0:0:0:0:
351,196,146386,1,2,1:2:0:0:
415,314,146652,1,2,0:0:0:0:
296,379,146918,1,0,0:0:0:0:
235,258,147184,2,0,L|83:229,1,150,2|0,1:2|2:0,2:0:0:0:
67,208,147640,6,0,L|58:170,9,30,0|0|0|0|0|0|0|0|0|0,2:0|0:0|2:0|2:0|2:0|2:0|2:0|2:0|2:0|2:0,2:0:0:0:
39,51,148512,1,0,1:0:0:0:
39,51,149050,5,2,0:0:0:0:
163,104,149319,1,0,1:0:0:0:
205,40,149453,1,2,0:0:0:0:
359,171,149857,1,0,0:0:0:0:
469,93,150126,1,2,1:2:0:0:
387,69,150305,1,0,2:0:0:0:
387,69,150395,1,2,0:0:0:0:
293,205,150669,5,2,1:2:0:0:
417,257,150933,1,2,0:0:0:0:
304,331,151197,1,0,0:0:0:0:
429,380,151461,1,2,1:2:0:0:
159,366,151990,5,2,0:0:0:0:
41,300,152254,6,0,L|-5:312,5,38.5714285714286,0|0|0|0|0|0,1:0|2:0|2:0|2:0|2:0|2:0,2:0:0:0:
12,229,152786,1,4,1:2:0:0:
12,229,153324,5,2,0:0:0:0:
109,267,153593,2,0,L|120:323,2,52.4999999999999,0|0|2,1:0|0:0|0:0,0:0:0:0:
160,175,154131,2,0,L|171:119,2,52.4999999999999,0|0|2,0:0|2:0|1:2,2:0:0:0:
202,270,154669,1,0,0:0:0:0:
287,335,154941,2,0,L|318:227,1,105,2|0,1:2|0:0,2:0:0:0:
414,197,155474,5,2,0:0:0:0:
372,100,155741,1,0,1:0:0:0:
309,144,155918,1,2,3:2:0:0:
222,33,156274,5,0,0:0:0:0:
172,91,156452,1,0,0:0:0:0:
172,91,156541,2,0,L|107:107,1,52.4999999999999,0|2,1:0|3:2,0:0:0:0:
7,290,157070,5,0,1:0:0:0:
7,290,157612,5,0,0:0:0:0:
80,251,157793,1,0,0:0:0:0:
80,251,157884,1,2,1:2:0:0:
142,335,158155,6,0,L|251:354,1,105,2|0,0:0|0:0,0:0:0:0:
296,244,158698,2,0,L|406:232,1,105,2|2,1:2|0:0,0:0:0:0:
492,353,159240,5,4,3:1:0:0:
347,314,159507,1,2,2:0:0:0:
203,271,159775,1,0,0:0:0:0:
272,138,160043,1,2,1:2:0:0:
324,32,160266,5,0,2:0:0:0:
29,24,160757,5,0,1:0:0:0:
29,24,160845,2,0,L|46:128,1,100,0|8,1:0|3:0,0:0:0:0:
14,162,161097,1,4,3:0:0:0:
84,239,161265,5,0,1:0:0:0:
84,239,161349,2,0,L|131:89,1,150,4|0,0:0|1:0,0:0:0:0:
203,61,161769,2,0,L|250:211,1,150,4|0,0:0|1:0,0:0:0:0:
322,239,162190,2,0,L|369:89,1,148.93,4|0,0:0|1:0,0:0:0:0:
428,43,162599,2,0,L|475:193,1,150,4|0,0:0|0:0,0:0:0:0:
511,259,162992,6,0,L|497:318,1,50,0|0,1:0|1:0,2:0:0:0:
452,318,163166,2,0,L|417:369,3,50,8|8|4|4,3:0|3:0|3:0|3:0,2:0:0:0:
386,370,163516,6,0,P|367:279|311:251,1,150,14|0,1:3|1:0,0:0:0:0:
301,180,163930,2,0,P|214:150|151:192,1,150,14|0,1:3|1:0,0:0:0:0:
148,255,164345,2,0,P|67:211|59:116,1,175,14|0,1:3|1:0,0:0:0:0:
0,122,164738,2,0,P|-1:29|44:-2,1,150,14|0,1:3|1:0,0:0:0:0:
117,15,165130,5,8,3:0:0:0:
226,0,165309,1,0,1:0:0:0:
445,47,165667,6,0,L|361:104,1,100,4|0,1:0|1:0,2:0:0:0:
500,154,166193,6,0,L|399:172,1,100,0|0,1:0|1:0,2:0:0:0:
232,189,166631,5,0,1:0:0:0:
232,189,166718,2,0,L|333:207,1,100,4|0,3:0|1:0,2:0:0:0:
494,281,167270,6,0,L|381:247,1,100,0|0,1:0|1:0,2:0:0:0:
159,299,167826,6,0,L|46:333,1,100,4|0,1:2|1:0,2:0:0:0:
144,216,168356,6,0,L|32:203,1,100,0|0,1:0|1:0,2:0:0:0:
164,133,168799,5,0,1:0:0:0:
164,133,168887,2,0,L|112:117,8,41.25,0|0|0|0|4|4|4|4|4,1:0|3:0|3:0|3:0|3:0|3:0|3:0|3:0|3:2,2:0:0:0:
355,7,169950,6,0,L|521:-10,2,165,4|4|4,3:1|3:0|3:0,0:0:0:0:
271,94,170661,1,0,1:0:0:0:
271,94,170750,1,4,3:0:0:0:
355,187,170927,1,0,1:0:0:0:
355,187,171016,2,0,L|405:64,1,110,4|4,3:0|3:2,0:0:0:0:
441,261,171461,6,0,L|258:280,1,165.000005035401,4|0,3:2|1:0,2:0:0:0:
136,286,171950,5,0,1:0:0:0:
117,366,172083,2,0,L|47:198,2,165,4|4|4,3:1|3:0|3:0,0:0:0:0:
240,384,172794,1,0,1:0:0:0:
240,384,172883,1,4,3:0:0:0:
279,271,173061,1,0,1:0:0:0:
279,271,173150,2,0,L|161:304,1,110,4|4,3:0|3:2,2:0:0:0:
266,180,173550,6,0,L|242:-20,1,192.5,4|0,3:2|1:0,0:0:0:0:
129,131,174127,5,0,1:0:0:0:
129,131,174216,2,0,L|71:298,3,165,4|4|4|4,3:0|3:0|3:0|3:0,0:0:0:0:
166,384,175194,5,0,1:0:0:0:
166,384,175283,2,0,L|193:203,1,165,4|4,3:0|3:0,2:0:0:0:
279,199,175683,2,0,L|369:383,1,192.5,4|0,3:2|1:0,0:0:0:0:
423,379,176083,1,4,3:0:0:0:
483,284,176261,5,0,1:0:0:0:
483,284,176350,2,0,L|451:165,1,110,4|0,3:1|1:0,0:0:0:0:
485,125,176616,2,0,L|378:63,1,110,8|0,3:0|1:0,0:0:0:0:
373,12,176883,2,0,L|254:44,1,110,8|0,3:0|1:0,0:0:0:0:
220,0,177150,1,8,3:0:0:0:
136,87,177327,5,0,1:0:0:0:
136,87,177416,2,0,L|298:130,1,165,4|4,3:0|3:0,2:0:0:0:
191,192,177861,6,0,L|204:374,1,165,4|0,3:2|1:0,2:0:0:0:
257,383,178216,1,4,3:0:0:0:
344,299,178394,1,0,1:0:0:0:
344,299,178483,1,0,1:0:0:0:
500,207,178750,5,8,3:0:0:0:
320,227,179016,1,4,3:0:0:0:
236,189,179150,1,4,3:0:0:0:
61,122,179420,6,0,L|88:337,1,192.5,4|0,1:0|1:0,0:0:0:0:
122,359,179814,2,0,L|210:337,1,82.5,8|0,3:0|0:0,0:0:0:0:
287,309,180077,1,8,3:0:0:0:
383,357,180253,1,4,3:0:0:0:
493,221,180518,6,0,L|470:44,1,165,4|0,1:0|1:0,2:0:0:0:
425,19,180885,5,8,3:0:0:0:
245,46,181161,1,8,3:0:0:0:
77,78,181436,5,4,3:0:0:0:
29,164,181574,2,0,L|287:190,1,247.5,4|8,1:0|3:0,2:0:0:0:
327,115,182104,2,0,L|-13:-4,1,357.500010910034,0|2,1:0|3:0,2:0:0:0:
2,51,182771,1,4,1:2:0:0:
113,341,183221,5,0,1:0:0:0:
113,341,183311,2,0,L|274:354,1,150,4|4,3:0|3:0,0:0:0:0:
299,252,183761,5,0,1:0:0:0:
299,252,183851,2,0,L|138:265,1,150,4|4,3:0|3:0,2:0:0:0:
109,166,184285,5,8,3:0:0:0:
109,166,184372,1,4,3:0:0:0:
68,93,184503,2,0,L|201:74,1,125,0|0,0:0|2:0,0:0:0:0:
233,38,184807,5,8,3:0:0:0:
233,38,184893,2,0,L|206:155,1,100,4|0,3:2|1:0,0:0:0:0:
237,183,185161,2,0,L|327:128,1,100,0|0,0:0|1:0,0:0:0:0:
379,151,185429,1,8,3:0:0:0:
379,151,185519,2,0,L|390:222,5,50,0|4|4|4|4|2,0:0|3:0|3:0|3:0|3:0|0:0,2:0:0:0:
490,51,186235,5,0,0:0:0:0:
490,51,186324,2,0,L|479:122,5,50,4|4|8|8|8|2,3:0|3:0|3:0|3:0|3:0|0:0,0:0:0:0:
344,16,187039,6,0,L|407:162,1,150,2|0,3:2|3:0,2:0:0:0:
504,209,187495,1,0,2:0:0:0:
504,209,187586,2,0,L|483:299,2,75,4|4|4,3:0|3:0|3:0,3:0:0:0:
403,153,188043,5,0,2:0:0:0:
403,153,188134,2,0,L|335:162,7,37.5,8|0|8|0|8|0|8|0,3:0|1:0|3:0|1:0|3:0|1:0|3:0|1:0,2:0:0:0:
341,191,188682,2,0,L|273:182,8,37.5,8|0|8|0|8|0|8|0|0,3:0|1:0|3:0|1:0|3:0|1:0|3:0|1:0|0:0,2:0:0:0:
304,92,191422,5,6,0:0:0:0:
144,278,191682,1,4,3:0:0:0:
106,117,191943,1,4,3:0:0:0:
0,242,192204,1,4,3:0:0:0:
41,384,192465,6,0,L|14:103,1,270,4|4,3:1|3:1,0:0:0:0:
42,43,193541,6,0,L|147:66,1,100,6|0,3:2|1:0,0:0:0:0:
151,118,193803,2,0,L|256:95,1,100,6|0,3:0|1:0,0:0:0:0:
260,43,194065,2,0,L|365:66,1,100,6|0,3:0|1:0,0:0:0:0:
369,118,194327,2,0,L|474:95,1,100,6|0,3:0|1:0,0:0:0:0:
512,131,194591,5,6,3:0:0:0:
471,234,194763,1,8,3:0:0:0:
471,234,194849,1,4,3:0:0:0:
512,307,194978,2,0,L|329:320,1,175,6|0,3:2|1:0,0:0:0:0:
299,360,195366,1,6,3:0:0:0:
218,299,195539,5,0,1:0:0:0:
218,299,195627,2,0,L|134:377,1,100,4|0,3:1|1:0,0:0:0:0:
107,326,195893,2,0,L|-6:311,1,100,6|0,3:0|1:0,0:0:0:0:
10,258,196159,2,0,L|-28:150,1,100,6|0,3:0|1:0,0:0:0:0:
29,147,196425,2,0,L|86:47,1,100,6|0,3:0|1:0,0:0:0:0:
57,9,196691,5,6,3:0:0:0:
169,0,196868,1,0,1:0:0:0:
169,0,196957,1,4,3:0:0:0:
202,75,197090,2,0,L|380:24,1,175,6|0,3:2|1:0,2:0:0:0:
417,55,197489,1,6,3:0:0:0:
481,164,197666,5,0,1:0:0:0:
481,164,197755,2,0,L|382:133,1,100,4|0,3:1|1:0,0:0:0:0:
356,182,198021,2,0,L|252:178,1,100,6|0,3:0|1:0,0:0:0:0:
241,232,198287,2,0,L|140:255,1,100,6|0,3:0|1:0,0:0:0:0:
143,310,198553,2,0,L|51:358,1,100,6|0,3:0|1:0,0:0:0:0:
7,328,198819,2,0,L|29:224,1,100,6|0,3:0|1:0,0:0:0:0:
131,140,199219,6,0,L|97:-9,2,150,6|2|0,3:2|1:2|1:0,0:0:0:0:
245,15,200076,5,0,1:0:0:0:
245,15,200163,2,0,L|296:118,1,100,6|0,3:0|1:0,0:0:0:0:
342,119,200426,2,0,L|291:222,1,100,6|0,3:0|1:0,0:0:0:0:
245,223,200690,2,0,L|296:326,1,100,6|0,3:0|1:0,0:0:0:0:
258,358,200953,5,6,3:0:0:0:
152,350,201128,1,0,1:0:0:0:
152,350,201216,1,4,3:0:0:0:
47,382,201391,2,0,L|26:213,1,150,6|0,3:2|1:0,0:0:0:0:
3,184,201742,1,4,3:0:0:0:
72,67,201961,1,0,1:0:0:0:
72,67,202049,1,4,3:1:0:0:
237,142,202318,6,0,L|441:117,1,206.25,4|0,3:0|3:0,2:0:0:0:
481,137,202721,2,0,L|463:181,3,41.25,0|8|4|0,3:0|3:0|3:0|3:0,2:0:0:0:
449,213,202990,1,4,3:1:0:0:
489,377,203259,5,0,1:0:0:0:
489,377,203349,2,0,L|331:360,1,151.25,0|0,2:0|3:0,2:0:0:0:
305,329,203664,2,0,L|323:285,3,41.25,4|0|8|4,3:0|3:0|3:0|3:0,0:0:0:0:
337,253,203933,1,4,3:0:0:0:
251,223,204068,1,4,3:1:0:0:
112,340,204338,6,0,L|67:166,1,165,0|0,1:0|1:0,2:0:0:0:
18,149,204697,1,0,2:0:0:0:
93,53,204877,2,0,L|106:2,3,41.25,8|8|4|0,3:0|3:0|3:0|2:0,2:0:0:0:
147,3,205147,5,4,3:1:0:0:
328,1,205416,1,0,1:0:0:0:
328,1,205506,2,0,L|309:119,1,110,0|0,2:0|1:0,2:0:0:0:
260,133,205776,2,0,L|279:249,1,110,4|8,3:0|3:0,0:0:0:0:
246,293,206046,1,4,3:0:0:0:
342,364,206225,5,2,0:0:0:0:
415,348,206358,2,0,L|436:235,1,100,4|0,3:2|1:0,0:0:0:0:
484,230,206622,2,0,L|463:117,1,100,4|0,3:0|1:0,0:0:0:0:
417,105,206886,2,0,L|308:149,1,100,4|0,3:0|1:0,0:0:0:0:
293,188,207150,1,8,3:0:0:0:
189,149,207327,1,0,1:0:0:0:
86,189,207503,6,0,L|64:127,5,50,0|0|0|0|0|4,1:0|1:0|1:0|1:0|1:0|3:1,2:0:0:0:
35,112,208028,1,0,1:0:0:0:
35,112,208114,2,0,L|45:55,4,50,0|0|0|0|4,1:0|1:0|1:0|1:0|1:2,2:0:0:0:
305,256,212072,5,4,3:1:0:0:
256,192,212140,12,0,218181,0:0:0:0:
172,213,218710,5,6,1:2:0:0:
333,194,218945,1,6,1:2:0:0:
