osu file format v14

[General]
AudioFilename: okami no uta.mp3
AudioLeadIn: 0
PreviewTime:552
Countdown: 0
SampleSet: Soft
StackLeniency: 0.2
Mode: 0
LetterboxInBreaks: 0
WidescreenStoryboard: 0

[Editor]
Bookmarks: 17802,28496,56356,75655,84222,101346,109968,120639,144258,169950,193541,212072
DistanceSpacing: 0.8
BeatDivisor: 6
GridSize: 16
TimelineZoom: 6.399998

[Metadata]
Title:Ookami no Uta
TitleUnicode:狼の詩
Artist:ATARASHII GAKKO!
ArtistUnicode:新しい学校のリーダーズ
Creator:Fisky
Version:Desolate Wolf
Source:
Tags:yudragen laura- -tatsuo jasontime12345 Mizunashi Akari atarashii gakkou no leaders new school wakage gaitaru suzuka H ZETTRIO 阿久悠 ZETT M j-pop jpop pop jazz japanese piano victor entertainment single 2018
BeatmapID:3191492
BeatmapSetID:1562875

[Difficulty]
HPDrainRate:5
CircleSize:4
OverallDifficulty:8.3
ApproachRate:9.8
SliderMultiplier:2
SliderTickRate:1

[Events]
//Background and Video events
0,0,"bg okami no uta.jpg",0,0
//Break Periods
2,101546,104277
//Storyboard Layer 0 (Background)
//Storyboard Layer 1 (Fail)
//Storyboard Layer 2 (Pass)
//Storyboard Layer 3 (Foreground)
//Storyboard Layer 4 (Overlay)
//Storyboard Sound Samples

[TimingPoints]
622,277.777777777778,4,2,1,60,1,0
1733,269.058295964126,4,2,1,60,1,0
2808,266.903914590747,4,2,1,60,1,0
4573,266.903914590747,4,2,1,60,1,0
4573,-50,4,2,1,80,0,0
5113,269.299820466786,4,2,1,80,1,0
5113,-50,4,2,1,80,0,0
5920,-44.011553589092,4,2,1,80,0,0
6016,263.736263736264,4,2,1,80,1,0
6191,-50,4,2,1,80,0,0
7067,270.27027027027,4,2,1,80,1,0
9230,263.157894736842,4,2,1,80,1,0
9230,-50,4,2,1,80,0,0
10194,-50.7300000000001,4,2,1,80,0,0
10283,259.74025974026,4,2,1,80,1,0
11323,272.108843537415,4,2,1,80,1,0
11323,-50,4,2,1,80,0,0
12320,-50.1878385690982,4,2,1,80,0,0
12417,264.31718061674,4,2,1,80,1,0
13473,269.058295964126,4,2,1,80,1,0
13473,-50,4,2,1,80,0,0
14549,250,4,2,1,80,1,0
15235,257.510729613734,4,2,1,80,1,0
15580,288.461538461538,4,2,1,80,1,0
16736,266.666666666667,4,2,1,80,1,0
17447,-50,4,2,1,80,0,0
17802,275.229357798165,4,2,1,80,1,0
18903,264.900662251656,4,2,1,80,1,0
19432,-71.4285714285714,4,2,1,80,0,0
19962,260.869565217392,4,2,1,80,1,0
21018,263.157894736842,4,2,1,80,1,0
21281,-71.4285714285714,4,2,1,80,0,0
22070,267.857142857143,4,2,1,80,1,0
23141,260.869565217391,4,2,1,80,1,0
23401,-71.4285714285714,4,2,1,80,0,0
24196,270.27027027027,4,2,1,80,1,0
25282,260.869565217391,4,2,1,80,1,0
26326,284.36018957346,4,2,1,80,1,0
26753,257.510729613734,4,2,1,80,1,0
27140,283.018867924528,4,2,1,80,1,0
27894,317.460317460317,4,2,1,50,1,0
28000,247.933884297521,4,2,1,80,1,0
28496,361.44578313253,4,2,1,80,1,0
28496,-50,4,2,1,60,0,0
28677,269.058295964126,4,2,1,60,1,0
29306,240,4,2,1,60,1,0
29306,-66.6666666666667,4,2,1,60,0,0
29466,260.869565217391,4,2,1,60,1,0
30119,294.117647058824,4,2,1,60,1,0
30119,-50,4,2,1,60,0,0
30266,267.857142857143,4,2,1,60,1,0
30667,-51.1466666666666,4,2,1,60,0,0
30804,262.008733624454,4,2,1,60,1,0
31458,306.122448979592,4,2,1,60,1,0
31458,-50,4,2,1,60,0,0
31611,257.510729613734,4,2,1,60,1,0
32254,-50,4,2,1,60,0,0
32771,337.078651685393,4,2,1,60,1,0
32940,265.486725663717,4,2,1,60,1,0
33605,312.5,4,2,1,60,1,0
33761,248.96265560166,4,2,1,60,1,0
34384,337.078651685393,4,2,1,60,1,0
34553,248.96265560166,4,2,1,60,1,0
34927,288.461538461538,4,2,1,60,1,0
34927,-50,4,2,1,60,0,0
35071,269.058295964126,4,2,1,60,1,0
35744,298.507462686567,4,2,1,60,1,0
35744,-50,4,2,1,60,0,0
35893,263.157894736842,4,2,1,60,1,0
36551,304.568527918782,4,2,1,60,1,0
36551,-50,4,2,1,60,0,0
36703,267.857142857143,4,2,1,60,1,0
37105,317.460317460317,4,2,1,60,1,0
37105,-50,4,2,1,60,0,0
37264,255.31914893617,4,2,1,60,1,0
37902,300,4,2,1,60,1,0
37902,-50,4,2,1,60,0,0
38052,262.008733624454,4,2,1,60,1,0
38706,301.507537688442,4,2,1,60,1,0
38706,-50,4,2,1,60,0,0
38857,258.620689655172,4,2,1,60,1,0
39244,-51.0400000000001,4,2,1,60,0,0
39376,269.058295964126,4,2,1,60,1,0
40048,-50,4,2,1,60,0,0
40855,-50,4,2,1,60,0,0
41393,-50,4,2,1,60,0,0
41524,263.157894736842,4,2,1,60,1,0
42183,288.461538461538,4,2,1,60,1,0
42183,-50,4,2,1,60,0,0
42327,265.486725663717,4,2,1,60,1,0
42990,-50,4,2,1,60,0,0
43518,243.90243902439,4,2,1,60,1,0
43518,-50,4,2,1,60,0,0
43640,272.727272727273,4,2,1,60,1,0
44321,-48.4,4,2,1,60,0,0
44453,270.02700270027,4,2,1,60,1,0
45128,-50,4,2,1,60,0,0
45668,-50,4,2,1,60,0,0
46474,298.507462686567,4,2,1,60,1,0
46474,-50,4,2,1,60,0,0
46623,260.869565217391,4,2,1,60,1,0
47274,306.122448979592,4,2,1,60,1,0
47274,-50,4,2,1,60,0,0
47427,257.510729613734,4,2,1,60,1,0
47813,-50.8716666666666,4,2,1,60,0,0
47944,268.000714668572,4,2,1,60,1,0
48614,-52.2386666666668,4,2,1,60,0,0
48754,262.008733624454,4,2,1,60,1,0
49409,-49.9983333333334,4,2,1,60,0,0
49540,272.727272727273,4,2,1,60,1,0
49949,317.460317460317,4,2,1,60,1,0
49949,-50,4,2,1,60,0,0
50108,255.31914893617,4,2,1,60,1,0
50745,304.568527918782,4,2,1,60,1,0
50745,-50,4,2,1,60,0,0
50897,258.620689655172,4,2,1,60,1,0
51543,-50.6533333333334,4,2,1,60,0,0
51674,322.58064516129,4,2,1,60,1,0
51835,235.294117647059,4,2,1,40,1,0
52070,270.27027027027,4,2,1,70,1,0
53291,256.410256410256,4,2,1,70,1,0
54190,271.493212669683,4,2,1,70,1,0
54190,-62.5,4,2,1,70,0,0
56356,268.456375838926,4,2,1,80,1,0
60651,262.582056892779,4,2,1,80,1,0
62801,258.620689655172,4,2,1,80,1,0
63858,264.31718061674,4,2,1,80,1,0
64918,267.857142857143,4,2,1,80,1,0
66946,262.008733624454,4,2,1,80,1,0
67995,265.486725663717,4,2,1,80,1,0
69198,271.985494106981,4,2,1,80,1,0
71645,-125,4,2,1,80,0,0
71849,-125,4,2,1,5,0,0
71917,-100,4,2,1,80,0,0
72121,-125,4,2,1,5,0,0
72189,-125,4,2,1,80,0,0
72393,-125,4,2,1,5,0,0
72456,271.493212669683,4,2,1,80,1,0
72456,-83.3333333333333,4,2,1,80,0,0
72659,-83.3333333333333,4,2,1,5,0,0
72727,-83.3333333333333,4,2,1,80,0,0
72931,-83.3333333333333,4,2,1,5,0,0
72998,-125,4,2,1,80,0,0
73202,-83.3333333333333,4,2,1,5,0,0
73270,-83.3333333333333,4,2,1,80,0,0
73541,263.736263736264,4,2,1,80,1,0
75655,260.869565217391,4,2,1,80,1,0
75655,-50,4,2,1,80,0,0
76699,265.486725663717,4,2,1,80,1,0
76699,-50,4,2,1,80,0,0
77761,267.857142857143,4,2,1,80,1,0
77761,-50,4,2,1,80,0,0
79814,-52.8888905029297,4,2,1,80,0,0
79899,270.27027027027,4,2,1,80,1,0
79899,-50,4,2,1,80,0,0
80980,260.869565217391,4,2,1,80,1,0
80980,-55.5555555555556,4,2,1,80,0,0
82022,295.566502463054,4,2,1,80,1,0
82612,276.497695852535,4,2,1,80,1,0
83165,251.046025104603,4,2,1,80,1,0
83668,276.497695852535,4,2,1,80,1,0
83668,-50,4,2,1,80,0,0
84222,269.058295964126,4,2,1,80,1,1
85300,260.869565217391,4,2,1,80,1,1
86345,267.857142857143,4,2,1,80,1,1
88488,273.972602739726,4,2,1,80,1,1
89037,260.869565217391,4,2,1,80,1,1
89559,267.857142857143,4,2,1,80,1,1
90632,275.229357798165,4,2,1,80,1,1
91457,254.237288135593,4,2,1,80,1,1
91711,269.058295964126,4,2,1,80,1,1
92788,267.857142857143,4,2,1,80,1,1
95483,-66.6666666666667,4,2,1,80,0,1
96002,264.31718061674,4,2,1,80,1,1
97057,284.36018957346,4,2,1,80,1,1
98099,266.666666666667,4,2,1,80,1,1
99167,271.493212669683,4,2,1,80,1,1
101066,280.373831775701,4,2,1,80,1,0
101623,295.566502463054,4,2,1,60,1,0
101919,269.058295964126,4,2,1,60,1,0
102188,304.568527918782,4,2,1,60,1,0
102340,269.058295964126,4,2,1,60,1,0
103414,242.914979757085,4,2,1,60,1,0
103779,287.081339712919,4,2,1,60,1,0
104210,257.510729613734,4,2,1,60,1,0
104596,320.855614973262,4,2,1,60,1,0
104756,271.493212669683,4,2,1,60,1,0
105300,255.31914893617,4,2,1,60,1,0
105555,-100,4,2,1,40,0,0
105640,271.493212669683,4,2,1,60,1,0
106182,301.507537688442,4,2,1,60,1,0
106634,264.31718061674,4,2,1,60,1,0
107692,257.510729613734,4,2,1,60,1,0
108335,-100,4,2,1,40,0,0
108723,310.880829015544,4,2,1,60,1,0
109968,263.736263736264,4,2,1,80,1,0
111550,-71.4285714285714,4,2,1,80,0,0
112076,265.486725663717,4,2,1,80,1,0
113137,262.008733624455,4,2,1,80,1,0
113359,-71.4285714285714,4,2,1,80,0,0
114209,260.869565217392,4,2,1,80,1,0
115280,262.008733624454,4,2,1,80,1,0
115542,-71.4285714285714,4,2,1,80,0,0
116340,262.582056892779,4,2,1,80,1,0
117424,260.869565217391,4,2,1,80,1,0
118468,271.493212669683,4,2,1,80,1,0
120006,-100,4,2,1,50,0,0
120096,-100,4,2,1,80,0,0
120639,-51.9785502801825,4,2,1,60,0,0
120780,260.869565217391,4,2,1,60,1,0
121432,301.507537688442,4,2,1,60,1,0
121432,-50,4,2,1,60,0,0
121583,258.620689655172,4,2,1,60,1,0
122229,294.117647058824,4,2,1,60,1,0
122229,-50,4,2,1,60,0,0
122376,280.373831775701,4,2,1,60,1,0
122797,324.324324324324,4,2,1,60,1,0
122797,-50,4,2,1,60,0,0
122959,256.410256410256,4,2,1,60,1,0
123599,306.122448979592,4,2,1,60,1,0
123599,-50,4,2,1,60,0,0
123752,259.74025974026,4,2,1,60,1,0
124402,306.122448979592,4,2,1,60,1,0
124402,-50,4,2,1,60,0,0
124555,259.74025974026,4,2,1,60,1,0
124944,315.789473684211,4,2,1,60,1,0
125102,262.008733624454,4,2,1,60,1,0
125756,312.5,4,2,1,60,1,0
125912,257.510729613734,4,2,1,60,1,0
127072,346.820809248555,4,2,1,60,1,0
127072,-50,4,2,1,60,0,0
127245,277.777777777778,4,2,1,60,1,0
127894,250,4,2,1,60,1,0
127894,-66.8,4,2,1,60,0,0
128061,260.869565217391,4,2,1,60,1,0
128712,300,4,2,1,60,1,0
128712,-50,4,2,1,60,0,0
128862,260.869565217391,4,2,1,60,1,0
129253,314.13612565445,4,2,1,60,1,0
129253,-50,4,2,1,60,0,0
129410,256.410256410256,4,2,1,60,1,0
130050,355.029585798817,4,2,1,60,1,0
130050,-50,4,2,1,60,0,0
130227,255.31914893617,4,2,1,60,1,0
130866,292.682926829268,4,2,1,60,1,0
130866,-50,4,2,1,60,0,0
131012,252.100840336134,4,2,1,60,1,0
131390,281.69014084507,4,2,1,60,1,0
131390,-50,4,2,1,60,0,0
131531,269.058295964126,4,2,1,60,1,0
132203,-51.1387252711438,4,2,1,60,0,0
132341,264.31718061674,4,2,1,60,1,0
133001,-50,4,2,1,60,0,0
133134,270.27027027027,4,2,1,60,1,0
133540,317.460317460317,4,2,1,60,1,0
133699,262.008733624454,4,2,1,60,1,0
135139,317.460317460317,4,2,1,60,1,0
135298,255.31914893617,4,2,1,60,1,0
135680,-51.7,4,2,1,60,0,0
135812,265.486725663717,4,2,1,60,1,0
136477,315.789473684211,4,2,1,60,1,0
136477,-50,4,2,1,60,0,0
136635,262.008733624454,4,2,1,60,1,0
137289,331.491712707182,4,2,1,60,1,0
137289,-50,4,2,1,60,0,0
137455,257.510729613734,4,2,1,60,1,0
137841,-50,4,2,1,60,0,0
138615,355.029585798817,4,2,1,60,1,0
138615,-50,4,2,1,60,0,0
138792,240.963855421687,4,2,1,60,1,0
139395,352.941176470588,4,2,1,60,1,0
139395,-50,4,2,1,60,0,0
139571,251.046025104603,4,2,1,60,1,0
139948,294.117647058824,4,2,1,60,1,0
139948,-50,4,2,1,60,0,0
140095,326.086956521739,4,2,1,60,1,0
140748,368.098159509202,4,2,1,60,1,0
140748,-50,4,2,1,60,0,0
140932,252.100840336134,4,2,1,60,1,0
141561,306.122448979592,4,2,1,60,1,0
141561,-50,4,2,1,60,0,0
141714,260.869565217391,4,2,1,60,1,0
142106,348.837209302326,4,2,1,60,1,0
142106,-50,4,2,1,60,0,0
142280,255.31914893617,4,2,1,60,1,0
142916,342.857142857143,4,2,1,60,1,0
142916,-47.7701278516224,4,2,1,60,0,0
143090,265.486725663717,4,2,1,60,1,0
143754,252.100840336134,4,2,1,60,1,0
143754,-166.666666666667,4,2,1,60,0,0
144258,266.075388026608,4,2,1,60,1,0
144258,-66.6666666666667,4,2,1,60,0,0
147184,-133.333333333333,4,2,1,60,0,0
148512,269.058295964126,4,2,1,60,1,0
148512,-66.6666666666667,4,2,1,60,0,0
150669,264.31718061674,4,2,1,60,1,0
150669,-66.6666666666667,4,2,1,60,0,0
152786,269.058295964126,4,2,1,60,1,0
152786,-66.6666666666667,4,2,1,60,0,0
154941,266.666666666667,4,2,1,60,1,0
154941,-66.6666666666667,4,2,1,60,0,0
157070,271.493212669683,4,2,1,60,1,0
157070,-66.6666666666667,4,2,1,60,0,0
159240,267.857142857143,4,2,1,60,1,0
160043,-66.6666666666667,4,2,1,60,0,0
160845,252.100840336134,4,2,1,60,1,0
161349,280.373831775701,4,2,1,70,1,0
162468,262.008733624454,4,2,1,70,1,0
163516,276.497695852535,4,2,1,70,1,0
163516,-62.5,4,2,1,70,0,0
164345,262.008733624454,4,2,1,70,1,0
164345,-62.5,4,2,1,70,0,0
165130,269.058295964126,4,2,1,70,1,0
165667,263.157894736842,4,2,1,60,1,0
166718,276.497695852535,4,2,1,60,1,0
167826,265.486725663717,4,2,1,60,1,0
169950,266.666666666667,4,2,1,80,1,0
179420,263.157894736842,4,2,1,80,1,0
180473,275.229357798165,4,2,1,80,1,0
181574,265.486725663717,4,2,1,80,1,0
182771,270.27027027027,4,2,1,80,1,0
182771,-83.3333333333333,4,2,1,80,0,0
183851,260.869565217391,4,2,1,80,1,0
184893,268.456375838926,4,2,1,80,1,0
187039,273.972602739726,4,2,1,80,1,0
187586,-66.6666666666667,4,2,1,80,0,0
188134,-66.6666666666667,4,2,1,90,0,0
189504,-125,4,2,1,80,0,0
189708,-125,4,2,1,5,0,0
189778,-100,4,2,1,80,0,0
189980,-125,4,2,1,5,0,0
190052,-125,4,2,1,80,0,0
190252,-125,4,2,1,5,0,0
190323,275.229357798165,4,2,1,80,1,0
190323,-83.3333333333333,4,2,1,80,0,0
190518,-83.3333333333333,4,2,1,5,0,0
190586,-83.3333333333333,4,2,1,80,0,0
190790,-83.3333333333333,4,2,1,5,0,0
190857,-125,4,2,1,80,0,0
191061,-83.3333333333333,4,2,1,5,0,0
191129,-83.3333333333333,4,2,1,80,0,0
191422,260.869565217391,4,2,1,80,1,0
192465,269.058295964126,4,2,1,80,1,0
193541,262.008733624454,4,2,1,80,1,0
193541,-50,4,2,1,80,0,0
194591,258.620689655172,4,2,1,80,1,0
195280,-50,4,2,1,80,0,0
195627,266.075388026607,4,2,1,80,1,0
195627,-50,4,2,1,80,0,0
200076,263.157894736842,4,2,1,80,1,0
200076,-50,4,2,1,80,0,0
202049,269.058295964126,4,2,1,80,1,0
202990,269.662921348315,4,2,1,80,1,0
203259,-66.6666666666667,4,2,1,80,0,0
204877,-100,4,2,1,80,0,0
206358,264.31718061674,4,2,1,80,1,0
207943,256.959314775161,4,2,1,80,1,0
208953,377.358490566038,4,2,1,50,1,0
209079,376.175548589341,4,2,1,50,1,0
209079,-500,4,2,1,50,0,0
209140,-500,4,2,2,5,0,0
209831,437.956204379562,4,2,1,50,1,0
209831,-666.666666666667,4,2,1,50,0,0
209903,-500,4,2,2,5,0,0
210707,681.818181818182,4,2,1,50,1,0
210707,-1000,4,2,1,50,0,0
210820,-500,4,2,2,5,0,0
212072,410.958904109589,4,2,1,80,1,1
212140,-50,4,2,1,80,0,1
212892,231.660231660232,4,2,1,80,1,1
213124,226.415094339623,4,2,1,80,1,1
213809,247.933884297521,4,2,1,80,1,1
214057,211.267605633803,4,2,1,80,1,1
214694,192.926045016077,4,2,1,80,1,1
214887,235.294117647059,4,2,1,80,1,1
218710,-50,4,2,1,80,0,1
218887,-500,4,2,1,5,0,1
218945,-1000,4,2,1,80,0,1
219004,-1000,4,2,2,70,0,1
219063,-1000,4,2,1,65,0,1
219122,-1000,4,2,2,60,0,1
219181,-1000,4,2,1,55,0,1
219239,-1000,4,2,2,50,0,1
219298,-1000,4,2,1,45,0,1
219357,-1000,4,2,2,40,0,1
219416,-1000,4,2,1,35,0,1
219475,-1000,4,2,2,30,0,1
219534,-1000,4,2,1,25,0,1
219592,-1000,4,2,2,20,0,1
219651,-1000,4,2,1,15,0,1
219710,-1000,4,2,2,10,0,1
219769,-1000,4,2,1,5,0,1
219828,-1000,4,2,1,60,0,0

[Colours]
Combo1 : 73,199,83
Combo2 : 253,112,96
Combo3 : 253,135,85

[HitObjects]
48,160,622,5,6,3:2:0:0:
121,180,807,1,0,0:0:0:0:
418,363,1084,5,2,0:0:0:0:
512,332,1316,1,0,0:0:0:0:
492,315,1385,1,0,0:0:0:0:
467,308,1455,1,0,0:0:0:0:
133,320,1733,5,2,0:0:0:0:
194,271,2002,1,0,0:0:0:0:
478,214,2271,1,2,0:0:0:0:
418,174,2540,1,0,0:0:0:0:
233,342,2808,5,2,1:2:0:0:
177,349,2874,1,0,3:0:0:0:
133,320,2941,1,0,3:0:0:0:
103,309,3008,1,0,3:0:0:0:
97,281,3074,1,0,3:0:0:0:
86,267,3141,1,0,3:0:0:0:
89,250,3208,1,0,3:0:0:0:
317,243,3341,5,0,3:0:0:0:
341,232,3408,1,0,3:0:0:0:
353,202,3475,1,0,3:0:0:0:
367,187,3541,1,0,3:0:0:0:
365,172,3608,1,0,3:0:0:0:
375,139,3675,1,0,3:0:0:0:
346,107,3742,1,0,3:0:0:0:
338,58,3808,1,0,3:0:0:0:
289,39,3875,1,4,3:0:0:0:
256,384,4142,5,4,3:1:0:0:
223,312,4573,5,0,1:0:0:0:
142,270,4661,1,0,1:2:0:0:
281,259,4839,5,0,1:0:0:0:
91,332,4928,1,6,3:2:0:0:
355,24,5113,6,0,L|423:153,1,133.333333333333,0|0,1:0|3:0,0:0:0:0:
282,375,5382,2,0,L|325:233,1,133.333333333333,2|4,1:2|3:0,0:0:0:0:
476,190,5651,2,0,L|502:336,1,133.333333333333,0|6,1:0|3:0,0:0:0:0:
161,196,5920,2,0,L|320:165,1,161.993827042885,4|6,1:2|3:0,0:0:0:0:
52,246,6191,2,0,L|113:372,1,133.333333333333,0|4,1:0|3:0,0:0:0:0:
375,104,6455,2,0,L|216:73,1,133.333333333333,4|6,1:2|3:0,0:0:0:0:
512,240,6719,2,0,L|451:366,1,133.333333333333,0|4,1:0|3:0,0:0:0:0:
153,268,7067,5,2,1:3:0:0:
106,338,7157,1,0,3:0:0:0:
155,356,7247,1,8,3:0:0:0:
206,343,7337,1,0,3:0:0:0:
225,369,7427,1,4,3:0:0:0:
256,380,7517,1,8,3:0:0:0:
339,285,7607,1,2,1:3:0:0:
415,326,7697,1,8,3:0:0:0:
359,369,7787,1,4,3:0:0:0:
310,351,7877,1,4,3:0:0:0:
259,364,7967,1,4,3:0:0:0:
500,306,8148,5,0,1:2:0:0:
3,214,8328,1,6,1:2:0:0:
26,140,8598,5,0,1:0:0:0:
123,120,8688,1,0,1:0:0:0:
190,180,8778,1,0,1:0:0:0:
212,193,8868,1,4,1:3:0:0:
158,108,8958,1,0,1:0:0:0:
130,89,9048,1,4,1:3:0:0:
213,43,9139,1,4,1:3:0:0:
235,43,9230,1,6,3:2:0:0:
474,166,9405,6,0,L|310:149,1,133.333333333333,2|4,1:2|3:0,0:0:0:0:
86,205,9668,2,0,L|222:199,1,133.333333333333,2|4,1:2|3:0,0:0:0:0:
0,308,9931,2,0,L|113:377,1,133.333333333333,0|4,1:0|3:0,0:0:0:0:
305,235,10194,2,0,L|332:393,1,133.333333333333,2|4,1:2|3:0,0:0:0:0:
200,192,10456,5,2,1:3:0:0:
364,131,10542,1,4,3:0:0:0:
0,382,10715,5,4,3:1:0:0:
52,326,10975,5,0,1:0:0:0:
190,305,11148,1,0,1:0:0:0:
224,322,11235,1,0,1:0:0:0:
251,354,11323,1,6,3:2:0:0:
273,121,11504,6,0,L|425:159,1,133.333333333333,0|4,1:0|3:0,0:0:0:0:
100,164,11776,2,0,L|72:316,1,133.333333333333,2|4,1:2|3:0,0:0:0:0:
222,384,12048,2,0,L|193:252,1,133.333333333333,0|4,1:0|3:0,0:0:0:0:
117,16,12320,2,0,L|35:132,1,142.056326856638,2|12,1:2|3:0,0:0:0:0:
404,81,12593,5,8,3:0:0:0:
478,61,12681,1,4,3:0:0:0:
241,310,12813,5,4,3:1:0:0:
305,257,13077,5,2,1:2:0:0:
435,322,13209,1,0,1:0:0:0:
461,296,13276,1,0,1:0:0:0:
466,260,13342,1,0,1:0:0:0:
222,0,13473,5,6,3:2:0:0:
432,185,13652,2,0,L|351:57,1,133.333333333333,2|4,1:2|3:0,0:0:0:0:
96,27,13921,2,0,L|233:46,1,133.333333333333,2|4,1:2|3:0,0:0:0:0:
308,164,14190,2,0,L|178:254,1,133.333333333333,0|4,1:0|3:0,0:0:0:0:
23,239,14459,5,2,1:2:0:0:
68,109,14549,1,6,3:0:0:0:
168,332,14715,5,8,3:0:0:0:
108,384,14799,1,4,3:0:0:0:
288,60,14965,5,4,3:1:0:0:
311,135,15235,5,0,1:0:0:0:
297,160,15321,1,6,3:0:0:0:
52,156,15580,5,2,1:2:0:0:
505,96,15772,1,4,1:2:0:0:
497,130,16108,5,4,3:0:0:0:
497,130,16156,1,2,1:2:0:0:
28,76,16349,1,4,1:2:0:0:
49,96,16685,5,4,3:0:0:0:
49,96,16736,1,2,1:2:0:0:
255,39,16913,5,4,1:2:0:0:
275,76,17002,1,4,3:0:0:0:
108,44,17180,5,0,1:0:0:0:
106,192,17447,6,0,L|134:24,1,133.333333333333,0|0,1:0|1:0,0:0:0:0:
140,319,17713,5,0,1:2:0:0:
287,205,17802,1,4,3:1:0:0:
417,350,17985,5,0,1:0:0:0:
385,249,18077,1,12,3:0:0:0:
202,246,18260,5,0,1:2:0:0:
232,121,18352,1,12,3:0:0:0:
445,197,18535,5,0,1:0:0:0:
413,57,18627,1,12,3:0:0:0:
248,138,18811,5,0,1:0:0:0:
270,225,18903,1,4,3:0:0:0:
155,307,19079,5,0,1:0:0:0:
187,219,19167,1,4,3:0:0:0:
53,384,19344,5,0,1:0:0:0:
4,286,19432,2,0,P|92:318|187:327,1,186.666660970052,4|0,3:0|1:0,0:0:0:0:
270,225,19697,2,0,P|312:205|358:197,1,93.3333304850261,4|0,3:0|0:0,0:0:0:0:
486,259,19874,5,0,1:0:0:0:
397,376,19962,1,6,3:0:0:0:
360,109,20135,5,0,1:0:0:0:
404,262,20222,1,4,3:0:0:0:
265,168,20396,5,0,1:0:0:0:
374,188,20483,1,4,3:0:0:0:
182,229,20657,5,0,1:0:0:0:
268,195,20744,1,4,3:0:0:0:
121,188,20918,5,0,1:0:0:0:
195,210,21018,1,4,3:0:0:0:
48,227,21193,5,0,1:0:0:0:
0,104,21281,2,0,P|68:106|142:13,1,186.666660970052,4|0,3:0|1:0,0:0:0:0:
232,0,21544,2,0,P|289:47|289:174,1,186.666660970052,4|0,3:0|1:0,0:0:0:0:
245,280,21807,1,4,3:0:0:0:
378,56,21982,5,0,1:2:0:0:
454,250,22070,1,6,3:2:0:0:
512,87,22248,5,0,1:0:0:0:
503,182,22337,1,8,3:0:0:0:
273,109,22516,5,0,1:0:0:0:
399,197,22605,1,8,3:0:0:0:
191,192,22784,5,0,1:0:0:0:
254,349,22873,1,8,3:0:0:0:
95,169,23052,5,0,1:0:0:0:
157,87,23141,1,4,3:0:0:0:
238,341,23314,5,0,1:0:0:0:
386,284,23401,2,0,P|472:293|472:396,1,186.666660970052,4|0,3:0|1:0,0:0:0:0:
255,328,23662,2,0,P|190:314|59:352,1,186.666660970052,4|0,3:0|1:0,0:0:0:0:
13,384,23923,1,4,3:0:0:0:
414,114,24097,5,0,1:0:0:0:
280,223,24196,1,4,3:1:0:0:
165,13,24376,5,0,1:0:0:0:
404,79,24466,1,8,3:0:0:0:
195,240,24646,5,0,1:0:0:0:
136,5,24736,1,8,3:0:0:0:
327,145,24916,5,0,1:0:0:0:
89,218,25006,1,8,3:0:0:0:
334,303,25186,5,0,1:0:0:0:
391,228,25282,1,4,3:0:0:0:
0,273,25455,5,4,1:0:0:0:
118,99,25629,5,0,1:0:0:0:
159,108,25716,1,4,3:0:0:0:
238,183,25803,1,8,1:2:0:0:
323,157,25890,1,8,1:2:0:0:
254,93,25977,5,0,1:0:0:0:
233,143,26064,1,8,3:0:0:0:
298,180,26151,1,12,3:0:0:0:
306,222,26238,1,4,3:0:0:0:
369,256,26326,1,4,3:2:0:0:
89,51,26657,5,0,1:0:0:0:
337,77,26753,1,4,3:0:0:0:
77,273,27053,5,4,1:0:0:0:
177,243,27140,1,4,3:1:0:0:
447,344,27611,5,2,0:3:0:0:
475,254,27706,1,4,0:0:0:0:
255,361,27894,5,0,1:0:0:0:
255,361,27946,1,0,1:0:0:0:
255,361,28000,1,0,1:0:0:0:
376,203,28165,5,0,1:0:0:0:
470,263,28247,1,8,3:0:0:0:
146,284,28496,6,0,L|119:86,1,200,4|4,1:0|3:0,0:0:0:0:
43,120,29306,2,0,L|15:318,1,200,0|4,1:0|3:0,0:0:0:0:
95,338,30119,2,0,L|67:139,1,200,0|4,1:0|3:0,0:0:0:0:
361,280,30667,6,0,L|394:39,1,200,0|4,1:0|3:0,0:0:0:0:
269,0,31458,2,0,L|278:199,1,200,0|4,1:0|3:0,0:0:0:0:
193,365,32254,2,0,L|167:166,1,200,0|4,1:0|3:0,0:0:0:0:
486,0,32771,5,2,1:2:0:0:
139,78,32940,1,6,1:2:0:0:
75,35,33605,5,2,1:2:0:0:
422,107,33761,1,14,3:0:0:0:
493,72,34384,5,2,1:2:0:0:
189,145,34553,1,12,3:0:0:0:
437,185,34927,6,0,L|411:384,1,200,0|4,1:0|3:0,0:0:0:0:
334,382,35744,2,0,L|308:183,1,200,0|4,1:0|3:0,0:0:0:0:
371,122,36551,2,0,L|359:322,1,200,0|4,1:0|3:0,0:0:0:0:
24,60,37105,6,0,L|36:260,1,200,0|4,1:0|3:0,0:0:0:0:
123,321,37902,2,0,L|152:122,1,200,0|4,1:0|3:0,0:0:0:0:
101,15,38706,2,0,L|147:210,1,200,0|4,1:0|3:0,0:0:0:0:
512,8,39244,6,0,L|483:205,1,200,0|4,1:0|3:0,0:0:0:0:
410,203,40048,2,0,L|461:9,1,200,0|4,1:0|3:0,0:0:0:0:
387,10,40855,2,0,L|373:214,1,200,0|4,1:0|3:0,0:0:0:0:
154,0,41393,5,0,1:0:0:0:
93,213,41524,1,12,3:0:0:0:
150,262,42183,5,0,1:0:0:0:
92,19,42327,1,12,3:0:0:0:
20,42,42990,5,0,1:0:0:0:
0,318,43123,1,12,3:0:0:0:
492,185,43518,6,0,L|464:383,1,200,0|4,1:0|3:0,0:0:0:0:
346,354,44321,2,0,L|316:155,1,200,0|4,1:0|3:0,0:0:0:0:
429,65,45128,2,0,L|400:262,1,200,0|4,1:0|3:0,0:0:0:0:
110,98,45668,6,0,L|166:307,1,200,0|4,1:0|3:0,0:0:0:0:
40,384,46474,2,0,L|27:173,1,200,0|4,1:0|3:0,0:0:0:0:
30,7,47274,2,0,L|1:215,1,200,0|4,1:0|3:0,0:0:0:0:
425,138,47813,6,0,L|454:335,1,200,0|4,1:0|3:0,0:0:0:0:
388,384,48614,2,0,L|411:185,1,200,0|4,1:0|3:0,0:0:0:0:
387,113,49409,2,0,L|298:293,1,200,0|4,1:0|3:0,0:0:0:0:
87,0,49949,6,0,L|59:216,1,200,0|8,1:0|3:0,0:0:0:0:
182,43,50745,2,0,L|207:254,1,200,0|8,1:0|3:0,0:0:0:0:
291,79,51543,1,0,1:0:0:0:
450,384,51835,5,0,1:0:0:0:
458,369,51893,1,0,1:0:0:0:
473,357,51952,1,0,1:0:0:0:
492,348,52011,1,0,1:0:0:0:
511,347,52070,1,4,1:0:0:0:
119,245,52340,5,0,1:2:0:0:
32,205,52475,1,4,3:2:0:0:
427,172,52745,5,0,1:2:0:0:
511,119,52880,1,4,1:2:0:0:
99,141,53151,5,0,1:2:0:0:
20,39,53291,1,4,3:2:0:0:
311,199,53547,5,0,1:0:0:0:
335,344,53675,5,8,3:0:0:0:
270,330,53761,1,8,3:0:0:0:
226,254,53846,1,12,3:0:0:0:
189,269,53932,1,12,3:0:0:0:
148,335,54017,1,4,3:0:0:0:
130,326,54102,1,4,3:0:0:0:
65,275,54190,6,0,P|164:208|243:410,1,373.333333333333,14|0,1:3|1:0,0:0:0:0:
403,210,54597,2,0,P|304:143|225:345,1,373.333333333333,14|0,1:3|1:0,0:0:0:0:
88,134,55004,2,0,P|175:94|266:269,1,320,14|0,1:3|1:0,0:0:0:0:
403,80,55411,2,0,P|304:13|225:215,1,375.000014305115,14|0,1:3|1:0,0:0:0:0:
358,230,55818,5,8,3:0:0:0:
480,106,55999,5,8,3:0:0:0:
447,210,56090,1,4,3:0:0:0:
23,353,56356,5,4,3:1:0:0:
89,110,56534,5,0,1:0:0:0:
115,218,56624,1,4,3:0:0:0:
166,148,56803,5,0,1:0:0:0:
84,0,56892,1,4,3:0:0:0:
137,227,57071,5,0,1:0:0:0:
301,292,57161,1,4,3:0:0:0:
400,131,57340,5,8,3:0:0:0:
457,190,57429,1,4,3:0:0:0:
0,98,57608,5,4,3:2:0:0:
512,321,57832,1,4,1:2:0:0:
436,282,58100,5,0,1:0:0:0:
178,359,58235,1,0,1:0:0:0:
135,321,58302,1,0,1:0:0:0:
129,274,58369,1,0,1:0:0:0:
173,246,58436,1,0,1:0:0:0:
189,190,58503,1,4,3:1:0:0:
12,312,58682,5,0,1:0:0:0:
72,379,58772,1,4,3:0:0:0:
42,224,58951,5,0,1:0:0:0:
114,95,59040,1,4,3:0:0:0:
221,302,59219,5,0,1:0:0:0:
217,187,59309,1,4,3:0:0:0:
328,322,59487,5,0,1:0:0:0:
119,244,59577,1,4,3:0:0:0:
393,213,59756,5,8,3:0:0:0:
464,255,59845,1,4,3:0:0:0:
91,318,59980,1,4,3:2:0:0:
12,276,60248,5,0,1:0:0:0:
139,127,60382,1,0,1:0:0:0:
183,112,60449,1,0,1:0:0:0:
230,124,60517,1,0,1:0:0:0:
245,169,60584,1,0,1:0:0:0:
292,184,60651,1,4,3:1:0:0:
399,84,60826,5,0,1:0:0:0:
312,93,60913,1,4,3:0:0:0:
422,187,61088,5,0,1:0:0:0:
504,160,61176,1,4,3:0:0:0:
374,285,61351,5,0,1:0:0:0:
291,257,61438,1,4,3:0:0:0:
398,372,61613,5,0,1:0:0:0:
512,245,61701,1,4,3:0:0:0:
151,253,61876,5,8,3:0:0:0:
77,289,61963,1,4,3:0:0:0:
431,361,62138,1,4,3:2:0:0:
444,281,62401,5,0,1:0:0:0:
288,307,62489,1,4,3:0:0:0:
331,132,62707,5,0,1:0:0:0:
155,108,62801,1,4,3:1:0:0:
220,335,62973,5,0,1:0:0:0:
400,167,63059,1,4,3:0:0:0:
139,120,63232,5,0,1:0:0:0:
199,361,63318,1,4,3:0:0:0:
357,111,63490,5,0,1:0:0:0:
113,144,63576,1,4,3:0:0:0:
393,202,63749,5,0,1:0:0:0:
472,150,63858,1,4,3:0:0:0:
378,20,64034,5,0,1:0:0:0:
353,92,64122,1,4,3:0:0:0:
377,363,64254,5,4,3:2:0:0:
303,314,64563,5,0,1:0:0:0:
314,196,64651,1,0,1:0:0:0:
179,259,64827,5,0,1:0:0:0:
112,85,64918,1,6,3:2:0:0:
96,224,65096,5,0,1:0:0:0:
228,384,65185,1,8,3:0:0:0:
245,157,65364,5,4,3:0:0:0:
279,283,65453,1,8,3:0:0:0:
387,205,65632,5,4,3:0:0:0:
377,287,65721,1,4,3:0:0:0:
44,29,65855,1,4,1:1:0:0:
125,0,66123,5,0,1:0:0:0:
44,223,66257,1,8,3:0:0:0:
175,59,66435,5,4,3:0:0:0:
0,105,66525,1,8,3:0:0:0:
208,134,66703,5,4,3:0:0:0:
124,205,66793,1,4,3:0:0:0:
486,139,66946,1,4,1:1:0:0:
419,198,67251,5,0,1:0:0:0:
331,375,67339,1,8,3:0:0:0:
261,183,67513,5,0,1:0:0:0:
252,313,67601,1,4,3:0:0:0:
124,119,67863,5,4,3:0:0:0:
505,155,67995,1,4,1:1:0:0:
442,107,68304,5,0,1:0:0:0:
276,187,68393,1,4,3:0:0:0:
512,78,68570,5,4,3:0:0:0:
490,235,68658,1,8,3:0:0:0:
367,131,68835,5,4,3:0:0:0:
400,212,68924,1,4,3:0:0:0:
265,201,69101,5,4,3:0:0:0:
498,153,69198,1,4,1:2:0:0:
1,313,69469,5,12,3:0:0:0:
479,32,69741,5,12,3:0:0:0:
68,384,69923,5,0,1:0:0:0:
124,311,70013,1,12,3:0:0:0:
342,233,70195,5,0,1:0:0:0:
343,332,70285,1,8,1:2:0:0:
262,275,70376,1,8,3:0:0:0:
286,281,70467,1,8,3:0:0:0:
338,383,70557,1,4,3:0:0:0:
38,205,70739,5,12,3:0:0:0:
19,128,70829,1,4,3:0:0:0:
512,297,71101,5,2,1:2:0:0:
504,311,71645,6,0,P|396:284|360:283,1,120,2|0,0:2|0:0,1:0:0:0:
204,352,71917,2,0,P|126:372|31:333,1,150,2|0,0:2|0:0,1:0:0:0:
205,228,72189,2,0,P|278:207|353:196,1,120,2|0,0:2|0:0,1:0:0:0:
496,147,72456,6,0,P|371:177|303:163,1,179.999994506836,2|0,0:2|0:0,1:0:0:0:
188,38,72727,2,0,P|95:38|23:124,1,179.999994506836,2|0,0:2|0:0,1:0:0:0:
0,219,72998,2,0,P|48:187|114:173,1,120,2|0,0:2|0:0,1:0:0:0:
296,80,73270,2,0,P|358:150|508:139,1,239.999992675781,2|6,0:2|0:0,1:0:0:0:
512,161,73804,5,4,1:3:0:0:
123,128,74068,1,4,1:3:0:0:
161,343,74332,1,4,1:3:0:0:
512,0,74595,5,4,3:1:0:0:
512,0,75123,1,4,3:1:0:0:
14,343,75655,5,6,3:2:0:0:
221,55,75828,6,0,L|183:223,1,133.333333333333,0|4,1:0|3:0,0:0:0:0:
282,384,76089,2,0,L|253:252,1,133.333333333333,0|4,1:0|3:0,0:0:0:0:
386,111,76350,2,0,L|514:70,1,133.333333333333,0|4,1:0|3:0,0:0:0:0:
409,206,76611,2,0,L|271:176,1,133.333333333333,0|4,1:0|3:0,0:0:0:0:
457,384,76875,5,8,3:0:0:0:
512,323,76964,1,4,3:0:0:0:
169,359,77097,1,4,3:1:0:0:
93,313,77406,5,0,1:0:0:0:
89,23,77672,6,0,L|115:169,1,133.333333333333,4|4,1:2|3:0,0:0:0:0:
373,3,77939,2,0,L|499:49,1,133.333333333333,0|4,1:0|3:0,0:0:0:0:
337,170,78207,2,0,L|192:193,1,133.333333333333,0|4,1:0|3:0,0:0:0:0:
432,238,78475,2,0,L|513:123,1,133.333333333333,0|4,1:0|3:0,0:0:0:0:
302,63,78743,2,0,L|374:190,1,133.333333333333,0|4,1:0|3:0,0:0:0:0:
53,5,79011,5,8,3:0:0:0:
0,72,79100,1,4,3:0:0:0:
339,0,79234,1,4,3:1:0:0:
403,41,79502,5,0,1:0:0:0:
265,381,79769,5,0,1:0:0:0:
512,317,79899,1,4,3:2:0:0:
26,375,80079,6,0,L|-22:238,1,133.333333333333,0|4,1:0|3:0,0:0:0:0:
93,66,80349,2,0,L|45:203,1,133.333333333333,0|4,1:0|3:0,0:0:0:0:
278,0,80619,2,0,L|198:133,1,133.333333333333,0|4,1:0|3:0,0:0:0:0:
334,292,80889,2,0,L|480:270,1,133.333333333333,0|4,1:0|3:0,0:0:0:0:
96,384,81153,5,0,1:0:0:0:
14,313,81240,1,8,3:0:0:0:
353,368,81371,1,4,3:1:0:0:
431,360,81675,5,0,1:0:0:0:
221,347,81893,5,0,3:0:0:0:
242,332,81958,1,0,3:0:0:0:
266,323,82022,1,0,1:0:0:0:
34,268,82219,1,4,1:2:0:0:
95,211,82465,5,0,3:0:0:0:
74,196,82539,1,0,3:0:0:0:
50,187,82612,1,0,1:0:0:0:
282,132,82796,1,4,1:2:0:0:
222,79,83026,5,0,3:0:0:0:
243,64,83095,1,0,3:0:0:0:
267,55,83165,1,0,1:0:0:0:
35,0,83332,5,4,1:2:0:0:
0,83,83416,1,8,3:0:0:0:
423,38,83668,5,4,3:0:0:0:
435,237,83852,1,12,3:0:0:0:
503,58,84036,1,8,3:0:0:0:
188,384,84222,5,4,1:0:0:0:
135,1,84401,1,2,3:2:0:0:
256,365,84580,1,2,3:2:0:0:
132,0,84760,1,2,3:2:0:0:
184,384,84939,1,2,3:2:0:0:
141,1,85118,1,2,3:2:0:0:
261,377,85300,1,2,3:2:0:0:
128,0,85473,1,2,3:2:0:0:
176,384,85647,1,2,3:2:0:0:
140,0,85821,1,2,3:2:0:0:
124,204,85952,5,2,0:0:0:0:
242,269,86082,5,6,3:0:0:0:
302,221,86169,1,0,0:0:0:0:
377,236,86256,1,0,1:0:0:0:
512,191,86345,5,14,3:0:0:0:
452,143,86434,1,0,0:0:0:0:
377,158,86523,1,0,1:0:0:0:
270,382,86702,5,0,0:0:0:0:
258,366,86791,1,0,1:0:0:0:
318,318,86880,1,6,3:0:0:0:
393,333,86970,1,0,0:0:0:0:
385,351,87059,1,0,1:0:0:0:
156,346,87237,5,0,3:0:0:0:
18,139,87416,5,6,3:0:0:0:
91,159,87505,1,0,0:0:0:0:
122,229,87595,1,0,1:0:0:0:
272,228,87684,5,6,3:0:0:0:
197,246,87773,1,0,0:0:0:0:
168,318,87862,1,0,1:0:0:0:
255,384,87952,5,6,3:0:0:0:
188,135,88130,1,4,1:0:0:0:
460,0,88398,5,0,1:0:0:0:
403,79,88488,1,0,3:0:0:0:
324,22,88670,5,2,1:3:0:0:
490,134,88761,1,6,3:2:0:0:
43,48,88944,1,2,1:2:0:0:
512,232,89123,1,2,3:2:0:0:
0,143,89297,1,2,3:2:0:0:
229,35,89471,5,2,1:2:0:0:
344,257,89692,1,2,3:2:0:0:
122,363,89871,2,0,P|148:312|289:204,1,233.333333333333,2|0,0:2|0:0,0:0:0:0:
395,196,90273,5,2,1:2:0:0:
85,265,90541,5,0,1:0:0:0:
41,198,90632,1,4,3:0:0:0:
0,384,90815,1,0,1:0:0:0:
151,140,91044,5,2,1:2:0:0:
122,20,91136,1,8,3:0:0:0:
24,223,91320,1,2,1:2:0:0:
463,79,91541,5,2,1:2:0:0:
507,312,91800,5,0,1:0:0:0:
471,343,91890,1,4,3:0:0:0:
394,344,91980,1,12,3:0:0:0:
329,274,92069,1,8,3:0:0:0:
358,154,92159,1,4,1:0:0:0:
90,344,92383,5,2,1:2:0:0:
0,382,92652,5,2,1:2:0:0:
512,180,92877,5,4,0:3:0:0:
500,199,92966,5,4,0:3:0:0:
480,209,93055,5,6,3:2:0:0:
403,188,93145,1,0,3:0:0:0:
332,224,93234,1,0,3:0:0:0:
315,302,93323,5,2,1:2:0:0:
311,222,93413,1,0,3:3:0:0:
254,165,93502,1,0,3:3:0:0:
175,173,93591,5,2,1:2:0:0:
250,145,93680,1,0,3:3:0:0:
287,73,93770,1,0,3:3:0:0:
253,0,93859,5,2,1:2:0:0:
304,63,93948,1,0,3:3:0:0:
383,75,94038,1,0,3:3:0:0:
442,22,94127,5,2,1:2:0:0:
398,89,94216,1,0,3:3:0:0:
411,169,94305,1,0,3:3:0:0:
480,209,94395,5,2,1:2:0:0:
403,190,94484,1,0,3:3:0:0:
332,224,94573,1,0,3:3:0:0:
315,303,94663,6,0,P|357:315|391:348,2,66.6666666666667,2|0|0,1:2|3:0|3:3,0:0:0:0:
211,166,94930,5,6,0:2:0:0:
195,173,94997,1,0,3:0:0:0:
171,165,95064,1,0,3:0:0:0:
147,171,95131,1,0,3:0:0:0:
122,143,95198,1,0,3:0:0:0:
99,149,95265,1,0,3:0:0:0:
76,115,95332,1,0,3:0:0:0:
49,109,95399,1,4,3:0:0:0:
93,230,95533,5,0,3:2:0:0:
80,237,95600,1,0,3:0:0:0:
68,260,95667,1,0,3:0:0:0:
83,284,95734,1,0,3:0:0:0:
85,315,95801,1,0,3:0:0:0:
113,322,95868,1,0,3:0:0:0:
132,357,95935,1,0,3:0:0:0:
122,384,96002,5,4,1:1:0:0:
162,338,96068,1,0,3:0:0:0:
161,278,96134,1,0,3:0:0:0:
217,255,96200,1,0,3:0:0:0:
250,204,96266,1,0,3:0:0:0:
309,218,96332,1,0,3:0:0:0:
354,178,96398,1,0,3:0:0:0:
411,193,96464,1,0,3:0:0:0:
414,247,96530,1,0,3:0:0:0:
381,277,96596,1,0,3:0:0:0:
346,269,96662,1,0,3:0:0:0:
341,244,96728,1,0,3:0:0:0:
353,235,96794,1,4,3:0:0:0:
430,244,96927,5,4,3:0:0:0:
78,91,97199,5,4,3:2:0:0:
24,211,97293,1,2,1:2:0:0:
0,41,97483,5,0,1:0:0:0:
92,263,97578,1,4,3:0:0:0:
225,96,97720,5,4,3:0:0:0:
192,98,97815,1,4,3:0:0:0:
172,188,97910,1,0,1:0:0:0:
147,205,98004,1,0,1:0:0:0:
155,305,98099,1,8,3:0:0:0:
423,51,98276,5,0,1:0:0:0:
393,221,98365,1,4,3:2:0:0:
250,30,98543,5,0,1:0:0:0:
385,139,98632,1,8,3:0:0:0:
24,211,98765,2,0,L|-8:300,3,66.6666666666667,4|8|0|4,1:0|3:0|1:0|3:0,0:0:0:0:
22,384,99167,5,4,1:2:0:0:
53,360,99257,1,4,3:0:0:0:
95,358,99347,1,4,3:0:0:0:
110,264,99438,1,0,1:0:0:0:
164,320,99528,1,8,3:0:0:0:
243,332,99619,1,8,3:0:0:0:
347,292,99709,5,4,1:2:0:0:
316,268,99799,1,4,3:0:0:0:
274,266,99889,1,4,3:0:0:0:
259,172,99980,1,0,1:0:0:0:
205,228,100070,1,8,3:0:0:0:
126,240,100161,1,8,3:0:0:0:
17,202,100252,5,4,1:2:0:0:
48,178,100342,1,4,3:0:0:0:
90,176,100432,1,4,3:0:0:0:
105,82,100523,1,0,1:0:0:0:
159,138,100613,1,8,3:0:0:0:
238,150,100704,1,8,3:0:0:0:
356,97,100795,1,4,1:2:0:0:
236,327,100976,5,0,1:0:0:0:
317,204,101066,1,2,1:2:0:0:
169,379,101252,5,8,3:0:0:0:
457,350,101346,1,4,3:1:0:0:
507,266,104756,5,2,0:3:0:0:
479,365,104846,1,4,0:0:0:0:
317,237,105300,5,8,3:0:0:0:
328,256,105385,1,4,3:0:0:0:
111,290,105555,5,4,0:0:0:0:
25,383,105640,1,4,3:1:0:0:
376,94,105911,1,2,0:0:0:0:
433,15,106182,5,8,0:2:0:0:
281,118,106634,1,4,3:0:0:0:
117,106,106986,1,12,3:0:0:0:
0,1,107294,1,8,0:2:0:0:
41,140,107426,5,2,0:0:0:0:
57,53,107514,1,2,0:3:0:0:
128,231,107691,1,10,0:0:0:0:
296,280,107949,1,2,3:2:0:0:
445,221,108335,5,8,1:2:0:0:
453,185,108400,1,0,1:2:0:0:
424,157,108464,1,0,1:2:0:0:
414,131,108528,1,0,1:2:0:0:
441,95,108593,1,0,1:2:0:0:
450,60,108657,1,0,1:2:0:0:
495,33,108722,1,2,3:0:0:0:
141,86,109968,5,4,3:1:0:0:
5,304,110143,5,0,1:0:0:0:
87,253,110231,1,8,3:0:0:0:
204,384,110407,5,0,1:0:0:0:
188,219,110495,1,8,3:0:0:0:
352,311,110671,5,0,1:0:0:0:
254,154,110759,1,8,3:0:0:0:
480,208,110935,5,0,1:0:0:0:
512,121,111022,1,4,3:0:0:0:
367,142,111198,5,0,1:0:0:0:
323,217,111286,1,4,3:0:0:0:
480,44,111462,5,0,1:0:0:0:
367,142,111550,2,0,P|274:120|178:147,1,186.666660970052,4|0,3:0|1:0,0:0:0:0:
107,209,111814,2,0,P|65:229|18:222,1,93.3333304850261,4|0,3:0|0:0,0:0:0:0:
134,76,111989,5,0,1:0:0:0:
229,219,112076,1,6,3:0:0:0:
342,20,112252,5,0,1:0:0:0:
367,142,112341,1,4,3:0:0:0:
217,23,112518,5,0,1:0:0:0:
316,40,112606,1,4,3:0:0:0:
154,81,112783,5,0,1:0:0:0:
236,45,112872,1,4,3:0:0:0:
125,166,113049,5,0,1:0:0:0:
160,103,113137,1,4,3:0:0:0:
161,233,113311,5,0,1:0:0:0:
260,322,113399,2,0,P|328:324|402:231,1,186.666660970052,4|0,3:0|1:0,0:0:0:0:
333,166,113661,2,0,P|276:119|276:-8,1,186.666660970052,4|0,3:0|1:0,0:0:0:0:
346,0,113923,1,4,3:0:0:0:
415,162,114097,5,0,1:2:0:0:
483,41,114209,1,4,3:2:0:0:
459,286,114382,5,0,1:0:0:0:
512,363,114469,1,8,3:0:0:0:
335,217,114643,5,0,1:0:0:0:
388,369,114730,1,8,3:0:0:0:
198,156,114904,5,0,1:0:0:0:
167,356,114991,1,8,3:0:0:0:
29,103,115165,5,0,1:0:0:0:
79,16,115280,1,4,3:0:0:0:
207,254,115454,5,0,1:0:0:0:
105,143,115542,2,0,P|19:152|9:260,1,186.666660970052,4|0,3:0|1:0,0:0:0:0:
40,325,115804,2,0,P|108:262|197:236,1,186.666660970052,4|0,3:0|1:0,0:0:0:0:
289,272,116066,1,4,3:0:0:0:
512,215,116240,5,0,1:2:0:0:
383,298,116341,1,4,3:1:0:0:
246,93,116515,5,0,1:0:0:0:
467,152,116602,1,8,3:0:0:0:
276,320,116777,5,0,1:0:0:0:
214,81,116865,1,8,3:0:0:0:
395,220,117040,5,0,1:0:0:0:
156,299,117127,1,8,3:0:0:0:
415,383,117302,5,0,1:0:0:0:
472,308,117424,1,4,3:0:0:0:
37,157,117597,5,0,1:0:0:0:
77,79,117684,1,8,3:0:0:0:
159,97,117771,1,8,3:0:0:0:
194,226,117858,5,8,3:0:0:0:
266,205,117945,1,8,3:0:0:0:
307,116,118032,5,12,3:0:0:0:
351,132,118119,1,12,3:0:0:0:
400,202,118206,5,4,3:0:0:0:
433,193,118293,1,4,3:0:0:0:
493,144,118381,5,8,3:0:0:0:
446,277,118467,1,4,1:2:0:0:
357,55,118739,5,0,1:0:0:0:
331,365,118875,1,4,3:2:0:0:
192,55,119191,5,0,1:0:0:0:
222,155,119282,1,4,3:1:0:0:
0,251,119825,1,4,0:0:0:0:
220,358,120006,5,0,1:0:0:0:
220,358,120051,1,0,1:0:0:0:
220,358,120096,1,0,1:0:0:0:
117,199,120277,5,0,1:0:0:0:
23,259,120368,1,8,3:0:0:0:
457,20,120639,6,0,L|259:47,1,199.832429800571,4|4,1:0|3:0,0:0:0:0:
243,144,121432,2,0,L|441:172,1,200,0|4,1:0|3:0,0:0:0:0:
512,66,122229,2,0,L|313:94,1,200,0|4,1:0|3:0,0:0:0:0:
427,329,122797,6,0,L|186:362,1,200,0|4,1:0|3:0,0:0:0:0:
147,237,123599,2,0,L|346:246,1,200,0|4,1:0|3:0,0:0:0:0:
512,161,124402,2,0,L|313:135,1,200,0|4,1:0|3:0,0:0:0:0:
79,381,124944,5,2,1:2:0:0:
1,34,125102,1,2,1:3:0:0:
72,0,125756,5,2,1:2:0:0:
0,347,125912,1,2,1:3:0:0:
80,384,126555,5,2,1:2:0:0:
195,117,126684,1,2,1:3:0:0:
449,377,127072,6,0,L|250:351,1,200,4|4,3:1|3:0,0:0:0:0:
252,274,127894,2,0,L|451:248,1,200,0|4,1:0|3:0,0:0:0:0:
512,311,128712,2,0,L|312:299,1,200,0|4,1:0|3:0,0:0:0:0:
49,122,129253,6,0,L|249:110,1,200,0|4,1:0|3:0,0:0:0:0:
310,30,130050,2,0,L|111:1,1,200,0|4,1:0|3:0,0:0:0:0:
4,45,130866,2,0,L|199:-1,1,200,0|4,1:0|3:0,0:0:0:0:
512,210,131390,6,0,L|315:181,1,200,0|4,1:0|3:0,0:0:0:0:
317,108,132203,2,0,L|511:159,1,200.591624949797,0|4,1:0|3:0,0:0:0:0:
510,85,133001,2,0,L|306:71,1,200,0|4,1:0|3:0,0:0:0:0:
70,265,133540,5,0,1:0:0:0:
283,204,133698,1,8,3:0:0:0:
332,261,134354,5,0,1:0:0:0:
89,203,134485,1,8,3:0:0:0:
112,131,135139,5,0,1:0:0:0:
388,111,135298,1,8,3:0:0:0:
122,384,135680,6,0,L|320:356,1,200,0|4,1:0|3:0,0:0:0:0:
291,238,136477,2,0,L|92:208,1,200,0|4,1:0|3:0,0:0:0:0:
4,291,137289,2,0,L|201:262,1,200,0|4,1:0|3:0,0:0:0:0:
445,147,137841,6,0,L|236:203,1,200,0|4,1:0|3:0,0:0:0:0:
151,114,138615,2,0,L|362:101,1,200,0|4,1:0|3:0,0:0:0:0:
499,48,139395,2,0,L|291:19,1,200,0|4,1:0|3:0,0:0:0:0:
462,355,139948,6,0,L|265:384,1,200,0|4,1:0|3:0,0:0:0:0:
216,318,140748,2,0,L|415:341,1,200,0|4,1:0|3:0,0:0:0:0:
487,317,141561,2,0,L|307:228,1,200,0|4,1:0|3:0,0:0:0:0:
1,38,142106,6,0,L|217:10,1,200,0|8,1:0|3:0,0:0:0:0:
44,133,142916,2,0,L|255:158,1,212.475880984172,0|8,1:0|3:0,0:0:0:0:
87,247,143754,6,0,P|200:243|260:323,1,209.999993591309,0|0,1:0|0:0,0:0:0:0:
168,384,144258,1,4,1:0:0:0:
391,61,144701,6,0,L|326:74,1,50.0000019073487
321,99,144790,1,2,0:0:0:0:
275,319,145056,2,0,L|331:166,1,150.000005722046,2|4,1:2|3:0,0:0:0:0:
351,384,145322,1,2,0:0:0:0:
444,274,145588,5,0,0:0:0:0:
507,188,145721,2,0,L|312:216,2,150.000005722046,2|0|4,0:0|1:0|3:0,0:0:0:0:
510,98,146120,5,2,0:0:0:0:
180,148,146386,2,0,L|343:181,1,150.000005722046,2|4,1:2|3:0,0:0:0:0:
137,229,146652,1,2,0:0:0:0:
0,72,146918,1,0,0:0:0:0:
116,369,147184,6,0,P|129:269|58:184,1,214.285722460066,2|0,1:2|0:0,0:0:0:0:
170,94,147640,5,0,0:0:0:0:
189,81,147716,1,0,0:0:0:0:
227,93,147793,1,0,0:0:0:0:
277,83,147869,1,0,0:0:0:0:
315,130,147945,1,0,1:2:0:0:
374,123,148021,1,0,0:0:0:0:
402,165,148097,1,0,0:0:0:0:
437,184,148173,1,0,0:0:0:0:
442,206,148249,1,0,0:0:0:0:
16,331,148512,6,0,L|38:149,1,150.000005722046,0|4,1:0|3:0,0:0:0:0:
115,266,149050,1,2,0:0:0:0:
215,307,149319,5,0,1:0:0:0:
461,327,149453,1,2,0:0:0:0:
194,214,149857,1,0,0:0:0:0:
8,273,150126,6,0,L|33:87,1,150.000005722046,2|4,1:2|3:0,0:0:0:0:
106,156,150305,1,0,0:0:0:0:
120,189,150395,1,2,0:0:0:0:
364,38,150669,6,0,L|388:194,1,150.000005722046,2|0,1:2|0:0,0:0:0:0:
297,162,150845,1,0,0:0:0:0:
265,89,150932,1,2,0:0:0:0:
505,88,151197,1,0,0:0:0:0:
35,148,151461,6,0,L|62:-16,1,150.000005722046,2|4,1:2|3:0,0:0:0:0:
402,357,151990,5,2,0:0:0:0:
488,211,152254,5,0,1:0:0:0:
453,230,152330,1,0,0:0:0:0:
425,272,152405,1,0,0:0:0:0:
366,267,152481,1,0,0:0:0:0:
328,312,152556,1,0,0:0:0:0:
278,302,152632,1,0,0:0:0:0:
377,175,152786,5,0,1:2:0:0:
405,99,152939,1,4,3:0:0:0:
405,99,153324,5,2,0:0:0:0:
221,59,153593,5,0,1:0:0:0:
184,152,153727,1,4,3:0:0:0:
221,14,153862,1,2,0:0:0:0:
283,195,154131,5,0,0:0:0:0:
44,62,154310,5,0,0:0:0:0:
73,25,154400,2,0,L|102:186,1,150.000005722046,2|4,1:2|3:0,0:0:0:0:
296,20,154669,1,0,0:0:0:0:
24,287,154941,6,0,L|192:231,1,150.000005722046,2|4,1:2|3:0,0:0:0:0:
59,378,155207,1,0,0:0:0:0:
227,334,155474,1,2,0:0:0:0:
300,374,155741,5,0,1:0:0:0:
472,338,155918,1,2,3:2:0:0:
505,253,156274,5,0,0:0:0:0:
459,240,156363,1,0,0:0:0:0:
412,265,156452,1,0,0:0:0:0:
365,253,156541,1,0,1:0:0:0:
512,178,156674,1,2,3:2:0:0:
44,205,157070,6,0,L|73:50,1,150.000005722046,0|4,1:0|3:0,0:0:0:0:
21,116,157612,5,0,0:0:0:0:
146,72,157748,1,0,0:0:0:0:
1,136,157884,2,0,L|19:306,1,150.000005722046,2|4,1:2|3:0,0:0:0:0:
277,116,158155,1,2,0:0:0:0:
382,255,158427,1,0,0:0:0:0:
375,375,158608,5,4,3:0:0:0:
342,336,158698,2,0,L|364:156,1,150.000005722046,2|4,1:2|3:0,0:0:0:0:
469,251,158970,1,0,0:0:0:0:
271,21,159151,5,4,3:0:0:0:
248,148,159240,1,4,3:1:0:0:
34,187,159507,5,2,0:0:0:0:
14,295,159775,1,0,0:0:0:0:
350,267,160043,6,0,L|388:98,1,150.000005722046,2|4,1:2|3:0,0:0:0:0:
470,381,160266,1,0,0:0:0:0:
463,300,160490,5,0,1:0:0:0:
438,302,160579,1,0,3:0:0:0:
300,340,160757,5,0,1:0:0:0:
217,320,160845,1,0,1:0:0:0:
447,176,161013,5,8,3:0:0:0:
466,221,161097,1,4,3:0:0:0:
303,139,161265,5,0,1:0:0:0:
325,0,161349,1,4,0:0:0:0:
393,284,161629,5,0,1:0:0:0:
429,384,161769,1,4,0:0:0:0:
224,109,162049,5,0,1:0:0:0:
266,7,162190,1,4,0:0:0:0:
64,253,162468,5,0,1:0:0:0:
139,384,162642,1,4,0:0:0:0:
392,106,162904,5,0,1:0:0:0:
345,41,162992,1,0,1:0:0:0:
270,54,163079,1,0,1:0:0:0:
226,130,163166,1,8,3:0:0:0:
189,115,163254,1,8,3:0:0:0:
148,49,163341,1,4,3:0:0:0:
130,58,163428,1,4,3:0:0:0:
65,109,163516,6,0,P|164:176|243:-26,1,373.333333333333,14|0,1:3|1:0,0:0:0:0:
403,174,163930,2,0,P|304:241|225:39,1,373.333333333333,14|0,1:3|1:0,0:0:0:0:
65,239,164345,2,0,P|164:306|243:104,1,373.333333333333,14|0,1:3|1:0,0:0:0:0:
403,304,164738,2,0,P|304:371|225:169,1,373.333333333333,14|0,1:3|1:0,0:0:0:0:
358,154,165130,5,8,3:0:0:0:
115,162,165309,5,0,1:0:0:0:
165,65,165399,1,4,3:0:0:0:
50,341,165600,5,0,3:0:0:0:
50,341,165667,1,4,1:0:0:0:
146,361,165842,1,0,1:0:0:0:
0,200,166061,5,0,3:0:0:0:
0,200,166127,1,0,3:0:0:0:
0,200,166193,1,0,1:0:0:0:
107,291,166368,1,0,1:0:0:0:
68,48,166631,5,0,1:0:0:0:
42,138,166718,1,4,3:0:0:0:
174,219,166902,5,0,1:0:0:0:
262,185,166994,1,4,3:0:0:0:
368,221,167178,5,4,3:0:0:0:
397,238,167270,1,0,1:0:0:0:
196,317,167455,1,0,1:0:0:0:
199,0,167685,5,0,3:0:0:0:
199,0,167754,1,0,3:0:0:0:
199,0,167823,1,4,1:2:0:0:
148,181,168002,1,0,1:0:0:0:
405,0,168224,5,0,3:0:0:0:
405,0,168290,1,0,3:0:0:0:
405,0,168356,1,0,1:0:0:0:
271,104,168533,1,0,1:0:0:0:
473,337,168887,5,0,1:0:0:0:
480,312,168954,1,0,3:0:0:0:
502,292,169021,1,0,3:0:0:0:
493,259,169087,1,0,3:0:0:0:
505,223,169153,1,4,3:0:0:0:
475,199,169220,1,4,3:0:0:0:
459,155,169286,1,4,3:0:0:0:
412,152,169352,1,4,3:0:0:0:
377,112,169418,1,4,3:2:0:0:
23,353,169950,5,4,3:1:0:0:
286,237,170127,5,0,1:0:0:0:
254,329,170216,1,4,3:0:0:0:
212,167,170394,5,0,1:0:0:0:
51,214,170483,1,4,3:0:0:0:
235,90,170661,5,0,1:0:0:0:
376,179,170750,1,4,3:0:0:0:
164,49,170927,5,0,1:0:0:0:
181,148,171016,1,4,3:0:0:0:
482,16,171194,5,4,3:2:0:0:
6,283,171461,1,4,3:2:0:0:
48,346,171727,5,0,1:0:0:0:
138,374,171816,1,4,3:0:0:0:
68,160,171994,5,0,1:0:0:0:
109,289,172083,1,4,3:1:0:0:
103,88,172261,5,0,1:0:0:0:
24,49,172350,1,4,3:0:0:0:
165,219,172527,5,0,1:0:0:0:
234,70,172616,1,4,3:0:0:0:
284,255,172794,5,0,1:0:0:0:
351,193,172883,1,4,3:0:0:0:
358,318,173061,5,0,1:0:0:0:
169,197,173150,1,4,3:0:0:0:
512,141,173327,5,4,3:2:0:0:
5,211,173550,1,4,3:2:0:0:
93,153,173861,5,0,1:0:0:0:
83,240,173950,1,4,3:0:0:0:
255,214,174127,5,0,1:0:0:0:
361,285,174216,1,4,3:0:0:0:
212,55,174394,5,0,1:0:0:0:
125,64,174483,1,4,3:0:0:0:
295,118,174661,5,0,1:0:0:0:
213,149,174750,1,4,3:0:0:0:
384,157,174927,5,0,1:0:0:0:
313,208,175016,1,4,3:0:0:0:
481,164,175194,5,0,1:0:0:0:
317,39,175283,1,4,3:0:0:0:
390,300,175461,5,8,3:0:0:0:
407,384,175550,1,4,3:0:0:0:
500,126,175683,1,4,3:2:0:0:
435,220,175994,5,0,1:0:0:0:
282,243,176083,1,4,3:0:0:0:
191,96,176261,5,0,1:0:0:0:
50,203,176350,1,4,3:1:0:0:
257,318,176527,5,0,1:0:0:0:
263,71,176616,1,8,3:0:0:0:
47,223,176794,5,0,1:0:0:0:
260,347,176883,1,8,3:0:0:0:
195,62,177061,5,0,1:0:0:0:
45,258,177150,1,8,3:0:0:0:
284,101,177327,5,0,1:0:0:0:
268,10,177416,1,4,3:0:0:0:
433,110,177594,5,8,3:0:0:0:
367,150,177683,1,4,3:0:0:0:
0,131,177861,5,4,3:2:0:0:
63,84,178127,5,0,1:0:0:0:
110,164,178216,1,4,3:0:0:0:
205,95,178394,5,0,1:0:0:0:
250,271,178483,1,0,1:0:0:0:
425,19,178661,5,0,1:0:0:0:
218,0,178750,1,8,3:0:0:0:
358,163,178927,5,8,3:0:0:0:
244,98,179016,1,4,3:0:0:0:
232,239,179194,5,4,3:0:0:0:
181,174,179283,1,4,3:0:0:0:
512,366,179420,1,4,1:0:0:0:
507,260,179727,5,0,1:0:0:0:
284,340,179814,1,8,3:0:0:0:
448,210,179990,5,4,3:0:0:0:
402,384,180077,1,8,3:0:0:0:
366,244,180254,5,4,3:0:0:0:
446,319,180341,1,4,3:0:0:0:
77,258,180473,1,4,1:0:0:0:
43,170,180794,5,0,1:0:0:0:
131,347,180885,1,8,3:0:0:0:
193,153,181069,5,4,3:0:0:0:
188,279,181161,1,8,3:0:0:0:
341,133,181436,5,4,3:0:0:0:
0,7,181574,1,4,1:0:0:0:
60,84,181883,5,0,1:0:0:0:
226,4,181972,1,8,3:0:0:0:
71,170,182149,5,0,1:0:0:0:
123,33,182237,1,8,3:0:0:0:
171,197,182414,5,4,3:0:0:0:
138,116,182503,1,4,3:0:0:0:
48,252,182680,5,2,0:3:0:0:
259,161,182771,2,0,P|264:254|390:334,1,239.999992675781,4|4,1:2|3:0,0:0:0:0:
452,311,183221,5,0,1:0:0:0:
483,384,183311,1,4,3:0:0:0:
512,160,183581,5,2,3:0:0:0:
363,171,183761,5,0,1:0:0:0:
448,109,183851,1,4,3:0:0:0:
192,126,184111,5,2,3:0:0:0:
271,250,184285,5,8,3:0:0:0:
295,97,184372,1,4,3:0:0:0:
0,384,184546,5,4,3:1:0:0:
26,229,184807,5,8,3:0:0:0:
89,369,184893,1,4,3:2:0:0:
176,65,185071,5,0,1:0:0:0:
363,362,185340,5,0,1:0:0:0:
446,201,185429,1,8,3:0:0:0:
14,62,185608,5,4,3:0:0:0:
2,93,185698,1,4,3:0:0:0:
56,151,185787,1,4,3:0:0:0:
64,182,185877,1,4,3:0:0:0:
90,201,185966,1,2,3:0:0:0:
430,185,186145,5,2,3:0:0:0:
496,286,186324,5,4,3:0:0:0:
466,270,186414,1,4,3:0:0:0:
399,310,186503,1,8,3:0:0:0:
346,317,186593,1,8,3:0:0:0:
290,384,186682,1,8,3:0:0:0:
236,377,186772,1,2,0:0:0:0:
500,14,187039,5,2,3:2:0:0:
473,66,187107,1,0,3:0:0:0:
453,71,187175,1,0,3:0:0:0:
396,23,187244,1,0,3:0:0:0:
322,43,187312,1,0,3:0:0:0:
295,111,187381,1,0,3:0:0:0:
241,137,187449,1,0,3:0:0:0:
193,106,187518,1,0,3:0:0:0:
168,112,187586,2,0,L|257:129,1,75.0000028610231,4|0,3:0|3:0,3:0:0:0:
454,162,187723,2,0,L|365:179,1,75.0000028610231,4|0,3:0|3:0,3:0:0:0:
227,233,187860,2,0,L|316:250,1,75.0000028610231,4|0,3:0|3:0,3:0:0:0:
380,309,187997,2,0,L|291:326,1,75.0000028610231,4|0,3:0|3:0,3:0:0:0:
19,339,188134,5,8,3:0:0:0:
0,302,188202,1,0,1:0:0:0:
57,244,188271,1,8,3:0:0:0:
62,198,188340,1,0,1:0:0:0:
144,196,188408,1,8,3:0:0:0:
185,170,188477,1,0,1:0:0:0:
247,225,188545,1,8,3:0:0:0:
286,226,188614,1,0,1:0:0:0:
325,293,188682,1,8,3:0:0:0:
357,307,188750,1,0,1:0:0:0:
426,266,188819,1,8,3:0:0:0:
462,251,188888,1,0,1:0:0:0:
457,173,188956,1,8,3:0:0:0:
488,127,189025,1,0,1:0:0:0:
439,63,189093,1,8,3:0:0:0:
457,8,189162,1,0,1:0:0:0:
311,384,189504,6,0,P|284:276|283:240,1,120,2|0,0:0|0:0,1:0:0:0:
185,108,189778,2,0,P|238:47|339:27,1,150,2|0,0:0|0:0,1:0:0:0:
297,179,190052,2,0,P|224:200|149:211,1,120,2|0,0:0|0:0,1:0:0:0:
0,253,190323,6,0,P|124:253|197:238,1,179.999994506836,2|0,0:0|0:0,1:0:0:0:
315,103,190598,2,0,P|402:134|460:241,1,179.999994506836,2|0,0:0|0:0,1:0:0:0:
468,344,190873,2,0,P|426:305|354:298,1,120,2|0,0:0|0:0,1:0:0:0:
210,381,191148,2,0,P|201:278|84:226,1,239.999992675781,2|6,0:0|0:0,1:0:0:0:
69,244,191682,5,4,3:0:0:0:
251,215,191943,1,4,3:0:0:0:
432,181,192204,1,4,3:0:0:0:
0,0,192465,5,4,3:1:0:0:
0,0,193003,1,4,3:1:0:0:
492,324,193541,5,6,3:2:0:0:
380,15,193715,6,0,L|527:27,1,133.333333333333,0|6,1:0|3:0,0:0:0:0:
203,135,193977,2,0,L|348:108,1,133.333333333333,0|6,1:0|3:0,0:0:0:0:
65,296,194239,2,0,L|198:232,1,133.333333333333,0|6,1:0|3:0,0:0:0:0:
0,384,194501,5,0,1:0:0:0:
35,215,194591,1,6,3:0:0:0:
286,328,194763,5,8,3:0:0:0:
380,277,194849,1,4,3:0:0:0:
43,302,194978,1,6,3:2:0:0:
137,253,195280,6,0,L|108:413,1,133.333333333333,0|6,1:0|3:0,0:0:0:0:
256,0,195539,6,0,L|285:160,1,133.333333333333,0|4,1:0|3:1,0:0:0:0:
488,85,195804,2,0,L|459:245,1,133.333333333333,0|6,1:0|3:0,0:0:0:0:
253,123,196070,2,0,L|282:283,1,133.333333333333,0|6,1:0|3:0,0:0:0:0:
490,215,196336,2,0,L|461:375,1,133.333333333333,0|6,1:0|3:0,0:0:0:0:
251,253,196602,2,0,L|280:413,1,133.333333333333,0|6,1:0|3:0,0:0:0:0:
405,151,196868,5,0,1:0:0:0:
327,98,196957,1,4,3:0:0:0:
401,384,197090,1,6,3:2:0:0:
339,322,197400,6,0,L|484:271,1,133.333333333333,0|6,1:0|3:0,0:0:0:0:
0,239,197666,6,0,L|165:273,1,133.333333333333,0|4,1:0|3:1,0:0:0:0:
157,39,197932,2,0,L|227:183,1,133.333333333333,0|6,1:0|3:0,0:0:0:0:
71,295,198199,2,0,L|236:329,1,133.333333333333,0|6,1:0|3:0,0:0:0:0:
223,89,198465,2,0,L|293:233,1,133.333333333333,0|6,1:0|3:0,0:0:0:0:
135,348,198731,2,0,L|300:382,1,133.333333333333,0|6,1:0|3:0,0:0:0:0:
284,152,198997,1,0,1:0:0:0:
201,170,199085,1,4,3:0:0:0:
512,357,199263,5,6,3:2:0:0:
505,370,199529,1,2,1:2:0:0:
219,253,199795,5,2,1:2:0:0:
496,223,199884,1,4,3:1:0:0:
405,208,200076,6,0,L|560:321,1,133.333333333333,0|6,1:0|3:0,0:0:0:0:
276,98,200339,2,0,L|464:134,1,133.333333333333,0|6,1:0|3:0,0:0:0:0:
112,52,200602,2,0,L|298:5,1,133.333333333333,0|6,1:0|3:0,0:0:0:0:
0,203,200865,5,0,1:0:0:0:
25,85,200953,1,6,3:0:0:0:
73,281,201128,5,0,1:0:0:0:
0,317,201216,1,4,3:0:0:0:
302,285,201391,1,6,3:2:0:0:
319,294,201654,5,0,1:0:0:0:
82,178,201786,1,4,3:0:0:0:
369,233,201961,5,2,1:2:0:0:
447,197,202049,1,4,3:1:0:0:
234,144,202318,5,4,3:0:0:0:
251,135,202385,1,0,0:0:0:0:
273,111,202452,1,0,0:0:0:0:
302,108,202519,1,0,0:0:0:0:
328,79,202587,1,4,3:0:0:0:
377,94,202654,1,0,3:0:0:0:
405,139,202721,1,8,3:0:0:0:
447,125,202788,1,8,3:0:0:0:
472,76,202856,1,4,3:0:0:0:
507,79,202923,1,0,3:0:0:0:
512,94,202990,1,4,3:1:0:0:
91,317,203259,5,0,0:0:0:0:
79,304,203327,1,0,0:0:0:0:
84,286,203394,1,0,0:0:0:0:
78,268,203461,1,0,0:0:0:0:
61,255,203529,1,0,1:0:0:0:
109,268,203596,1,0,3:0:0:0:
140,334,203664,1,4,3:0:0:0:
203,355,203731,1,0,3:0:0:0:
246,320,203798,2,0,P|263:290|261:236,1,75.0000028610231,8|0,3:0|3:0,0:0:0:0:
157,120,203933,2,0,P|154:154|178:202,1,75.0000028610231,4|0,3:0|3:0,0:0:0:0:
432,280,204068,5,4,3:1:0:0:
449,288,204136,1,0,0:0:0:0:
470,285,204203,1,0,0:0:0:0:
485,298,204270,1,0,0:0:0:0:
512,297,204338,1,0,1:0:0:0:
484,259,204405,1,0,3:0:0:0:
443,266,204473,1,4,3:0:0:0:
407,245,204540,1,0,3:0:0:0:
362,250,204607,1,0,1:0:0:0:
344,223,204675,1,0,3:0:0:0:
325,219,204742,1,4,3:0:0:0:
342,82,204877,5,8,3:0:0:0:
316,79,204945,1,0,0:0:0:0:
292,97,205012,1,4,3:0:0:0:
267,93,205079,1,0,0:0:0:0:
231,56,205147,1,4,3:1:0:0:
187,74,205214,1,0,3:0:0:0:
176,127,205282,1,0,3:0:0:0:
144,153,205349,1,0,3:0:0:0:
92,142,205416,1,0,1:0:0:0:
66,172,205484,1,0,3:0:0:0:
71,195,205551,1,4,3:0:0:0:
203,290,205686,5,0,1:0:0:0:
124,322,205776,1,4,3:0:0:0:
287,335,205956,5,8,3:0:0:0:
440,373,206046,1,4,3:0:0:0:
503,0,206358,5,4,3:2:0:0:
411,166,206534,5,0,1:0:0:0:
330,123,206622,1,4,3:0:0:0:
252,230,206798,5,0,1:0:0:0:
198,89,206886,1,4,3:0:0:0:
102,218,207062,5,0,1:0:0:0:
298,125,207150,1,8,3:0:0:0:
37,280,207327,5,4,3:1:0:0:
22,262,207415,1,0,1:0:0:0:
101,254,207503,1,0,1:0:0:0:
76,330,207591,1,0,1:0:0:0:
12,281,207679,1,0,1:0:0:0:
75,232,207767,2,0,L|156:240,1,66.6666666666667,0|0,1:0|1:0,0:0:0:0:
425,263,207943,5,4,3:1:0:0:
452,274,208028,1,0,1:0:0:0:
414,182,208114,1,0,1:0:0:0:
326,218,208199,1,0,1:0:0:0:
327,318,208285,1,0,1:0:0:0:
256,379,208371,1,0,1:0:0:0:
214,366,208456,1,4,1:2:0:0:
461,363,208953,5,0,3:0:0:0:
454,368,209015,1,0,3:0:0:0:
446,370,209079,2,0,P|393:381|369:383,1,73.3333333333333,0|0,3:0|0:0,1:0:0:0:
294,277,209831,2,0,P|259:270|237:267,1,54.9999983215332,0|0,3:0|0:0,1:0:0:0:
128,351,210707,6,0,P|110:349|91:342,1,38.3333333333333,0|0,3:0|0:0,1:0:0:0:
0,228,212072,5,4,3:1:0:0:
256,192,212140,12,0,213932,0:0:0:0:
0,147,214057,5,6,3:2:0:0:
512,178,214268,1,2,3:2:0:0:
0,229,214479,1,2,3:2:0:0:
512,170,214694,1,2,3:2:0:0:
0,153,214887,1,2,3:2:0:0:
512,188,215043,1,2,3:2:0:0:
206,107,215200,5,4,1:2:0:0:
272,61,215279,1,0,3:2:0:0:
322,122,215357,1,2,3:2:0:0:
375,128,215436,1,0,3:2:0:0:
415,194,215514,1,2,3:2:0:0:
438,217,215592,1,4,3:0:0:0:
437,250,215671,1,4,3:0:0:0:
424,267,215749,1,4,3:0:0:0:
404,276,215828,1,4,3:0:0:0:
278,233,215985,5,4,3:0:0:0:
222,379,216141,1,4,3:0:0:0:
238,142,216298,1,4,3:0:0:0:
0,235,216416,5,4,1:2:0:0:
49,209,216475,1,0,3:0:0:0:
88,233,216534,1,0,3:0:0:0:
103,264,216592,1,0,3:0:0:0:
127,273,216651,1,0,3:0:0:0:
278,233,216769,5,4,3:1:0:0:
260,295,216828,1,0,1:0:0:0:
204,318,216887,1,0,3:0:0:0:
159,297,216945,1,0,3:0:0:0:
119,302,217004,1,0,3:0:0:0:
103,327,217063,1,0,3:0:0:0:
86,337,217122,1,0,3:0:0:0:
315,155,217239,5,4,3:0:0:0:
470,368,217396,5,6,1:2:0:0:
508,289,217475,1,8,3:0:0:0:
427,257,217553,1,8,3:0:0:0:
449,186,217632,1,4,1:3:0:0:
392,168,217710,1,4,3:3:0:0:
407,124,217788,1,4,3:3:0:0:
377,107,217867,1,4,1:0:0:0:
142,217,218024,5,6,3:2:0:0:
480,90,218181,1,2,3:2:0:0:
89,343,218337,1,2,1:2:0:0:
512,1,218494,1,2,1:2:0:0:
0,384,218710,6,2,L|94:59,1,300,6|0,1:2|0:0,1:1:0:0:
158,17,218945,6,2,L|232:9,1,75,6|4,1:2|0:0,0:1:0:0:
