osu file format v14

[General]
AudioFilename: audio.mp3
AudioLeadIn: 0
PreviewTime: 48849
Countdown: 0
SampleSet: Soft
StackLeniency: 0.7
Mode: 0
LetterboxInBreaks: 0
WidescreenStoryboard: 1

[Editor]
Bookmarks: 211,10904,18626,29913,48923,70310,79814,94072,103577,110706,129715,150061,151102,170111,187932,208130,222387,231892,240505,240802,249119
DistanceSpacing: 1
BeatDivisor: 4
GridSize: 32
TimelineZoom: 1.6

[Metadata]
Title:Koi Geba
TitleUnicode:恋ゲバ
Artist:ATARASHII GAKKO!
ArtistUnicode:新しい学校のリーダーズ
Creator:Pigeons
Version:Ochikouri's Normal
Source:
Tags:atarashii gakko no new school leaders 若気ガイタル Wakage ga itaru ゲバルト Gewalt j-pop jpop pop jazz japanese piano BinFhone [Paw]OchiKouri Ochikouri tachibana gekka NcFix dahkjdas Dank_memez_101
BeatmapID:3513286
BeatmapSetID:1699465

[Difficulty]
HPDrainRate:4
CircleSize:3
OverallDifficulty:5
ApproachRate:6
SliderMultiplier:0.999999999999999
SliderTickRate:1

[Events]
//Background and Video events
0,0,"Criminal BG.png",0,0
//Break Periods
2,160806,161932
2,170158,186882
2,229219,230704
//Storyboard Layer 0 (Background)
//Storyboard Layer 1 (Fail)
//Storyboard Layer 2 (Pass)
//Storyboard Layer 3 (Foreground)
//Storyboard Layer 4 (Overlay)
//Storyboard Sound Samples

[TimingPoints]
211,297.029702970297,3,2,1,70,1,0
4963,297.029702970297,4,2,2,70,1,0
10309,-100,4,2,1,70,0,0
10903,-100,4,2,2,70,0,0
21002,-100,4,3,100,70,0,0
21007,-100,4,2,2,70,0,0
23675,-100,4,2,1,70,0,0
25160,-100,4,2,2,70,0,0
26646,-100,4,3,100,70,0,0
26651,-100,4,2,2,70,0,0
26943,-100,4,3,100,70,0,0
26948,-100,4,2,2,70,0,0
27240,-100,4,3,100,70,0,0
27245,-100,4,2,2,70,0,0
46547,-100,4,2,2,50,0,0
47141,-100,4,2,2,60,0,0
47735,-100,4,2,2,70,0,0
48329,-100,4,2,2,75,0,0
50111,-100,4,2,2,80,0,0
57982,-100,4,2,1,80,0,0
58576,-100,4,2,2,80,0,0
70309,-100,4,2,2,70,0,0
80111,-100,4,2,2,50,0,0
82190,-100,4,2,1,50,0,0
84566,-100,4,2,2,70,0,0
90804,-100,4,3,100,70,0,0
90809,-100,4,2,2,70,0,0
91101,-100,4,3,100,70,0,0
91106,-100,4,2,2,70,0,0
91398,-100,4,3,100,70,0,0
91403,-100,4,2,2,70,0,0
93180,-100,4,2,1,70,0,0
94071,-100,4,2,2,70,0,0
96151,-100,4,2,1,70,0,0
96745,-100,4,2,2,70,0,0
99418,-100,4,3,100,70,0,0
99423,-100,4,2,2,70,0,0
101794,-100,4,2,2,75,0,0
102091,-100,4,2,2,90,0,0
102314,-100,4,2,2,70,0,0
118428,-93.8086303939962,4,2,2,70,0,0
118539,297.029702970297,4,2,2,70,1,0
118706,297.029702970297,4,2,2,70,1,0
120210,297.029702970297,4,2,2,70,1,0
120507,-100,4,3,100,70,0,0
122883,-100,4,3,100,70,0,0
122888,-100,4,2,2,70,0,0
127339,-100,4,2,2,50,0,0
127933,-100,4,2,2,60,0,0
128527,-100,4,2,2,70,0,0
129121,-100,4,2,2,75,0,0
130903,-100,4,2,2,80,0,0
151101,-100,4,2,2,70,0,0
151250,-100,4,2,2,50,0,0
158526,-100,4,2,2,70,0,0
158531,-100,4,3,100,50,0,0
161794,-100,4,2,1,50,0,0
162091,-100,4,2,2,50,0,0
164467,-100,4,3,100,50,0,0
164472,-100,4,2,2,50,0,0
166844,-100,4,3,100,50,0,0
166849,-100,4,2,2,50,0,0
170158,287.081339712919,4,2,1,50,1,0
171309,297.029702970297,4,2,1,50,1,0
179328,-100,4,2,2,50,0,0
180832,297.029702970297,4,2,2,50,1,0
181296,333.333333333334,4,2,2,50,1,0
181742,297.029702970297,4,2,2,50,1,0
182002,297.029702970297,4,2,2,50,1,0
183170,310.880829015544,4,2,2,50,1,0
183635,297.029702970297,4,2,2,50,1,0
184377,297.029702970297,4,2,2,50,1,0
186734,310.880829015544,4,2,2,50,1,0
187200,297.029702970297,4,2,2,50,1,0
187497,319.148936170213,4,2,2,50,1,0
187932,297.029702970297,4,2,2,60,1,0
189120,-100,4,2,2,70,0,0
190308,-100,4,2,2,80,0,0
231892,297.029702970297,3,2,2,70,1,0
232634,-100,3,3,100,70,0,0
232639,-100,3,2,2,70,0,0
234416,-100,3,3,100,70,0,0
234421,-100,3,2,2,70,0,0
236644,297.029702970297,4,2,2,70,1,0
237238,-100,4,2,1,70,0,0
237832,-100,4,2,2,70,0,0
238426,-100,4,2,1,70,0,0
239020,-100,4,2,2,70,0,0
239614,-100,4,2,1,70,0,0
240227,297.029702970297,4,2,2,70,1,0
241415,-100,4,2,2,70,0,0

[Colours]
Combo1 : 240,140,140
Combo2 : 200,180,220
Combo3 : 240,200,155
Combo4 : 150,185,220

[HitObjects]
300,67,10903,5,6,3:1:0:0:
387,115,11200,2,0,L|496:111,2,99.9999999999999,2|2|2,3:2|3:2|3:2,0:0:0:0:
302,168,12091,1,2,3:2:0:0:
389,216,12388,2,0,L|498:212,2,99.9999999999999,2|2|2,3:2|3:2|3:2,0:0:0:0:
303,267,13279,5,2,3:2:0:0:
225,329,13576,2,0,P|186:338|124:333,2,99.9999999999999,2|2|2,3:2|3:2|3:2,0:0:0:0:
212,229,14467,2,0,B|165:187|75:209|103:243|66:259|22:259,1,200,2|2,3:2|3:2,0:0:0:0:
5,60,15655,5,6,3:1:0:0:
98,23,15952,2,0,B|167:7|212:64|212:64|238:40|281:36,1,200,2|2,3:2|3:2,0:0:0:0:
374,58,16844,2,0,L|479:62,1,99.9999999999999,2|2,3:2|3:2,0:0:0:0:
472,161,17438,2,0,L|372:157,1,99.9999999999999,2|2,3:2|3:2,0:0:0:0:
272,157,18032,5,2,3:2:0:0:
271,256,18329,1,2,3:2:0:0:
269,355,18626,2,0,L|166:351,1,99.9999999999999,2|2,3:2|3:2,0:0:0:0:
72,377,19220,2,0,B|48:326|79:270|97:291|120:232|96:189,1,200,2|2,3:0|3:0,0:0:0:0:
254,67,20408,5,6,3:1:0:0:
238,165,20705,2,0,B|229:223|229:223|223:256|237:295|288:306|322:275,1,200,2|2,3:2|3:2,0:0:0:0:
390,205,21596,1,2,3:2:0:0:
390,205,21893,1,2,3:2:0:0:
465,270,22190,2,0,L|455:376,1,99.9999999999999,2|2,3:2|3:2,0:0:0:0:
255,376,23081,6,0,L|154:379,2,99.9999999999999,2|2|2,3:2|3:2|3:0,0:0:0:0:
104,243,24269,2,0,L|3:246,2,99.9999999999999,2|2|2,3:2|3:2|3:2,0:0:0:0:
303,239,25457,5,2,3:2:0:0:
375,170,25754,2,0,P|388:119|370:66,1,99.9999999999999,2|2,3:2|3:2,0:0:0:0:
282,37,26349,2,0,B|177:35|170:125|255:153|234:-43|83:-36|-6:56|13:137|62:140|96:182|-5:164|88:130|131:172,1,400,2|12,3:2|1:0,0:0:0:0:
212,341,28131,5,12,1:0:0:0:
20,283,28725,5,12,1:0:0:0:
117,262,29022,1,12,1:0:0:0:
214,241,29319,2,0,L|282:224,2,50,12|12|12,1:0|1:0|1:0,0:0:0:0:
212,341,29913,5,4,3:1:0:0:
311,327,30210,2,0,L|305:379,2,50,2|4|2,1:2|3:0|2:0,0:0:0:0:
410,315,30804,1,2,1:2:0:0:
355,230,31101,1,4,3:0:0:0:
414,149,31398,2,0,L|348:139,2,50,2|4|2,1:2|3:0|2:0,0:0:0:0:
472,68,31992,1,2,1:2:0:0:
386,15,32289,5,4,3:0:0:0:
299,65,32586,2,0,P|263:60|230:67,2,50,2|4|2,1:2|3:0|2:0,0:0:0:0:
266,159,33180,1,2,1:2:0:0:
172,124,33477,2,0,P|110:119|55:137,1,99.9999999999999,4|0,3:0|1:0,0:0:0:0:
35,159,33923,1,4,3:0:0:0:
35,159,34071,2,0,L|45:272,1,99.9999999999999,2|0,2:0|1:0,0:0:0:0:
11,353,34665,5,4,3:1:0:0:
107,379,34962,2,0,L|159:372,1,50,2|4,1:2|3:0,0:0:0:0:
192,337,35259,2,0,P|241:351|303:336,1,99.9999999999999,2|2,2:0|1:2,0:0:0:0:
357,270,35853,2,0,L|350:157,1,99.9999999999999,4|0,3:0|1:0,0:0:0:0:
345,125,36299,1,4,3:0:0:0:
345,125,36448,2,0,P|292:107|233:122,1,99.9999999999999,2|2,2:0|1:2,0:0:0:0:
204,203,37042,5,4,3:0:0:0:
111,241,37339,2,0,L|53:227,1,50,2|4,1:2|3:0,0:0:0:0:
12,236,37636,2,0,P|40:181|44:134,1,99.9999999999999,2|0,0:0|1:0,0:0:0:0:
5,51,38230,2,0,B|106:60|106:60|156:43,1,150,4|4,3:0|3:0,0:0:0:0:
250,15,38972,1,4,3:0:0:0:
250,15,39121,2,0,L|246:77,1,50,0|0,1:0|1:0,0:0:0:0:
225,110,39418,6,0,L|233:233,1,99.9999999999999,4|2,3:0|1:2,0:0:0:0:
234,259,39863,1,4,3:0:0:0:
328,375,40309,1,2,1:2:0:0:
383,291,40606,2,0,P|385:219|371:170,1,99.9999999999999,6|2,3:1|1:2,0:0:0:0:
356,154,41051,1,0,0:0:0:0:
356,154,41200,2,0,P|346:90|355:43,1,99.9999999999999,2|2,2:0|1:2,0:0:0:0:
435,1,41794,5,6,3:1:0:0:
463,96,42091,2,0,L|512:89,2,50,2|4|2,1:2|3:0|2:0,0:0:0:0:
451,195,42685,1,2,1:2:0:0:
465,293,42982,1,6,3:1:0:0:
366,282,43279,2,0,L|358:227,2,50,2|4|2,1:2|3:0|2:0,0:0:0:0:
267,300,43873,1,2,1:2:0:0:
185,357,44170,1,4,3:0:0:0:
399,19,45358,6,0,B|374:94|314:120|272:118|254:110|235:96,1,200,6|2,3:1|0:0,0:0:0:0:
58,22,46547,5,12,3:1:0:0:
47,121,46844,1,12,3:1:0:0:
36,220,47141,2,0,L|25:322,1,99.9999999999999,12|12,3:1|3:1,0:0:0:0:
124,330,47735,1,12,3:1:0:0:
223,343,48032,1,12,3:1:0:0:
326,358,48329,1,8,1:3:0:0:
326,358,48477,1,8,1:3:0:0:
348,209,48923,6,0,L|342:145,1,50,2|6,1:0|3:0,0:0:0:0:
228,62,49517,2,0,L|222:-2,1,50,2|6,1:2|3:0,0:0:0:0:
94,90,50111,6,0,P|76:161|96:211,1,99.9999999999999,6|2,3:1|1:2,0:0:0:0:
67,232,50556,2,0,B|115:210|115:210|226:226,1,150,6|2,3:0|1:0,0:0:0:0:
283,293,51299,2,0,P|326:309|389:304,1,99.9999999999999,6|2,3:0|1:2,0:0:0:0:
428,297,51745,2,0,B|399:254|399:254|415:156,1,150,6|0,3:0|1:0,0:0:0:0:
474,77,52487,2,0,P|421:58|360:74,1,99.9999999999999,6|2,3:0|1:0,0:0:0:0:
337,92,52933,1,6,3:0:0:0:
96,23,53675,6,0,L|101:79,1,50,2|6,1:0|3:0,0:0:0:0:
205,180,54269,2,0,L|210:236,1,50,2|6,1:0|3:0,0:0:0:0:
143,364,54863,6,0,P|88:374|37:349,1,99.9999999999999,6|2,3:1|1:0,0:0:0:0:
14,320,55309,1,6,3:0:0:0:
108,204,55754,2,0,L|103:146,1,50,2|2,1:0|2:0,0:0:0:0:
74,113,56051,6,0,P|127:110|178:92,1,99.9999999999999,6|2,3:0|1:0,0:0:0:0:
201,55,56497,2,0,B|226:24|226:24|351:36,1,150,6|0,3:0|1:0,0:0:0:0:
382,123,57240,2,0,P|382:168|340:222,1,99.9999999999999,6|2,3:0|1:0,0:0:0:0:
305,229,57685,1,6,3:0:0:0:
82,342,58428,6,0,L|145:347,1,50,2|6,1:0|3:0,0:0:0:0:
281,362,59022,2,0,L|344:367,1,50,2|6,1:0|3:0,0:0:0:0:
459,288,59616,6,0,P|474:228|460:176,1,99.9999999999999,6|2,3:1|1:0,0:0:0:0:
425,163,60061,2,0,B|379:188|379:188|267:178,1,150,6|2,3:0|1:0,0:0:0:0:
195,229,60804,2,0,P|144:215|86:232,1,99.9999999999999,6|2,3:0|1:0,0:0:0:0:
58,255,61250,2,0,B|81:207|81:207|61:105,1,150,6|0,3:0|1:0,0:0:0:0:
1,32,61992,2,0,P|48:50|103:34,1,99.9999999999999,6|2,3:0|1:0,0:0:0:0:
139,16,62438,1,6,3:0:0:0:
386,50,63180,6,0,L|379:152,1,99.9999999999999,6|2,3:1|2:0,0:0:0:0:
342,183,63626,1,6,3:0:0:0:
342,183,63774,2,0,L|349:302,1,99.9999999999999,2|6,1:0|3:0,0:0:0:0:
381,320,64220,2,0,P|421:316|486:312,2,99.9999999999999,6|0|4,3:0|1:0|3:0,0:0:0:0:
334,336,64962,1,0,1:0:0:0:
249,281,65259,1,0,0:0:0:0:
171,343,65556,5,4,3:0:0:0:
171,343,65705,2,0,P|110:340|72:304,1,99.9999999999999,2|6,1:0|3:0,0:0:0:0:
96,269,66151,2,0,P|95:242|106:200,1,50,2|2,1:0|2:0,0:0:0:0:
193,177,66596,1,2,1:0:0:0:
193,177,66745,1,0,1:0:0:0:
193,177,66893,2,0,L|306:163,1,99.9999999999999,0|0,1:0|1:0,0:0:0:0:
340,152,67339,1,0,1:0:0:0:
176,36,67933,6,0,L|112:41,1,50,2|6,1:3|1:3,0:0:0:0:
43,96,68378,2,0,L|27:157,1,50,2|6,1:3|1:3,0:0:0:0:
45,243,68824,2,0,L|84:293,1,50,2|6,1:3|1:3,0:0:0:0:
170,313,69269,2,0,L|227:308,1,50,2|6,1:3|1:3,0:0:0:0:
497,193,70309,5,6,1:3:0:0:
397,193,70606,1,6,1:3:0:0:
297,191,70903,2,0,L|196:190,1,99.9999999999999,6|6,1:3|1:3,0:0:0:0:
125,119,71497,5,6,1:3:0:0:
25,125,71794,1,6,1:3:0:0:
32,224,72091,2,0,L|42:334,1,99.9999999999999,6|6,1:3|1:3,0:0:0:0:
131,365,72685,5,6,1:3:0:0:
230,351,72982,1,6,1:3:0:0:
328,332,73279,2,0,L|447:315,1,99.9999999999999,6|6,1:3|1:3,0:0:0:0:
475,230,73873,5,6,1:3:0:0:
394,170,74170,2,0,L|290:181,1,99.9999999999999,6|6,1:3|1:3,0:0:0:0:
212,123,74764,1,6,3:1:0:0:
157,39,75061,6,0,P|208:24|271:40,1,99.9999999999999,6|4,3:1|3:0,0:0:0:0:
353,21,75655,2,0,P|407:36|438:72,1,99.9999999999999,6|4,3:0|3:0,0:0:0:0:
495,148,76250,2,0,P|488:199|456:245,1,99.9999999999999,6|4,3:0|3:0,0:0:0:0:
395,313,76844,2,0,P|333:303|278:315,1,99.9999999999999,6|4,3:0|3:0,0:0:0:0:
217,369,77438,2,0,P|199:321|208:265,1,99.9999999999999,6|4,3:0|3:0,0:0:0:0:
283,211,78032,2,0,P|286:147|260:103,1,99.9999999999999,6|4,3:0|3:0,0:0:0:0:
196,48,78626,5,6,3:1:0:0:
98,68,78923,1,6,3:1:0:0:
2,97,79220,2,0,L|14:156,1,50,2|2,1:0|1:0,0:0:0:0:
49,178,79517,2,0,L|41:232,1,50,4|4,3:0|3:0,0:0:0:0:
18,271,79814,6,0,L|127:266,1,99.9999999999999,6|2,3:1|3:0,0:0:0:0:
204,315,80408,2,0,L|313:310,1,99.9999999999999,2|2,3:0|3:0,0:0:0:0:
394,352,81002,2,0,L|500:349,1,99.9999999999999,2|2,3:0|3:0,0:0:0:0:
494,249,81596,1,2,3:0:0:0:
491,149,81893,1,2,3:2:0:0:
487,49,82190,6,0,L|380:52,1,99.9999999999999,2|2,3:2|3:0,0:0:0:0:
289,29,82784,2,0,L|182:32,1,99.9999999999999,2|2,3:0|3:0,0:0:0:0:
89,21,83378,2,0,P|106:89|133:115,2,99.9999999999999,2|2|2,3:0|3:0|3:0,0:0:0:0:
5,202,84566,5,6,3:1:0:0:
89,255,84863,2,0,B|133:275|166:254|166:254|199:271|199:271|233:253|286:270,1,200,2|2,3:2|3:2,0:0:0:0:
355,341,85754,1,2,3:2:0:0:
355,341,86051,1,2,3:2:0:0:
426,271,86349,2,0,L|422:149,1,99.9999999999999,2|2,3:2|3:2,0:0:0:0:
282,28,87240,6,0,P|249:62|229:118,2,99.9999999999999,2|2|2,3:2|3:2|3:2,0:0:0:0:
422,171,88428,2,0,P|455:137|475:81,2,99.9999999999999,2|2|2,3:2|3:2|3:2,0:0:0:0:
226,212,89616,5,2,3:2:0:0:
142,156,89913,2,0,P|92:148|41:161,1,99.9999999999999,6|2,3:1|3:2,0:0:0:0:
44,259,90507,2,0,B|100:286|144:265|144:265|181:317|248:326|307:296|321:224|321:224|326:261|339:290,1,400,6|14,3:1|1:0,0:0:0:0:
511,380,92289,1,14,1:0:0:0:
465,291,92586,6,0,P|457:229|462:191,1,99.9999999999999,4|6,3:2|3:0,0:0:0:0:
499,99,93180,1,6,3:0:0:0:
400,113,93477,1,8,3:0:0:0:
332,39,93774,1,4,3:0:0:0:
252,99,94071,5,6,3:1:0:0:
175,34,94368,2,0,P|116:42|71:77,1,99.9999999999999,2|2,2:0|1:2,0:0:0:0:
52,159,94962,1,2,2:0:0:0:
149,179,95259,1,4,3:0:0:0:
216,252,95556,2,0,L|317:245,2,99.9999999999999,6|2|2,3:0|1:2|3:0,0:0:0:0:
143,321,96448,5,4,3:0:0:0:
58,267,96745,2,0,P|44:215|56:158,1,99.9999999999999,2|2,2:0|1:0,0:0:0:0:
112,91,97339,1,2,2:0:0:0:
208,118,97636,2,0,L|211:173,2,50,6|0|4,3:0|0:0|3:0,0:0:0:0:
280,49,98230,2,0,P|352:38|391:40,1,99.9999999999999,2|2,1:0|3:0,0:0:0:0:
467,84,98824,5,4,3:0:0:0:
385,141,99121,2,0,B|376:212|376:212|410:253|410:253|397:335,1,200,2|2,2:0|2:0,0:0:0:0:
203,374,100309,2,0,B|212:303|212:303|178:262|178:262|191:180,1,200,6|2,3:0|2:0,0:0:0:0:
250,108,101200,5,6,3:1:0:0:
200,21,101497,1,6,1:0:0:0:
100,10,101794,2,0,P|66:59|58:97,1,99.9999999999999,2|2,1:0|1:0,0:0:0:0:
91,192,102388,1,6,3:1:0:0:
460,345,103576,6,0,P|477:285|470:235,1,99.9999999999999,4|2,3:1|1:0,0:0:0:0:
446,205,104022,1,2,1:0:0:0:
446,205,104170,2,0,P|433:145|442:96,1,99.9999999999999,6|2,3:0|1:0,0:0:0:0:
463,64,104616,1,2,1:0:0:0:
364,49,104913,2,0,L|369:0,2,50,6|2|2,3:0|1:0|1:0,0:0:0:0:
338,92,105358,2,0,P|287:117|228:100,1,99.9999999999999,6|2,3:0|1:0,0:0:0:0:
204,81,105804,1,2,1:0:0:0:
121,24,106101,6,0,L|16:36,2,99.9999999999999,2|2|6,2:0|1:0|3:0,0:0:0:0:
163,51,106844,1,0,1:0:0:0:
105,132,107141,2,0,L|4:125,1,99.9999999999999,4|0,3:0|1:0,0:0:0:0:
8,225,107735,2,0,L|75:220,2,50,4|4|0,3:0|3:0|1:0,0:0:0:0:
5,324,108329,6,0,B|41:316|41:316|64:336|64:336|116:321|168:331,1,150,6|0,3:1|0:0,0:0:0:0:
191,349,108923,2,0,B|176:303|192:258|192:258|221:246|221:246|243:210,1,150,6|0,3:0|0:0,0:0:0:0:
236,173,109517,2,0,B|270:201|313:195|313:195|336:176|336:176|362:168|362:168|384:134|413:132,1,200,6|6,1:0|3:0,0:0:0:0:
503,308,110705,6,0,P|410:354|310:308,1,200,6|0,3:1|1:0,0:0:0:0:
279,233,111596,1,6,3:0:0:0:
201,296,111893,2,0,L|95:304,1,99.9999999999999,0|6,0:0|3:0,0:0:0:0:
52,216,112487,2,0,L|151:208,1,99.9999999999999,0|0,1:0|2:0,0:0:0:0:
228,145,113081,2,0,P|240:90|160:24,1,150,6|6,3:0|3:0,0:0:0:0:
130,23,113675,2,0,L|14:34,1,99.9999999999999,4|8,1:2|1:0,0:0:0:0:
3,128,114269,6,0,B|4:186|4:186|12:241,1,99.9999999999999,4|0,3:0|1:0,0:0:0:0:
34,277,114715,1,0,1:0:0:0:
34,277,114863,2,0,B|85:272|85:272|139:277,1,99.9999999999999,4|0,3:0|1:0,0:0:0:0:
225,316,115457,6,0,B|213:262|235:219|235:219|259:170|242:109,1,200,6|2,3:1|1:0,0:0:0:0:
116,53,116497,1,6,3:0:0:0:
116,53,116646,2,0,L|2:64,2,99.9999999999999,4|6|2,3:0|3:0|1:0,0:0:0:0:
280,166,117834,6,0,L|306:269,1,99.9999999999999,2|0,3:2|0:0,0:0:0:0:
400,289,118428,2,0,L|476:214,1,99.9999999999999,0|6,0:0|3:0,0:0:0:0:
450,120,119003,2,0,L|333:92,1,99.9999999999999,6|0,3:0|1:0,0:0:0:0:
280,166,119597,1,0,1:0:0:0:
471,218,120210,6,0,B|510:264|483:322|483:322|444:351|387:345,1,200,6|2,3:1|1:0,0:0:0:0:
206,294,121398,1,6,3:0:0:0:
210,194,121695,1,6,3:0:0:0:
214,94,121992,2,0,L|208:33,1,50,2|6,1:0|3:0,0:0:0:0:
61,19,122586,6,0,B|36:58|47:97|47:97|78:110|78:110|87:153|56:201,1,200,6|2,3:1|1:0,0:0:0:0:
2,381,123774,1,6,3:0:0:0:
91,337,124071,2,0,L|87:283,2,50,4|4|0,3:0|3:0|1:0,0:0:0:0:
185,370,124665,1,2,1:0:0:0:
260,304,124962,6,0,B|319:295|354:272|354:272|386:294|453:304,1,200,6|2,3:1|1:0,0:0:0:0:
505,111,126151,1,4,3:0:0:0:
406,128,126448,1,4,3:0:0:0:
320,75,126745,1,2,1:0:0:0:
128,17,127338,5,4,1:3:0:0:
69,97,127636,1,4,1:3:0:0:
122,181,127933,2,0,L|222:162,1,99.9999999999999,4|4,1:3|1:3,0:0:0:0:
272,249,128527,1,4,1:3:0:0:
206,324,128824,1,4,1:3:0:0:
119,286,129121,1,8,1:3:0:0:
119,286,129269,1,8,1:3:0:0:
11,180,129715,6,0,L|74:185,1,50,2|6,1:0|3:0,0:0:0:0:
184,98,130309,2,0,L|250:91,1,50,2|6,1:0|3:0,0:0:0:0:
366,162,130903,6,0,P|416:154|472:182,1,99.9999999999999,6|2,3:1|1:0,0:0:0:0:
493,209,131348,2,0,B|500:307|500:307|468:356,1,150,4|2,3:0|1:0,0:0:0:0:
376,318,132091,2,0,P|306:312|269:322,1,99.9999999999999,4|2,3:0|1:0,0:0:0:0:
242,354,132537,2,0,B|145:337|145:337|75:359,1,150,4|0,3:0|1:0,0:0:0:0:
9,302,133279,2,0,P|-4:245|15:191,1,99.9999999999999,4|2,3:0|1:0,0:0:0:0:
36,165,133725,1,4,3:0:0:0:
264,63,134467,6,0,L|269:119,1,50,2|6,1:0|3:0,0:0:0:0:
188,239,135061,2,0,L|183:295,1,50,2|6,1:0|3:0,0:0:0:0:
303,378,135655,6,0,P|350:382|397:350,1,99.9999999999999,6|2,3:1|1:0,0:0:0:0:
406,306,136101,1,4,3:0:0:0:
287,214,136546,2,0,L|346:206,1,50,2|2,1:0|2:0,0:0:0:0:
385,215,136843,6,0,P|369:163|390:104,1,99.9999999999999,4|2,3:0|1:0,0:0:0:0:
411,81,137289,2,0,B|362:94|362:94|247:77,1,150,4|0,3:0|1:0,0:0:0:0:
179,25,138032,2,0,P|165:64|178:130,1,99.9999999999999,4|2,3:0|1:0,0:0:0:0:
208,156,138477,1,4,3:0:0:0:
51,351,139220,6,0,L|44:282,1,50,2|6,1:0|3:0,0:0:0:0:
5,156,139814,2,0,L|12:87,1,50,2|6,1:0|3:0,0:0:0:0:
144,39,140408,6,0,P|163:72|171:142,1,99.9999999999999,6|2,3:1|1:0,0:0:0:0:
148,176,140853,2,0,B|137:273|137:273|162:330,1,150,4|2,3:0|1:0,0:0:0:0:
243,373,141596,2,0,P|293:378|351:355,1,99.9999999999999,4|2,3:0|1:0,0:0:0:0:
375,327,142042,2,0,B|384:227|384:227|365:178,1,150,4|0,3:0|1:0,0:0:0:0:
280,129,142784,2,0,P|271:75|290:30,1,99.9999999999999,6|2,3:0|1:0,0:0:0:0:
328,5,143230,1,4,3:0:0:0:
478,204,143972,6,0,P|416:219|366:215,1,99.9999999999999,4|2,3:1|2:0,0:0:0:0:
340,196,144418,1,2,2:0:0:0:
340,196,144566,2,0,P|300:190|232:211,1,99.9999999999999,2|2,1:0|2:0,0:0:0:0:
214,246,145012,2,0,L|223:359,2,99.9999999999999,2|4|0,2:0|3:0|0:0,0:0:0:0:
195,199,145754,1,0,0:0:0:0:
214,100,146051,1,6,1:0:0:0:
159,22,146348,5,0,0:0:0:0:
159,22,146497,2,0,P|97:29|62:55,1,99.9999999999999,2|6,1:0|3:0,0:0:0:0:
84,96,146943,2,0,P|81:131|86:163,1,50,2|2,1:0|2:0,0:0:0:0:
182,195,147388,1,2,1:0:0:0:
182,195,147537,1,0,1:0:0:0:
182,195,147685,2,0,L|295:181,1,99.9999999999999,0|0,1:0|1:0,0:0:0:0:
330,173,148131,1,0,1:0:0:0:
506,267,148725,6,0,L|496:321,1,50,6|6,1:3|1:3,0:0:0:0:
413,370,149170,2,0,L|346:365,1,50,6|6,1:3|1:3,0:0:0:0:
301,287,149616,2,0,L|232:281,1,50,6|6,1:3|1:3,0:0:0:0:
166,335,150061,2,0,L|154:395,1,50,6|6,1:3|1:3,0:0:0:0:
2,126,151101,6,0,B|96:88|190:143|319:126,1,300,6|2,2:0|2:3,0:0:0:0:
394,96,152289,1,8,0:0:0:0:
507,373,153180,1,2,2:0:0:0:
461,284,153477,2,0,P|372:241|424:360,2,300,2|2|8,2:3|1:0|3:0,0:0:0:0:
507,89,155853,6,0,B|422:-4|273:102|203:85,1,300,6|2,2:0|2:3,0:0:0:0:
122,75,157042,1,10,2:0:0:0:
5,351,157933,1,2,2:0:0:0:
102,374,158230,2,0,B|172:400|294:309,1,200,2|2,2:0|2:0,0:0:0:0:
316,220,159121,1,2,2:0:0:0:
476,100,159715,5,2,3:2:0:0:
378,121,160012,1,2,3:2:0:0:
295,64,160309,2,0,L|241:54,1,50,2|2,3:2|2:0,0:0:0:0:
196,44,160606,1,2,2:0:0:0:
22,343,162982,6,0,P|109:370|220:318,1,200,6|2,2:0|2:0,0:0:0:0:
267,141,164170,2,0,P|341:96|447:119,1,200,2|2,2:0|2:0,0:0:0:0:
510,308,165358,6,0,B|474:323|474:323|438:307|438:307|399:326|399:326|360:315|360:315|325:329,1,200,2|2,0:0|0:0,0:0:0:0:
193,178,166547,2,0,B|96:161|96:161|79:163|79:163|67:155|67:155|48:161|48:161|31:152|31:152|11:155|11:155|-8:148,1,200,2|2,0:0|0:0,0:0:0:0:
151,20,167735,2,0,B|196:82|284:70|242:17|320:1|399:52|394:149|346:92|335:181|428:223,1,400,2|2,2:0|2:0,0:0:0:0:
264,270,187932,5,6,1:3:0:0:
174,150,188377,1,6,1:3:0:0:
323,136,188823,1,6,1:3:0:0:
378,52,189120,6,0,L|312:39,1,50,2|6,1:0|3:0,0:0:0:0:
180,19,189714,2,0,L|112:36,1,50,2|6,1:0|3:0,0:0:0:0:
22,133,190308,6,0,P|43:170|46:237,1,99.9999999999999,6|2,3:1|1:0,0:0:0:0:
15,263,190753,2,0,B|63:249|63:249|111:264|111:264|169:247,1,150,4|2,3:0|1:0,0:0:0:0:
231,181,191496,2,0,P|280:169|337:199,1,99.9999999999999,4|2,3:0|1:0,0:0:0:0:
348,230,191941,2,0,B|337:278|337:278|354:325|354:325|398:349,1,150,4|0,3:0|1:0,0:0:0:0:
497,332,192684,2,0,P|515:279|503:219,1,99.9999999999999,4|2,3:0|1:0,0:0:0:0:
484,192,193130,1,4,3:0:0:0:
501,43,193575,1,2,1:0:0:0:
404,17,193872,6,0,L|410:78,1,50,2|6,1:0|3:0,0:0:0:0:
358,208,194466,2,0,L|302:230,1,50,2|6,1:0|3:0,0:0:0:0:
166,185,195060,6,0,P|112:169|56:183,1,99.9999999999999,6|2,3:1|1:0,0:0:0:0:
25,199,195506,1,4,3:0:0:0:
7,347,195951,2,0,L|58:354,1,50,2|2,1:0|2:0,0:0:0:0:
92,319,196248,6,0,P|147:302|192:314,1,99.9999999999999,4|2,3:0|1:0,0:0:0:0:
223,346,196694,2,0,B|268:368|268:368|289:360|289:360|314:369|314:369|368:339,1,150,4|0,3:0|1:0,0:0:0:0:
384,247,197437,2,0,P|376:193|388:143,1,99.9999999999999,4|2,3:0|1:0,0:0:0:0:
420,113,197882,1,4,3:0:0:0:
506,235,198328,1,0,1:0:0:0:
489,333,198625,6,0,L|419:326,1,50,2|6,1:0|3:0,0:0:0:0:
294,289,199219,2,0,L|234:299,1,50,2|6,1:0|3:0,0:0:0:0:
104,352,199813,6,0,P|57:358|0:335,1,99.9999999999999,6|2,3:1|1:0,0:0:0:0:
1,291,200258,2,0,B|16:254|16:254|-10:198|19:131,1,150,4|2,3:0|1:0,0:0:0:0:
88,81,201001,2,0,P|126:76|187:90,1,99.9999999999999,4|2,3:0|1:0,0:0:0:0:
217,128,201447,2,0,B|248:149|248:149|326:157|326:157|362:142,1,150,4|0,3:0|1:0,0:0:0:0:
443,93,202189,2,0,P|396:52|347:45,1,99.9999999999999,4|4,3:0|3:0,0:0:0:0:
315,52,202635,1,0,3:0:0:0:
315,52,202783,2,0,L|251:44,2,50,4|0|2,3:0|1:0|3:0,0:0:0:0:
357,143,203377,6,0,L|345:246,1,99.9999999999999,6|2,3:1|2:0,0:0:0:0:
305,270,203823,1,2,2:0:0:0:
305,270,203971,2,0,P|253:256|186:270,1,99.9999999999999,2|2,1:0|2:0,0:0:0:0:
170,294,204417,2,0,P|109:292|56:297,2,99.9999999999999,2|0|0,0:0|0:0|0:0,0:0:0:0:
213,318,205159,1,0,1:0:0:0:
298,370,205456,1,0,0:0:0:0:
399,351,205753,5,4,3:0:0:0:
399,351,205902,2,0,P|393:290|410:247,1,99.9999999999999,2|6,1:0|3:0,0:0:0:0:
454,264,206347,2,0,P|468:244|495:225,1,50,2|2,1:0|2:0,0:0:0:0:
421,169,206793,1,2,1:0:0:0:
421,169,206942,1,0,1:0:0:0:
421,169,207090,2,0,L|303:177,1,99.9999999999999,0|0,1:0|1:0,0:0:0:0:
272,188,207536,1,0,1:0:0:0:
413,50,208130,6,0,L|347:44,1,50,2|2,1:3|1:3,0:0:0:0:
213,29,208724,2,0,L|163:24,1,50,2|2,1:3|1:3,0:0:0:0:
39,109,209318,6,0,P|78:131|136:134,1,99.9999999999999,6|0,3:1|1:0,0:0:0:0:
180,122,209763,1,6,3:0:0:0:
326,153,210209,1,2,1:3:0:0:
283,243,210506,2,0,P|228:262|167:254,1,99.9999999999999,4|0,3:0|1:0,0:0:0:0:
146,230,210951,1,4,3:0:0:0:
3,276,211397,1,2,1:3:0:0:
55,361,211694,2,0,P|101:380|162:377,1,99.9999999999999,4|0,3:0|1:0,0:0:0:0:
195,358,212139,1,6,3:0:0:0:
343,379,212585,1,2,1:0:0:0:
435,340,212882,6,0,L|432:282,1,50,2|2,1:3|1:3,0:0:0:0:
427,139,213476,2,0,L|424:89,1,50,2|2,1:3|1:3,0:0:0:0:
286,29,214070,6,0,P|277:88|287:140,1,99.9999999999999,6|0,3:1|1:0,0:0:0:0:
309,169,214515,1,6,3:0:0:0:
257,310,214961,1,2,1:0:0:0:
161,340,215258,2,0,P|151:294|155:231,1,99.9999999999999,4|0,3:0|1:0,0:0:0:0:
173,195,215703,1,6,3:0:0:0:
140,48,216149,1,2,1:0:0:0:
46,12,216446,2,0,P|35:69|44:128,1,99.9999999999999,6|2,3:0|1:0,0:0:0:0:
57,156,216891,1,6,3:0:0:0:
25,302,217337,1,2,1:0:0:0:
102,365,217634,6,0,L|168:358,1,50,2|2,1:3|1:3,0:0:0:0:
300,337,218229,2,0,L|369:328,1,50,2|2,1:3|1:3,0:0:0:0:
497,304,218823,6,0,P|510:241|497:192,1,99.9999999999999,6|0,3:1|1:0,0:0:0:0:
471,168,219268,1,6,3:0:0:0:
326,127,219714,1,2,1:0:0:0:
277,39,220011,2,0,P|231:29|177:47,1,99.9999999999999,6|0,3:0|1:0,0:0:0:0:
147,80,220456,1,6,3:0:0:0:
95,220,220902,1,2,1:0:0:0:
1,255,221199,6,0,P|0:284|3:311,1,50,6|0,3:0|1:0,0:0:0:0:
12,353,221496,1,4,3:0:0:0:
108,384,221793,2,0,L|167:376,2,50,0|0|0,1:0|1:0|1:0,0:0:0:0:
148,292,222387,6,0,P|198:294|265:301,1,99.9999999999999,4|2,3:1|2:0,0:0:0:0:
285,265,222833,1,2,2:0:0:0:
285,265,222981,2,0,P|341:267|387:273,1,99.9999999999999,2|2,1:0|2:0,0:0:0:0:
433,284,223427,2,0,P|436:324|429:383,2,99.9999999999999,2|0|0,2:0|0:0|0:0,0:0:0:0:
421,235,224169,1,0,1:0:0:0:
453,140,224466,1,0,0:0:0:0:
413,54,224763,5,4,3:1:0:0:
413,54,224912,2,0,P|354:54|306:80,1,99.9999999999999,2|2,2:0|2:0,0:0:0:0:
332,118,225358,2,0,P|315:149|313:183,1,50,2|2,1:0|2:0,0:0:0:0:
239,113,225803,1,4,1:2:0:0:
239,113,225952,1,0,0:0:0:0:
239,113,226100,2,0,P|179:98|124:111,1,99.9999999999999,8|0,1:0|1:0,0:0:0:0:
102,134,226545,2,0,L|51:143,2,50,0|0|0,1:0|1:0|1:0,0:0:0:0:
148,223,227140,6,0,L|215:238,1,50,6|6,1:3|1:3,0:0:0:0:
293,260,227585,2,0,L|360:234,1,50,6|6,1:3|1:3,0:0:0:0:
430,198,228031,2,0,L|436:130,1,50,6|6,1:3|1:3,0:0:0:0:
442,48,228476,2,0,L|384:3,1,50,6|6,1:3|1:3,0:0:0:0:
364,177,231892,5,2,1:2:0:0:
301,313,232337,2,0,P|215:333|149:316,1,150,2|0,1:2|1:0,0:0:0:0:
32,235,233228,1,2,1:2:0:0:
41,85,233674,1,2,1:2:0:0:
174,17,234119,2,0,P|248:19|318:49,1,150,2|0,1:2|1:2,0:0:0:0:
393,177,235010,1,2,1:2:0:0:
344,318,235456,1,2,1:2:0:0:
197,349,235901,1,2,1:2:0:0:
55,298,236347,1,6,3:1:0:0:
42,198,236644,6,0,P|84:160|220:206,1,200,6|2,3:1|2:3,0:0:0:0:
337,347,237832,2,0,P|400:376|514:324,1,200,4|2,3:1|2:3,0:0:0:0:
448,136,239020,2,0,P|353:134|251:112,1,200,4|2,3:1|2:3,0:0:0:0:
69,27,240227,5,2,1:0:0:0:
80,126,240524,1,2,1:0:0:0:
96,224,240821,1,2,1:0:0:0:
113,322,241118,1,2,1:0:0:0:
505,11,242603,5,4,1:0:0:0:
256,192,243197,12,0,248247,0:0:0:0:
