osu file format v14

[General]
AudioFilename: audio.mp3
AudioLeadIn: 0
PreviewTime: 3735
Countdown: 0
SampleSet: Soft
StackLeniency: 0.2
Mode: 0
LetterboxInBreaks: 0
WidescreenStoryboard: 1

[Editor]
Bookmarks: 47051,61451
DistanceSpacing: 1
BeatDivisor: 2
GridSize: 4
TimelineZoom: 0.8

[Metadata]
Title:Contaminated Sea
TitleUnicode:거울 빛에 물든 바다
Artist:ASTERIA
ArtistUnicode:ASTERIA
Creator:Koalazy
Version:E
Source:Maplestory
Tags:유종호 xKa piano nexon necord
BeatmapID:1892800
BeatmapSetID:906721

[Difficulty]
HPDrainRate:2
CircleSize:3
OverallDifficulty:2
ApproachRate:2
SliderMultiplier:1
SliderTickRate:1

[Events]
//Background and Video events
0,0,"01062018-1 Contaminated Sea esfera.jpg",0,0
//Break Periods
//Storyboard Layer 0 (Background)
//Storyboard Layer 1 (Fail)
//Storyboard Layer 2 (Pass)
//Storyboard Layer 3 (Foreground)
//Storyboard Sound Samples

[TimingPoints]
3885,600,4,2,1,30,1,0
32651,600,4,2,1,40,1,0
61451,-66.6666666666667,4,2,1,40,0,0

[Colours]
Combo1 : 255,128,192
Combo2 : 90,225,255

[HitObjects]
198,63,3885,6,0,B|167:57|154:44|154:44|143:59|112:115|112:115|121:115|121:115|144:141|185:140|185:140|186:149|186:149|157:178|157:178|178:195|178:195|182:191|182:191|233:184|233:184|211:271|211:271|155:271|155:271|139:284|139:284|130:278,1,500
185,369,7485,6,0,B|209:339|209:339|255:352|255:352|261:343|261:343|292:344|292:344|300:325|300:325|288:268|288:268|263:273|263:273|254:248|269:220|269:220|250:201|232:224|232:224|211:232|211:232|208:250|208:250|186:207|186:207|138:294,1,500
147,276,11085,5,0,0:0:0:0:
147,276,14085,6,0,B|175:250|182:234|182:234|179:182,1,100
278,339,16485,5,0,0:0:0:0:
506,139,18285,6,0,B|405:139|405:139|350:105|350:105|345:126|345:126|323:181|323:181|334:194|334:194|274:199|274:199|286:224|286:224|305:344|305:344|252:330,1,500
180,320,21885,6,0,B|130:357|130:357|61:313|61:313|73:308|73:308|93:222|93:222|126:245|126:245|126:234|126:234|211:244|211:244|234:260|234:260|291:357,1,500
279,337,25485,5,0,0:0:0:0:
256,192,26085,12,0,28485,0:0:0:0:
280,338,29085,6,0,B|283:291|283:291|293:290|293:290|300:220|300:220|297:210|297:210|312:147|312:147|323:143|323:143|341:72|341:72|316:83,1,300
256,192,31185,12,0,32651,0:0:0:0:
338,124,32951,6,0,P|339:159|328:183,2,50
262,253,34451,1,0,0:0:0:0:
262,253,34751,2,0,L|202:238,2,50
364,362,36251,2,0,B|388:335|390:309|379:277|379:277|373:271|373:271|358:241|371:212,1,150
434,88,38051,2,0,P|430:139|497:227,2,150
391,61,40151,6,0,L|329:67,2,50
299,179,41651,1,0,0:0:0:0:
299,179,41951,2,0,P|256:171|233:174,2,50
154,137,43451,2,0,B|106:194|113:260|113:260|130:265|130:265|144:326|202:341|202:341|223:334|223:334|239:324|234:305,1,300
256,192,45551,12,0,47051,0:0:0:0:
394,148,47951,6,0,P|379:98|332:76,1,100
303,111,48851,2,0,P|262:134|203:108,1,100
166,136,49751,2,0,P|128:182|127:241,1,100
143,266,50651,6,0,P|203:251|252:267,1,100
252,308,51551,2,0,L|356:323,1,100
383,360,52451,2,0,P|383:316|413:269,1,100
458,251,53351,1,0,0:0:0:0:
470,101,54251,6,0,P|447:140|386:166,1,100
349,170,55151,2,0,P|294:164|248:136,1,100
219,108,56051,2,0,P|169:71|128:62,1,100
86,81,56951,2,0,L|45:197,1,100
35,222,57851,6,0,P|92:214|141:230,1,100
149,272,58751,2,0,P|210:276|248:303,1,100
279,339,59651,2,0,P|336:332|384:298,1,100
421,312,60551,2,0,L|453:198,1,100
497,159,61451,6,0,B|439:173|408:144|408:144|413:138|413:138|384:91|307:68|307:68|313:77|313:77|260:89|220:58|220:58|221:66|221:66|157:91|189:144|189:144|200:138|200:138|236:171|237:217|237:217|251:215|251:215|233:269|160:267,1,675.000025749208
93,53,65051,6,0,B|86:115|86:115|92:124|92:124|112:190|112:190|109:203|109:203|80:250|80:250|84:253|84:253|92:326|92:326|98:325|98:325|177:362|177:362|173:369|173:369|295:344,1,450.000017166138
456,358,67751,2,0,B|482:297|482:297|468:286|468:286|493:217,1,150.000005722046
478,149,68651,6,0,P|422:174|400:257,1,150.000005722046
346,307,69551,2,0,P|307:339|234:277,1,150.000005722046
210,219,70451,2,0,P|275:168|277:84,1,150.000005722046
235,47,71351,1,0,0:0:0:0:
92,221,72251,6,0,L|264:194,1,150.000005722046
312,217,73151,2,0,L|155:294,1,150.000005722046
105,303,74051,2,0,L|300:327,1,150.000005722046
321,353,74951,1,0,0:0:0:0:
381,136,75851,6,0,B|345:247|345:247|342:230|342:230|281:196|241:244,1,225.000008583069
37,176,77651,2,0,B|90:212|156:181|156:181|155:190|155:190|250:139,1,225.000008583069
423,24,79451,6,0,P|397:68|442:156,1,150.000005722046
439,226,80351,2,0,P|397:202|387:94,1,150.000005722046
314,69,81251,2,0,P|310:155|371:205,1,150.000005722046
310,260,82151,2,0,P|270:177|315:107,1,150.000005722046
364,130,83051,6,0,L|198:160,1,150.000005722046
143,172,83951,1,0,0:0:0:0:
94,314,84551,1,0,0:0:0:0:
94,314,84851,2,0,L|241:287,1,150.000005722046
310,316,85751,2,0,P|353:329|395:329,2,75.0000028610231
301,241,86651,6,0,P|325:172|292:76,1,150.000005722046
259,41,87551,2,0,L|161:163,1,150.000005722046
98,193,88451,2,0,P|220:182|262:240,1,150.000005722046
264,261,89351,5,0,0:0:0:0:
335,284,89651,5,0,0:0:0:0:
279,333,89951,5,0,0:0:0:0:
