osu file format v14

[General]
AudioFilename: audio.mp3
AudioLeadIn: 0
PreviewTime: 31059
Countdown: 0
SampleSet: Normal
StackLeniency: 0.7
Mode: 0
LetterboxInBreaks: 0
WidescreenStoryboard: 1

[Editor]
DistanceSpacing: 1.5
BeatDivisor: 4
GridSize: 4
TimelineZoom: 1

[Metadata]
Title:MAROLIO (COVER JINGLE MAROLIO)
TitleUnicode:MAROLIO (COVER JINGLE MAROLIO)
Artist:ASSPERA
ArtistUnicode:ASSPERA
Creator:GastonGL
Version:MARCA EXTREMADAMENTE ELEGIDA POR LOS ARGENTINOS
Source:
Tags:tv commercial heavy thrash metal bizarro argentino argentina grandes exitos andrea baez
BeatmapID:2167890
BeatmapSetID:1028334

[Difficulty]
HPDrainRate:4
CircleSize:4
OverallDifficulty:9.5
ApproachRate:10
SliderMultiplier:2
SliderTickRate:1

[Events]
//Background and Video events
0,0,"media-photo_58f525e7fc34787c07f6f1dd_640w.jpeg",0,0
//Break Periods
//Storyboard Layer 0 (Background)
//Storyboard Layer 1 (Fail)
//Storyboard Layer 2 (Pass)
//Storyboard Layer 3 (Foreground)
//Storyboard Layer 4 (Overlay)
//Storyboard Sound Samples

[TimingPoints]
8094,500,4,1,0,100,1,0
15100,-66.6666666666667,4,1,0,100,0,0
19069,333.333333333333,4,1,0,100,1,0
24559,-80,4,1,0,100,0,0
31235,-66.6666666666667,4,1,0,100,0,1
44360,-100,4,1,0,100,0,0

[HitObjects]
169,242,8094,5,0,0:0:0:0:
392,121,10094,1,0,0:0:0:0:
217,246,10844,1,0,0:0:0:0:
96,167,12094,5,0,0:0:0:0:
219,230,12844,1,0,0:0:0:0:
370,106,14094,5,0,0:0:0:0:
101,273,14594,2,0,P|164:313|197:315,1,100
378,305,15094,1,0,0:0:0:0:
242,226,15219,6,0,L|331:236,19,75.0000028610231
396,88,17844,5,0,0:0:0:0:
250,275,18094,1,0,0:0:0:0:
91,168,18469,1,0,0:0:0:0:
213,18,18719,1,0,0:0:0:0:
400,221,18844,6,0,P|356:262|321:280,1,100
186,300,19152,1,0,0:0:0:0:
37,191,19319,2,0,P|130:156|149:154,1,100
308,173,19652,1,0,0:0:0:0:
171,253,19819,1,0,0:0:0:0:
272,54,19985,6,0,P|326:90|346:138,1,100
357,313,20319,1,0,0:0:0:0:
176,340,20485,1,0,0:0:0:0:
84,199,20652,2,0,P|92:153|147:130,1,100
336,91,20985,1,0,0:0:0:0:
453,195,21152,1,0,0:0:0:0:
311,332,21318,2,0,P|250:295|238:249,1,100
353,110,21735,5,0,0:0:0:0:
71,152,21902,2,0,P|70:216|92:261,1,100
213,359,22235,1,0,0:0:0:0:
380,169,22402,2,0,P|331:179|287:202,1,100
101,302,22735,1,0,0:0:0:0:
108,107,22902,1,0,0:0:0:0:
368,97,23068,2,0,P|307:83|259:115,1,100
72,170,23402,1,0,0:0:0:0:
292,299,23568,2,0,P|217:289|181:259,1,100
61,123,23902,2,0,B|31:143|51:175,4,50
269,72,24568,5,0,0:0:0:0:
105,321,24735,2,0,P|236:329|249:325,1,125
403,249,25068,1,0,0:0:0:0:
99,179,25235,2,0,P|165:127|232:123,1,125
382,144,25568,1,0,0:0:0:0:
448,299,25735,2,0,P|387:322|322:301,1,125
136,145,26068,1,0,0:0:0:0:
302,325,26235,2,0,P|382:278|436:202,1,187.5
96,87,26652,1,0,0:0:0:0:
327,127,26902,6,0,P|320:230|301:252,1,125
179,303,27235,2,0,P|158:230|163:183,1,125
227,118,27568,1,0,0:0:0:0:
283,313,27735,1,0,0:0:0:0:
401,81,27902,2,0,P|421:155|402:206,1,125
363,310,28235,1,0,0:0:0:0:
236,316,28402,2,0,P|195:269|187:208,1,125
216,70,28735,1,0,0:0:0:0:
394,96,28902,2,0,P|409:173|404:188,1,62.5
392,292,29152,1,0,0:0:0:0:
244,295,29318,6,0,P|147:201|148:194,1,125
308,101,29652,2,0,P|353:147|373:221,1,125
170,306,29985,2,0,P|119:221|122:196,1,125
331,106,30318,2,0,P|357:226|351:249,1,125
102,292,30652,2,0,P|80:209|95:164,1,125
272,88,30985,6,0,P|313:112|329:132,1,62.5
401,269,31235,1,0,0:0:0:0:
96,304,31402,2,0,P|171:189|191:175,1,150.000005722046
325,102,31735,1,0,0:0:0:0:
122,103,31902,1,0,0:0:0:0:
346,209,32068,2,0,P|333:318|308:339,1,150.000005722046
85,286,32402,2,0,P|142:172|165:147,1,150.000005722046
354,53,32735,1,0,0:0:0:0:
182,245,32902,1,0,0:0:0:0:
386,244,33068,6,0,P|365:181|273:140,1,150.000005722046
117,106,33402,1,0,0:0:0:0:
68,299,33568,1,0,0:0:0:0:
281,322,33735,2,0,P|356:299|409:229,1,150.000005722046
463,81,34068,1,0,0:0:0:0:
201,25,34235,1,0,0:0:0:0:
83,285,34402,2,0,P|150:346|223:348,1,150.000005722046
312,338,34735,1,0,0:0:0:0:
418,180,34902,1,0,0:0:0:0:
198,65,35068,5,0,0:0:0:0:
93,168,35235,1,0,0:0:0:0:
217,246,35402,2,0,L|163:298,2,75.0000028610231
290,160,35735,2,0,L|346:110,2,75.0000028610231
244,332,36069,1,0,0:0:0:0:
244,332,36152,1,0,0:0:0:0:
85,106,36402,5,0,0:0:0:0:
317,251,36568,1,0,0:0:0:0:
245,31,36735,1,0,0:0:0:0:
123,260,36902,1,0,0:0:0:0:
405,101,37068,1,0,0:0:0:0:
51,74,37235,1,0,0:0:0:0:
272,329,37402,1,0,0:0:0:0:
179,35,37568,1,0,0:0:0:0:
55,327,37735,1,0,0:0:0:0:
365,63,37902,1,0,0:0:0:0:
112,153,38068,5,0,0:0:0:0:
407,290,38235,1,0,0:0:0:0:
118,319,38402,1,0,0:0:0:0:
394,76,38568,1,0,0:0:0:0:
239,316,38735,5,0,0:0:0:0:
68,146,38902,1,0,0:0:0:0:
103,81,38985,1,0,0:0:0:0:
167,54,39068,1,0,0:0:0:0:
227,61,39151,1,0,0:0:0:0:
286,110,39234,1,0,0:0:0:0:
311,178,39318,1,0,0:0:0:0:
323,252,39401,1,0,0:0:0:0:
257,280,39484,5,0,0:0:0:0:
217,226,39568,1,0,0:0:0:0:
242,163,39651,1,0,0:0:0:0:
288,110,39734,1,0,0:0:0:0:
345,70,39818,1,0,0:0:0:0:
413,78,39901,1,0,0:0:0:0:
464,119,39984,1,0,0:0:0:0:
478,179,40068,1,0,0:0:0:0:
454,241,40151,5,0,0:0:0:0:
413,286,40234,1,0,0:0:0:0:
348,322,40318,1,0,0:0:0:0:
272,351,40401,1,0,0:0:0:0:
208,309,40484,1,0,0:0:0:0:
146,268,40568,1,0,0:0:0:0:
103,213,40651,1,0,0:0:0:0:
79,148,40734,1,0,0:0:0:0:
109,82,40818,5,0,0:0:0:0:
168,46,40901,1,0,0:0:0:0:
219,94,40984,1,0,0:0:0:0:
261,146,41068,1,0,0:0:0:0:
281,219,41151,1,0,0:0:0:0:
329,161,41234,1,0,0:0:0:0:
363,97,41318,1,0,0:0:0:0:
420,63,41401,1,0,0:0:0:0:
476,38,41484,5,0,0:0:0:0:
503,94,41568,1,0,0:0:0:0:
475,158,41651,1,0,0:0:0:0:
340,318,41734,5,0,0:0:0:0:
75,85,41902,1,0,0:0:0:0:
109,311,42068,1,0,0:0:0:0:
302,45,42234,1,0,0:0:0:0:
80,171,42401,1,0,0:0:0:0:
354,340,42568,1,0,0:0:0:0:
139,40,42734,1,0,0:0:0:0:
242,333,42901,1,0,0:0:0:0:
412,50,43068,1,0,0:0:0:0:
98,335,43234,5,0,0:0:0:0:
290,35,43401,1,0,0:0:0:0:
348,342,43568,1,0,0:0:0:0:
409,116,43734,1,0,0:0:0:0:
61,230,43901,1,0,0:0:0:0:
403,277,44068,1,0,0:0:0:0:
187,55,44234,1,0,0:0:0:0:
437,155,44485,6,0,P|392:202|350:228,1,100
95,285,44818,1,0,0:0:0:0:
126,56,44985,2,0,P|206:53|244:82,1,100
358,181,45318,1,0,0:0:0:0:
168,293,45485,2,0,P|215:323|256:311,1,100
469,195,45818,1,0,0:0:0:0:
173,44,45985,2,0,P|93:100|82:119,1,100
217,357,46318,1,0,0:0:0:0:
236,118,46484,2,0,P|265:74|297:55,1,50
158,274,46735,2,0,B|227:282|192:323|246:250|303:306,1,150
425,330,47234,5,0,0:0:0:0:
82,165,47401,1,0,0:0:0:0:
421,50,47568,2,0,P|335:104|325:118,1,100
167,269,47901,1,0,0:0:0:0:
387,243,48068,2,0,P|339:219|277:184,1,100
150,86,48401,1,0,0:0:0:0:
91,321,48568,2,0,P|170:313|205:312,1,100
385,312,48901,5,0,0:0:0:0:
89,182,49068,1,0,0:0:0:0:
388,48,49234,1,0,0:0:0:0:
141,343,49401,1,0,0:0:0:0:
201,37,49568,1,0,0:0:0:0:
358,176,49735,6,0,P|298:214|261:221,1,100
48,216,50068,1,0,0:0:0:0:
449,31,50234,2,0,P|472:124|476:182,1,150,0|2,0:0|0:0,0:0:0:0:
352,304,50651,1,0,0:0:0:0:
54,211,50818,2,0,P|76:106|133:67,1,150
370,95,51234,1,0,0:0:0:0:
188,335,51401,2,0,P|262:305|291:304,1,100
160,85,51734,2,0,L|103:137,1,50
152,202,52068,6,0,B|250:196|224:328|197:210|351:216,1,200
427,154,52568,1,0,0:0:0:0:
375,327,52734,1,0,0:0:0:0:
177,340,52901,1,0,0:0:0:0:
283,79,53068,2,0,P|295:154|280:236,1,150
177,340,53484,1,0,0:0:0:0:
73,242,53651,2,0,P|69:142|91:84,1,150
209,41,54068,1,0,0:0:0:0:
414,260,54234,5,0,0:0:0:0:
51,122,54401,1,0,0:0:0:0:
337,346,54568,1,0,0:0:0:0:
166,26,54734,1,0,0:0:0:0:
127,365,54901,1,0,0:0:0:0:
279,95,55068,6,0,P|357:114|412:168,1,150
466,258,55484,1,0,0:0:0:0:
337,312,55651,2,0,P|280:307|224:281,1,100
80,61,55985,2,0,P|62:114|59:171,1,100
196,329,56318,1,0,0:0:0:0:
254,215,56485,2,0,P|267:157|264:115,1,100
99,62,56818,1,0,0:0:0:0:
343,190,56985,2,0,P|282:174|234:183,1,100
142,280,57401,2,0,B|255:266|223:355|178:337|222:322|325:294,1,200
372,218,57901,5,0,0:0:0:0:
165,92,58068,2,0,P|136:137|117:197,1,100
85,318,58401,1,0,0:0:0:0:
268,282,58568,2,0,P|294:208|292:162,1,100
270,48,58901,1,0,0:0:0:0:
110,271,59068,2,0,P|180:301|217:306,1,100
380,321,59401,5,0,0:0:0:0:
74,215,59568,1,0,0:0:0:0:
442,210,59734,1,0,0:0:0:0:
74,215,59901,1,0,0:0:0:0:
442,130,60068,1,0,0:0:0:0:
74,215,60234,1,0,0:0:0:0:
254,85,60401,6,0,P|269:164|263:198,1,100
198,312,60734,1,0,0:0:0:0:
76,138,60901,2,0,P|173:188|185:201,1,100
298,271,61234,1,0,0:0:0:0:
40,319,61401,2,0,P|85:286|148:262,1,100
312,176,61734,1,0,0:0:0:0:
64,106,61901,6,0,P|146:149|170:182,1,100
238,282,62234,1,0,0:0:0:0:
214,51,62401,2,0,P|245:99|261:157,1,100
373,342,62735,2,0,B|322:331|397:277|300:313|309:252,1,100
120,181,63068,5,0,0:0:0:0:
386,103,63235,2,0,P|326:109|288:133,1,100
113,262,63568,5,0,0:0:0:0:
396,200,63735,2,0,P|347:195|299:222,1,100
81,318,64068,2,0,P|74:251|91:214,1,100
150,97,64401,1,0,0:0:0:0:
239,326,64568,2,0,P|237:246|225:223,1,100
150,97,64901,1,0,0:0:0:0:
409,54,65234,5,0,0:0:0:0:
254,338,65401,1,0,0:0:0:0:
75,66,65568,1,0,0:0:0:0:
