osu file format v14

[General]
AudioFilename: audio.mp3
AudioLeadIn: 0
PreviewTime: 35673
Countdown: 1
SampleSet: Soft
StackLeniency: 0.7
Mode: 0
LetterboxInBreaks: 0
WidescreenStoryboard: 1

[Editor]
Bookmarks: 12857,25228,37631,49986,62365,74744,87123
DistanceSpacing: 1
BeatDivisor: 4
GridSize: 4
TimelineZoom: 1

[Metadata]
Title:Re:Re:
TitleUnicode:「Re:Re:」
Artist:ASIAN KUNG-FU GENERATION(CV:Nathan Sharp)
ArtistUnicode:ASIAN KUNG-FU GENERATION(CV:Nathan Sharp)
Creator:Mercusheigan
Version:Normal
Source:劇場版NARUTO-ナルト-ROAD TO NINJA
Tags:naruto shippuden menma road to ninja the movie NATEWANTSTOBATTLE op opening MAD rere dubbed version english
BeatmapID:1296389
BeatmapSetID:463912

[Difficulty]
HPDrainRate:4
CircleSize:3.5
OverallDifficulty:4
ApproachRate:5
SliderMultiplier:0.999999999999999
SliderTickRate:1

[Events]
//Background and Video events
Video,82,"road to meme.avi"
0,0,"naruto_is_menma_by_mariaklepikova-d5bb3jb.jpg",0,0
//Break Periods
//Storyboard Layer 0 (Background)
//Storyboard Layer 1 (Fail)
//Storyboard Layer 2 (Pass)
//Storyboard Layer 3 (Foreground)
//Storyboard Sound Samples

[TimingPoints]
482,386.77238445175,4,2,1,80,1,0
2029,-100,4,2,1,70,0,0
3576,-100,4,2,1,80,0,0
5123,-100,4,2,1,70,0,0
6670,-100,4,2,1,80,0,0
8217,-100,4,2,1,70,0,0
9764,-100,4,2,1,80,0,0
11311,-100,4,2,1,100,0,0
12665,-100,4,2,1,70,0,0
12858,-100,4,2,1,60,0,0
37612,-100,4,2,1,80,0,1
49988,-100,4,2,1,45,0,0
62355,386.77238445175,4,2,1,100,1,0
62355,-100,4,2,1,65,0,0
74731,-100,4,2,1,80,0,0
89622,-100,4,2,1,5,0,0

[HitObjects]
132,224,95,5,0,0:0:0:0:
211,285,482,6,0,P|258:300|321:288,1,99.9999999999999,0|8,0:0|0:0,0:0:0:0:
394,245,1255,2,0,B|403:193|403:193|395:142,1,99.9999999999999,0|8,0:0|0:0,0:0:0:0:
319,84,2029,1,0,0:0:0:0:
221,69,2415,1,8,0:0:0:0:
130,113,2802,1,0,0:0:0:0:
138,13,3189,1,8,0:0:0:0:
221,69,3576,6,0,P|235:112|221:187,1,99.9999999999999,0|8,0:0|0:0,0:0:0:0:
140,210,4349,2,0,P|134:259|149:306,1,99.9999999999999,0|8,0:0|0:0,0:0:0:0:
239,351,5123,1,0,0:0:0:0:
329,308,5510,1,8,0:0:0:0:
418,352,5896,1,0,0:0:0:0:
508,310,6283,1,8,0:0:0:0:
455,225,6670,6,0,B|443:175|443:175|456:124,1,99.9999999999999,0|8,0:0|0:0,0:0:0:0:
362,90,7443,2,0,B|335:133|335:133|289:160,1,99.9999999999999,0|8,0:0|0:0,0:0:0:0:
193,164,8217,1,0,0:0:0:0:
238,75,8604,1,8,0:0:0:0:
293,158,8990,1,0,0:0:0:0:
248,247,9377,1,8,0:0:0:0:
189,328,9764,6,0,L|148:283,1,50
115,260,10151,2,0,L|78:281,2,25,8|0|0,0:0|0:0|0:0,0:0:0:0:
140,216,10538,2,0,L|173:199,2,25
95,192,10924,2,0,L|87:80,1,99.9999999999999,8|12,0:0|0:0,0:0:0:0:
142,219,12858,6,0,P|194:232|255:210,2,99.9999999999999,0|8|0,0:0|0:0|0:0,0:0:0:0:
72,146,14019,1,8,0:0:0:0:
142,75,14405,2,0,P|190:63|238:76,2,99.9999999999999,0|8|0,0:0|0:0|0:0,0:0:0:0:
72,146,15566,1,8,0:0:0:0:
132,227,15952,6,0,L|157:339,1,99.9999999999999,0|8,0:0|0:0,0:0:0:0:
253,310,16726,2,0,L|221:192,1,99.9999999999999,0|8,0:0|0:0,0:0:0:0:
240,165,17306,1,0,0:0:0:0:
254,117,17499,1,0,0:0:0:0:
343,71,17886,1,8,0:0:0:0:
441,86,18273,1,0,0:0:0:0:
503,164,18660,1,8,0:0:0:0:
458,253,19047,6,0,P|399:283|348:271,1,99.9999999999999,0|8,0:0|0:0,0:0:0:0:
272,246,19820,2,0,P|198:223|159:237,1,99.9999999999999,0|8,0:0|0:0,0:0:0:0:
132,248,20400,1,0,0:0:0:0:
88,272,20594,1,0,0:0:0:0:
21,197,20980,1,8,0:0:0:0:
87,122,21367,2,0,P|123:133|191:120,1,99.9999999999999,0|8,0:0|0:0,0:0:0:0:
276,86,22141,5,0,0:0:0:0:
369,49,22528,2,0,P|417:38|465:50,2,99.9999999999999,8|0|8,0:0|0:0|0:0,0:0:0:0:
276,86,23688,2,0,L|275:158,1,50
317,162,24075,2,0,L|316:234,1,50,8|0,0:0|0:0,0:0:0:0:
274,238,24461,2,0,L|274:358,1,99.9999999999999,0|8,0:0|0:0,0:0:0:0:
370,363,25235,6,0,B|421:376|421:376|481:359,2,99.9999999999999,4|8|0,0:0|0:0|0:0,0:0:0:0:
343,266,26395,1,8,0:0:0:0:
389,177,26782,2,0,P|401:126|381:72,1,99.9999999999999,0|8,0:0|0:0,0:0:0:0:
340,64,27362,1,0,0:0:0:0:
287,86,27556,2,0,P|275:137|295:191,1,99.9999999999999,0|8,0:0|0:0,0:0:0:0:
343,266,28329,5,0,0:0:0:0:
279,343,28716,1,8,0:0:0:0:
185,307,29103,2,0,L|119:326,2,50,0|0|8,0:0|0:0|0:0,0:0:0:0:
201,259,29683,1,0,0:0:0:0:
188,210,29876,2,0,B|176:157|176:157|144:109,1,99.9999999999999,0|8,0:0|0:0,0:0:0:0:
241,77,30650,2,0,B|253:130|253:130|285:178,1,99.9999999999999,0|8,0:0|0:0,0:0:0:0:
368,211,31423,5,0,0:0:0:0:
434,136,31810,2,0,L|441:28,2,99.9999999999999,8|0|8,0:0|0:0|0:0,0:0:0:0:
468,232,32970,2,0,P|464:268|424:320,1,99.9999999999999,0|8,0:0|0:0,0:0:0:0:
328,304,33744,2,0,B|280:296|280:296|224:304,1,99.9999999999999,0|8,0:0|0:0,0:0:0:0:
132,328,34517,5,0,0:0:0:0:
44,280,34904,1,8,0:0:0:0:
64,180,35291,2,0,L|76:64,1,99.9999999999999,0|8,0:0|0:0,0:0:0:0:
168,48,36065,2,0,L|184:0,2,50,8|0|8,0:0|0:0|0:0,0:0:0:0:
224,132,36838,2,0,L|204:188,2,50,8|8|8,0:0|0:0|0:0,0:0:0:0:
260,96,37418,1,8,0:0:0:0:
308,80,37612,6,0,P|368:76|416:96,1,99.9999999999999,4|8,0:0|0:0,0:0:0:0:
488,148,38385,2,0,L|488:260,1,99.9999999999999,0|8,0:0|0:0,0:0:0:0:
456,284,38965,1,0,0:0:0:0:
416,316,39159,2,0,B|372:348|372:348|312:348,2,99.9999999999999,0|8|0,0:0|0:0|0:0,0:0:0:0:
488,248,40319,1,8,0:0:0:0:
404,196,40706,6,0,P|344:232|308:232,1,99.9999999999999,0|8,0:0|0:0,0:0:0:0:
272,212,41286,1,0,0:0:0:0:
228,236,41479,2,0,P|179:228|139:198,1,99.9999999999999,0|8,0:0|0:0,0:0:0:0:
60,140,42253,2,0,L|48:252,1,99.9999999999999,0|8,0:0|0:0,0:0:0:0:
127,298,43026,2,0,L|139:198,1,99.9999999999999,0|8,0:0|0:0,0:0:0:0:
164,156,43607,1,0,0:0:0:0:
200,120,43800,6,0,B|248:138|248:138|292:118,1,99.9999999999999,0|8,0:0|0:0,0:0:0:0:
384,80,44574,2,0,P|372:124|388:192,1,99.9999999999999,0|8,0:0|0:0,0:0:0:0:
408,220,45154,1,0,0:0:0:0:
436,260,45347,1,0,0:0:0:0:
364,328,45734,1,8,0:0:0:0:
272,284,46121,1,0,0:0:0:0:
172,292,46507,2,0,L|112:308,1,50,8|0,0:0|0:0,0:0:0:0:
80,332,46894,6,0,P|88:276|92:216,1,99.9999999999999,0|8,0:0|0:0,0:0:0:0:
92,184,47474,1,0,0:0:0:0:
88,136,47668,1,0,0:0:0:0:
144,52,48055,1,8,0:0:0:0:
236,20,48441,2,0,L|296:8,2,50,8|8|8,0:0|0:0|0:0,0:0:0:0:
216,120,49215,2,0,L|160:128,2,50,8|8|8,0:0|0:0|0:0,0:0:0:0:
264,128,49795,1,8,0:0:0:0:
312,144,49988,6,0,P|347:178|395:189,2,99.9999999999999,4|0|0,0:0|0:0|0:0,0:0:0:0:
224,96,51149,1,0,0:0:0:0:
136,144,51535,2,0,P|100:178|52:189,2,99.9999999999999
224,96,52696,1,0,0:0:0:0:
224,196,53083,6,0,L|224:300,1,99.9999999999999
136,340,53856,2,0,L|84:364,2,50
88,252,54630,1,0,0:0:0:0:
140,168,55016,1,0,0:0:0:0:
84,84,55403,2,0,P|140:76|192:52,1,99.9999999999999
276,28,56177,6,0,P|332:24|392:48,2,99.9999999999999
179,59,57337,1,0,0:0:0:0:
260,120,57724,2,0,P|310:144|350:195,2,99.9999999999999
179,59,58884,1,0,0:0:0:0:
108,128,59271,6,0,L|124:240,1,99.9999999999999
76,316,60044,2,0,P|132:328|184:304,1,99.9999999999999
220,296,60625,1,0,0:0:0:0:
268,280,60818,2,0,P|315:265|363:278,1,99.9999999999999
408,296,61398,1,0,0:0:0:0:
456,316,61592,2,0,L|468:156,1,150
472,120,62355,6,0,B|504:76|504:76|504:20,2,99.9999999999999,8|8|8,0:0|0:0|0:0,0:0:0:0:
388,176,63515,1,8,0:0:0:0:
304,120,63902,2,0,B|272:76|272:76|272:20,2,99.9999999999999,8|8|8,0:0|0:0|0:0,0:0:0:0:
388,176,65062,1,8,0:0:0:0:
324,252,65449,6,0,P|268:264|216:248,2,99.9999999999999,8|8|8,0:0|0:0|0:0,0:0:0:0:
388,176,66609,1,8,0:0:0:0:
472,228,66996,2,0,P|484:284|468:336,1,99.9999999999999,8|8,0:0|0:0,0:0:0:0:
389,272,67769,2,0,P|377:216|393:164,1,99.9999999999999,8|8,0:0|0:0,0:0:0:0:
472,120,68543,5,8,0:0:0:0:
384,68,68930,2,0,B|352:52|352:52|284:52,2,99.9999999999999,8|8|8,0:0|0:0|0:0,0:0:0:0:
472,120,70090,2,0,B|488:88|488:88|488:20,2,99.9999999999999,8|8|8,0:0|0:0|0:0,0:0:0:0:
387,175,71250,1,8,0:0:0:0:
340,264,71637,6,0,P|396:276|448:252,2,99.9999999999999,8|8|8,0:0|0:0|0:0,0:0:0:0:
248,224,72797,1,8,0:0:0:0:
152,252,73184,2,0,L|120:204,1,50,8|0,0:0|0:0,0:0:0:0:
96,168,73571,2,0,L|68:168,2,25,8|8|8,0:0|0:0|0:0,0:0:0:0:
116,120,73958,2,0,L|88:80,6,25,8|8|8|8|8|0|8,0:0|0:0|0:0|0:0|0:0|0:0|0:0,0:0:0:0:
164,128,74731,6,0,P|220:120|264:76,1,99.9999999999999,4|8,0:0|0:0,0:0:0:0:
352,96,75505,2,0,P|391:125|440:130,1,99.9999999999999,0|8,0:0|0:0,0:0:0:0:
500,212,76278,1,0,0:0:0:0:
440,292,76665,1,8,0:0:0:0:
380,212,77052,2,0,P|324:204|276:216,1,99.9999999999999,0|8,0:0|0:0,0:0:0:0:
192,260,77825,6,0,P|143:269|94:261,2,99.9999999999999,0|8|0,0:0|0:0|0:0,0:0:0:0:
282,213,78986,1,8,0:0:0:0:
356,144,79372,2,0,L|364:36,1,99.9999999999999,0|8,0:0|0:0,0:0:0:0:
456,88,80146,2,0,L|448:187,1,99.9999999999999,0|8,0:0|0:0,0:0:0:0:
448,288,80920,5,4,0:0:0:0:
364,340,81306,1,8,0:0:0:0:
268,308,81693,2,0,B|220:296|220:296|164:304,1,99.9999999999999,0|8,0:0|0:0,0:0:0:0:
80,348,82467,2,0,P|68:296|88:244,1,99.9999999999999,0|8,0:0|0:0,0:0:0:0:
128,164,83240,2,0,P|142:116|129:68,1,99.9999999999999,0|8,0:0|0:0,0:0:0:0:
224,36,84014,6,0,L|336:48,1,99.9999999999999,0|8,0:0|0:0,0:0:0:0:
356,140,84787,2,0,L|256:129,1,99.9999999999999,0|8,0:0|0:0,0:0:0:0:
164,168,85561,2,0,L|104:192,2,50,0|0|8,0:0|0:0|0:0,0:0:0:0:
240,232,86334,2,0,L|300:256,2,50,0|0|8,0:0|0:0|0:0,0:0:0:0:
256,192,87108,12,0,89622,0:0:0:0:
