osu file format v14

[General]
AudioFilename: audio.mp3
AudioLeadIn: 0
PreviewTime: 35673
Countdown: 1
SampleSet: Soft
StackLeniency: 0.7
Mode: 0
LetterboxInBreaks: 0
WidescreenStoryboard: 0

[Editor]
Bookmarks: 12857,25228,37631,49986,62365,74744,87123
DistanceSpacing: 6
BeatDivisor: 4
GridSize: 4
TimelineZoom: 1

[Metadata]
Title:Re:Re:
TitleUnicode:「Re:Re:」
Artist:ASIAN KUNG-FU GENERATION(CV:Nathan Sharp)
ArtistUnicode:ASIAN KUNG-FU GENERATION(CV:Nathan Sharp)
Creator:Mercusheigan
Version:Nindou
Source:劇場版NARUTO-ナルト-ROAD TO NINJA
Tags:naruto shippuden menma road to ninja the movie NATEWANTSTOBATTLE op opening MAD rere dubbed version english
BeatmapID:1150880
BeatmapSetID:463912

[Difficulty]
HPDrainRate:7
CircleSize:4.2
OverallDifficulty:8
ApproachRate:9.2
SliderMultiplier:2
SliderTickRate:1

[Events]
//Background and Video events
Video,82,"road to meme.avi"
0,0,"naruto_is_menma_by_mariaklepikova-d5bb3jb.jpg",0,0
//Break Periods
//Storyboard Layer 0 (Background)
//Storyboard Layer 1 (Fail)
//Storyboard Layer 2 (Pass)
//Storyboard Layer 3 (Foreground)
//Storyboard Sound Samples

[TimingPoints]
482,386.77238445175,4,2,1,80,1,0
2029,-100,4,2,1,70,0,0
3576,-100,4,2,1,80,0,0
5123,-100,4,2,1,70,0,0
6670,-100,4,2,1,80,0,0
8217,-100,4,2,1,70,0,0
9764,-100,4,2,1,80,0,0
11311,-100,4,2,1,100,0,0
12665,-100,4,2,1,70,0,0
12858,-111.111111111111,4,2,1,60,0,0
37612,-100,4,2,1,80,0,1
49988,-133.333333333333,4,2,1,45,0,0
62355,386.77238445175,4,2,1,100,1,0
62355,-133.333333333333,4,2,1,65,0,0
74731,-100,4,2,1,80,0,0
89622,-100,4,2,1,5,0,0

[HitObjects]
256,106,95,5,4,0:0:0:0:
96,296,482,6,0,P|144:304|196:296,1,100
418,239,868,2,0,P|370:231|318:239,1,100,8|0,0:0|0:0,0:0:0:0:
96,181,1255,2,0,P|144:189|196:181,1,100
418,124,1642,2,0,P|370:116|318:124,1,100,8|0,0:0|0:0,0:0:0:0:
96,181,2029,5,0,0:0:0:0:
276,320,2222,1,0,0:0:0:0:
196,99,2415,1,8,0:0:0:0:
188,368,2609,1,0,0:0:0:0:
319,238,2802,1,0,0:0:0:0:
116,300,2996,1,8,0:0:0:0:
204,112,3189,1,8,0:0:0:0:
292,340,3382,1,0,0:0:0:0:
184,135,3576,6,0,P|133:105|88:108,1,100
317,164,3962,2,0,P|368:134|413:137,1,100,8|0,0:0|0:0,0:0:0:0:
193,220,4349,2,0,P|151:247|102:248,1,100
325,248,4736,2,0,P|366:275|415:276,1,100,8|0,0:0|0:0,0:0:0:0:
459,48,5123,5,0,0:0:0:0:
480,206,5316,1,0,0:0:0:0:
327,34,5510,1,8,0:0:0:0:
348,192,5703,1,0,0:0:0:0:
185,34,5896,1,0,0:0:0:0:
164,192,6090,1,8,0:0:0:0:
53,48,6283,1,8,0:0:0:0:
32,206,6476,1,0,0:0:0:0:
206,315,6670,6,0,B|256:322|256:322|313:315,1,100
306,78,7057,2,0,B|256:71|256:71|199:78,1,100,8|0,0:0|0:0,0:0:0:0:
370,242,7443,2,0,B|377:192|377:192|370:135,1,100
133,142,7830,2,0,B|126:192|126:192|133:249,1,100,8|0,0:0|0:0,0:0:0:0:
306,78,8217,5,0,0:0:0:0:
132,241,8410,1,0,0:0:0:0:
370,242,8604,1,8,0:0:0:0:
206,77,8797,1,0,0:0:0:0:
305,315,8990,1,0,0:0:0:0:
306,78,9184,1,8,0:0:0:0:
206,315,9377,1,8,0:0:0:0:
206,77,9571,1,0,0:0:0:0:
403,288,9764,6,0,P|408:234|391:182,1,100
306,78,10151,1,8,0:0:0:0:
297,60,10248,1,8,0:0:0:0:
289,42,10344,1,8,0:0:0:0:
212,244,10538,1,0,0:0:0:0:
134,98,10731,1,8,0:0:0:0:
134,98,10828,1,8,0:0:0:0:
134,98,10924,1,8,0:0:0:0:
316,328,11118,1,0,0:0:0:0:
356,131,11311,1,12,0:0:0:0:
144,174,12665,5,8,0:0:0:0:
144,174,12858,2,0,P|199:173|239:181,1,89.9999972534181,4|0,0:0|0:0,0:0:0:0:
268,308,13245,2,0,P|172:319|92:292,2,179.999994506836,8|0|8,0:0|0:0|0:0,0:0:0:0:
233,179,14212,1,0,0:0:0:0:
233,179,14405,6,0,P|178:180|138:172,1,89.9999972534181
109,45,14792,2,0,P|205:34|285:61,2,179.999994506836,8|0|8,0:0|0:0|0:0,0:0:0:0:
143,173,15759,1,0,0:0:0:0:
236,266,15952,6,0,P|290:266|326:245,1,89.9999972534181
387,134,16339,2,0,P|333:134|297:155,1,89.9999972534181,8|0,0:0|0:0,0:0:0:0:
236,266,16726,1,0,0:0:0:0:
109,301,16919,1,0,0:0:0:0:
143,173,17113,1,8,0:0:0:0:
383,313,17306,1,0,0:0:0:0:
383,313,17403,1,0,0:0:0:0:
383,313,17499,6,0,L|405:213,1,89.9999972534181
368,97,17886,2,0,P|419:85|464:97,1,89.9999972534181,8|0,0:0|0:0,0:0:0:0:
283,147,18273,2,0,P|272:89|289:37,1,89.9999972534181
454,92,18660,1,8,0:0:0:0:
414,269,18853,1,0,0:0:0:0:
283,147,19047,6,0,P|227:146|193:128,1,89.9999972534181
76,71,19433,2,0,L|87:250,2,179.999994506836,8|0|8,0:0|0:0|0:0,0:0:0:0:
193,4,20400,1,0,0:0:0:0:
315,60,20594,6,0,P|362:88|383:121,1,89.9999972534181
467,223,20980,2,0,L|478:43,2,179.999994506836,8|0|8,0:0|0:0|0:0,0:0:0:0:
371,317,21947,1,0,0:0:0:0:
243,273,22141,6,0,P|212:233|203:189,1,89.9999972534181
328,30,22528,1,8,0:0:0:0:
378,156,22721,1,0,0:0:0:0:
203,195,22914,2,0,L|107:195,1,89.9999972534181
1,119,23301,1,8,0:0:0:0:
123,61,23494,1,0,0:0:0:0:
123,61,23688,6,0,B|168:56|168:56|217:61,1,89.9999972534181
264,233,24075,2,0,B|219:238|219:238|170:233,1,89.9999972534181,8|0,0:0|0:0,0:0:0:0:
330,146,24461,2,0,P|371:227|339:311,1,179.999994506836,0|8,0:0|0:0,0:0:0:0:
176,233,25042,1,0,0:0:0:0:
176,233,25235,6,0,P|165:169|175:135,1,89.9999972534181,4|0,0:0|0:0,0:0:0:0:
330,146,25622,2,0,P|437:113|461:42,2,179.999994506836,8|0|8,0:0|0:0|0:0,0:0:0:0:
250,8,26589,1,0,0:0:0:0:
250,8,26782,6,0,P|190:21|153:11,1,89.9999972534181
170,145,27169,2,0,P|230:132|267:142,1,89.9999972534181,8|0,0:0|0:0,0:0:0:0:
305,260,27556,2,0,P|218:300|117:257,1,179.999994506836,0|8,0:0|0:0,0:0:0:0:
41,185,28136,1,0,0:0:0:0:
170,145,28329,6,0,P|223:152|268:128,1,89.9999972534181
384,12,28716,2,0,P|341:44|326:93,1,89.9999972534181,8|0,0:0|0:0,0:0:0:0:
462,198,29103,2,0,P|455:144|420:107,1,89.9999972534181
255,138,29489,1,8,0:0:0:0:
317,306,29683,1,0,0:0:0:0:
317,306,29876,6,0,L|203:298,1,89.9999972534181
99,216,30263,2,0,L|213:208,1,89.9999972534181,8|0,0:0|0:0,0:0:0:0:
317,125,30650,2,0,L|203:117,1,89.9999972534181
84,63,31037,1,8,0:0:0:0:
99,216,31230,1,0,0:0:0:0:
227,299,31423,6,0,B|273:304|273:304|323:297,1,89.9999972534181
188,219,31810,2,0,P|142:309|180:375,2,179.999994506836,8|0|8,0:0|0:0|0:0,0:0:0:0:
341,220,32777,1,0,0:0:0:0:
426,92,32970,6,0,P|414:37|426:-2,1,89.9999972534181
494,229,33357,2,0,P|501:283|484:328,1,89.9999972534181,8|0,0:0|0:0,0:0:0:0:
341,220,33744,2,0,P|312:128|328:28,1,179.999994506836,0|8,0:0|0:0,0:0:0:0:
456,116,34324,1,0,0:0:0:0:
341,220,34517,6,0,P|295:246|239:244,1,89.9999972534181
216,48,34904,1,8,0:0:0:0:
148,172,35098,1,0,0:0:0:0:
126,305,35291,2,0,B|175:314|175:314|236:311,1,89.9999972534181
381,242,35678,1,8,0:0:0:0:
224,152,35871,1,8,0:0:0:0:
382,65,36065,6,0,P|436:60|482:84,1,89.9999972534181,8|8,0:0|0:0,0:0:0:0:
426,276,36451,1,8,0:0:0:0:
426,276,36548,1,8,0:0:0:0:
426,276,36645,1,8,0:0:0:0:
308,178,36838,1,8,0:0:0:0:
175,336,37031,1,8,0:0:0:0:
175,336,37128,1,8,0:0:0:0:
175,336,37225,1,8,0:0:0:0:
132,116,37418,1,8,0:0:0:0:
265,266,37612,6,0,P|343:264|394:150,1,200,4|8,0:0|0:0,0:0:0:0:
247,80,38192,1,0,0:0:0:0:
75,118,38385,2,0,B|74:173|74:173|49:216,1,100
128,356,38772,1,8,0:0:0:0:
263,264,38965,1,0,0:0:0:0:
425,306,39159,6,0,P|376:332|262:260,1,200,0|8,0:0|0:0,0:0:0:0:
196,148,39739,1,0,0:0:0:0:
334,146,39932,2,0,P|358:202|346:258,1,100
314,34,40319,2,0,P|364:23|426:36,1,100,8|0,0:0|0:0,0:0:0:0:
452,236,40706,6,0,P|402:247|340:234,1,100
180,162,41093,1,8,0:0:0:0:
314,75,41286,1,0,0:0:0:0:
180,162,41479,2,0,L|64:158,1,100
210,48,41866,1,8,0:0:0:0:
232,262,42060,1,0,0:0:0:0:
232,262,42253,6,0,P|284:260|327:230,1,100
434,105,42640,2,0,P|382:107|339:137,1,100,8|0,0:0|0:0,0:0:0:0:
173,136,43026,2,0,P|122:113|98:53,1,100
263,24,43413,1,8,0:0:0:0:
283,173,43607,1,0,0:0:0:0:
223,310,43800,6,0,P|128:288|79:195,1,200,0|8,0:0|0:0,0:0:0:0:
283,173,44380,1,0,0:0:0:0:
372,291,44574,2,0,P|425:288|475:242,1,100
450,112,44960,1,8,0:0:0:0:
326,28,45154,1,0,0:0:0:0:
326,28,45347,6,0,P|269:57|221:57,1,100
57,151,45734,2,0,P|120:154|162:178,1,100,8|0,0:0|0:0,0:0:0:0:
299,305,46121,2,0,P|235:301|193:277,1,100
264,148,46507,1,8,0:0:0:0:
176,26,46701,1,0,0:0:0:0:
324,225,46894,6,0,P|360:170|304:59,1,200,0|8,0:0|0:0,0:0:0:0:
152,170,47474,1,0,0:0:0:0:
272,284,47668,2,0,P|328:305|374:286,1,100
442,164,48055,1,8,0:0:0:0:
327,71,48248,1,0,0:0:0:0:
152,170,48441,6,0,P|76:177|48:150,1,100
188,39,48828,1,8,0:0:0:0:
188,39,48925,1,8,0:0:0:0:
188,39,49021,1,8,0:0:0:0:
240,307,49215,1,8,0:0:0:0:
339,132,49408,1,8,0:0:0:0:
386,120,49505,1,8,0:0:0:0:
427,90,49602,1,8,0:0:0:0:
452,48,49698,1,8,0:0:0:0:
460,0,49795,1,8,0:0:0:0:
480,149,49988,6,0,P|457:193|465:244,1,75.0000028610231,4|0,0:0|0:0,0:0:0:0:
466,319,50375,1,0,0:0:0:0:
466,319,50569,1,0,0:0:0:0:
370,337,50762,2,0,P|290:313|219:333,1,150.000005722046
135,362,51342,1,0,0:0:0:0:
47,320,51535,6,0,P|32:260|42:217,1,75.0000028610231
101,177,51922,1,0,0:0:0:0:
180,235,52116,1,0,0:0:0:0:
247,164,52309,2,0,P|317:175|390:121,1,150.000005722046
437,55,52889,1,0,0:0:0:0:
477,144,53083,6,0,P|471:202|451:236,1,75.0000028610231
405,294,53469,1,0,0:0:0:0:
405,294,53663,1,0,0:0:0:0:
314,328,53856,2,0,P|265:335|230:322,1,75.0000028610231
169,262,54243,1,0,0:0:0:0:
259,227,54436,1,8,0:0:0:0:
259,227,54533,1,8,0:0:0:0:
259,227,54630,6,0,P|251:173|266:138,1,75.0000028610231
346,113,55016,2,0,P|354:167|339:202,1,75.0000028610231
256,154,55403,2,0,P|232:78|259:8,1,150.000005722046
351,27,55983,1,0,0:0:0:0:
441,64,56177,6,0,B|449:102|449:102|441:138,1,75.0000028610231
407,229,56563,2,0,B|399:265|399:265|407:303,1,75.0000028610231
310,320,56950,2,0,P|274:331|157:273,1,150.000005722046
219,208,57530,1,0,0:0:0:0:
160,129,57724,6,0,P|150:88|157:51,1,75.0000028610231
252,68,58111,1,0,0:0:0:0:
346,42,58304,1,0,0:0:0:0:
432,89,58497,2,0,B|443:6,2,75.0000028610231
410,184,59078,1,0,0:0:0:0:
379,276,59271,6,0,P|404:306|447:322,1,75.0000028610231
410,184,59658,2,0,P|384:153|341:137,1,75.0000028610231
245,172,60044,2,0,P|199:185|108:134,1,150.000005722046
203,61,60625,1,0,0:0:0:0:
316,110,60818,6,0,P|334:192|287:258,1,150.000005722046
212,166,61398,1,0,0:0:0:0:
242,50,61592,2,0,P|319:18|392:52,1,150.000005722046,0|0,0:0|0:0,0:0:0:0:
433,147,62172,1,0,0:0:0:0:
403,263,62355,6,0,P|325:294|252:260,2,150.000005722046,8|8|8,0:0|0:0|0:0,0:0:0:0:
433,147,63515,1,8,0:0:0:0:
318,115,63902,2,0,B|245:146|246:91|168:116,2,150.000005722046,8|8|8,0:0|0:0|0:0,0:0:0:0:
403,30,65062,1,8,0:0:0:0:
433,147,65449,6,0,B|445:213|445:213|427:309,2,150.000005722046,8|8|8,0:0|0:0|0:0,0:0:0:0:
318,115,66609,1,8,0:0:0:0:
239,205,66996,2,0,P|161:218|101:157,1,150.000005722046,8|8,0:0|0:0,0:0:0:0:
60,67,67769,2,0,P|138:54|198:115,1,150.000005722046,8|8,0:0|0:0,0:0:0:0:
239,205,68543,5,8,0:0:0:0:
310,107,68930,2,0,B|349:84|364:55|364:55|397:57|442:31,2,150.000005722046,8|8|8,0:0|0:0|0:0,0:0:0:0:
239,205,70090,2,0,B|199:227|184:256|184:256|151:254|106:280,2,150.000005722046,8|8|8,0:0|0:0|0:0,0:0:0:0:
189,95,71250,1,8,0:0:0:0:
310,107,71637,6,0,P|374:125|420:222,2,150.000005722046,8|8|8,0:0|0:0|0:0,0:0:0:0:
239,205,72797,1,8,0:0:0:0:
153,289,73184,6,0,P|122:252|114:214,1,75.0000028610231,8|0,0:0|0:0,0:0:0:0:
165,52,73571,1,8,0:0:0:0:
165,52,73668,1,8,0:0:0:0:
165,52,73764,1,8,0:0:0:0:
239,205,73958,1,8,0:0:0:0:
267,229,74054,1,8,0:0:0:0:
302,240,74151,1,8,0:0:0:0:
339,238,74248,1,8,0:0:0:0:
373,222,74344,1,8,0:0:0:0:
453,61,74538,1,0,0:0:0:0:
448,299,74731,6,0,P|404:338|349:344,1,100,4|0,0:0|0:0,0:0:0:0:
184,275,75118,2,0,P|228:236|283:230,1,100,8|0,0:0|0:0,0:0:0:0:
479,183,75505,1,0,0:0:0:0:
334,22,75698,1,0,0:0:0:0:
386,267,75892,1,8,0:0:0:0:
453,61,76085,1,0,0:0:0:0:
267,228,76278,6,0,P|212:249|158:236,1,100
285,103,76665,2,0,P|340:82|394:95,1,100,8|0,0:0|0:0,0:0:0:0:
386,267,77052,1,0,0:0:0:0:
463,103,77245,1,0,0:0:0:0:
478,298,77439,1,8,0:0:0:0:
379,88,77632,1,0,0:0:0:0:
220,152,77825,6,0,P|156:162|80:59,1,200,0|8,0:0|0:0,0:0:0:0:
292,232,78599,2,0,P|356:222|432:325,1,200,0|8,0:0|0:0,0:0:0:0:
257,360,79179,1,0,0:0:0:0:
147,218,79372,6,0,L|42:210,1,100
220,152,79759,2,0,L|325:144,1,100,8|0,0:0|0:0,0:0:0:0:
452,22,80146,1,0,0:0:0:0:
465,221,80339,1,0,0:0:0:0:
485,123,80533,1,8,0:0:0:0:
400,304,80726,1,0,0:0:0:0:
208,243,80920,6,0,P|155:257|125:291,1,100,4|0,0:0|0:0,0:0:0:0:
306,205,81306,2,0,P|359:191|389:157,1,100,8|0,0:0|0:0,0:0:0:0:
309,19,81693,1,0,0:0:0:0:
306,205,81887,1,0,0:0:0:0:
212,58,82080,1,8,0:0:0:0:
208,243,82273,1,0,0:0:0:0:
436,288,82467,6,0,P|461:193|435:96,1,200,0|8,0:0|0:0,0:0:0:0:
76,96,83240,2,0,P|51:191|77:288,1,200,0|8,0:0|0:0,0:0:0:0:
243,358,83820,1,0,0:0:0:0:
376,238,84014,6,0,P|387:187|373:138,1,100
136,146,84401,2,0,P|125:197|139:246,1,100,8|0,0:0|0:0,0:0:0:0:
374,141,84787,2,0,B|324:131|324:131|274:138,1,100
137,242,85174,2,0,B|187:252|187:252|237:245,1,100,8|0,0:0|0:0,0:0:0:0:
374,141,85561,5,0,0:0:0:0:
202,171,85754,1,0,0:0:0:0:
307,310,85948,1,8,0:0:0:0:
275,137,86141,1,0,0:0:0:0:
137,242,86334,1,0,0:0:0:0:
310,211,86528,1,0,0:0:0:0:
206,73,86721,1,8,0:0:0:0:
232,292,86915,1,0,0:0:0:0:
328,64,87108,1,4,0:0:0:0:
256,192,87301,12,0,89622,0:0:0:0:
