osu file format v14

[General]
AudioFilename: rewrite.mp3
AudioLeadIn: 0
PreviewTime: 59922
Countdown: 0
SampleSet: Soft
StackLeniency: 0.7
Mode: 0
LetterboxInBreaks: 0
WidescreenStoryboard: 0

[Editor]
Bookmarks: 11147,32599,48707
DistanceSpacing: 0.8
BeatDivisor: 4
GridSize: 32
TimelineZoom: 2.4

[Metadata]
Title:rewrite
TitleUnicode:リライト
Artist:ASIAN KUNG-FU GENERATION
ArtistUnicode:ASIAN KUNG-FU GENERATION
Creator:Irohas
Version:normal
Source:鋼の錬金術師
Tags:fullmetal alchemist hagane no renkijutsushi ハガレン hagaren fma edward elric alphonse akg opening 4 tv size mugiwarasekai hazu- pkhg
BeatmapID:1010067
BeatmapSetID:472742

[Difficulty]
HPDrainRate:4
CircleSize:3.5
OverallDifficulty:4
ApproachRate:5
SliderMultiplier:1.15
SliderTickRate:1

[Events]
//Background and Video events
0,0,"bg.jpg",0,0
//Break Periods
//Storyboard Layer 0 (Background)
//Storyboard Layer 1 (Fail)
//Storyboard Layer 2 (Pass)
//Storyboard Layer 3 (Foreground)
//Storyboard Sound Samples

[TimingPoints]
6,335.195530726257,4,2,1,70,1,0
12073,-100,4,2,1,60,0,0
22799,-100,4,2,2,70,0,0
22966,-100,4,2,1,60,0,0
30843,-100,4,2,1,70,0,0
38888,-100,4,2,1,60,0,0
60341,-100,4,2,1,90,0,1
60676,-100,4,2,1,80,0,1
70732,-100,4,2,1,80,0,0
71067,-100,4,2,1,80,0,1
81458,-100,4,2,1,80,0,0
81793,-100,4,2,1,80,0,1
92519,-100,4,2,1,70,0,0
95369,-100,4,2,1,50,0,0

[Colours]
Combo1 : 133,192,241
Combo2 : 251,209,164
Combo3 : 170,255,251
Combo4 : 223,223,223

[HitObjects]
30,96,1346,6,0,P|38:151|49:230,1,115,4|8,0:0|0:0,0:0:0:0:
99,285,2017,2,0,P|96:320|93:355,2,57.5,2|2|10,0:1|0:1|0:0,0:0:0:0:
131,252,2519,2,0,P|184:235|247:257,1,115,2|0,0:0|3:0,0:0:0:0:
274,281,3022,1,8,0:0:0:0:
343,220,3357,1,2,3:1:0:0:
411,281,3693,1,8,0:0:0:0:
481,221,4028,6,0,P|473:164|464:107,1,115,2|8,3:0|0:0,0:0:0:0:
377,79,4698,2,0,P|382:116|387:155,2,57.5,2|2|10,3:1|3:1|0:0,0:0:0:0:
339,51,5201,2,0,P|284:45|206:36,1,115,2|2,0:0|3:2,0:0:0:0:
178,33,5704,1,12,0:0:0:0:
111,96,6039,2,8,P|116:134|121:177,1,57.5,6|8,0:0|0:0,0:0:0:0:
144,191,6374,2,8,P|139:229|134:272,1,57.5,8|2,0:0|3:1,0:0:0:0:
121,291,6709,6,0,P|178:284|255:275,1,115,4|8,0:0|0:0,0:0:0:0:
314,230,7380,2,0,P|347:233|393:239,2,57.5,2|2|8,3:0|3:1|0:2,0:0:0:0:
229,193,8050,2,0,P|211:156|235:71,1,115,2|8,3:0|0:0,0:0:0:0:
308,50,8721,2,0,P|341:53|387:59,1,57.5,2|2,3:0|3:2,0:0:0:0:
411,58,9056,1,8,0:0:0:0:
465,132,9391,6,0,P|457:187|446:266,1,115,2|8,3:0|0:0,0:0:0:0:
358,264,10061,2,0,P|354:235|350:207,2,57.5,2|2|12,3:0|3:1|0:0,0:0:0:0:
306,340,10732,2,0,P|251:360|197:339,1,115,8|8,0:0|3:2,0:0:0:0:
143,269,11402,1,8,0:0:0:0:
82,337,11737,1,8,0:0:0:0:
15,273,12073,6,0,P|7:216|-1:159,1,115,4|12,0:0|0:1,0:0:0:0:
63,93,12743,2,0,P|66:64|70:36,2,57.5,6|0|12,3:1|3:1|0:1,0:0:0:0:
132,153,13413,2,0,P|187:144|266:135,1,115,4|12,3:1|0:1,0:0:0:0:
315,76,14084,2,0,P|348:79|394:85,1,57.5,6|2,3:1|3:1,0:0:0:0:
418,85,14419,1,12,0:1:0:0:
482,150,14754,6,0,P|473:206|465:263,1,115,4|12,3:1|0:1,0:0:0:0:
376,287,15424,2,0,P|372:258|368:230,2,57.5,4|0|12,3:1|3:1|0:1,0:0:0:0:
302,343,16095,2,0,P|247:363|193:342,1,115,4|12,3:1|0:1,0:0:0:0:
119,293,16765,1,6,3:1:0:0:
185,229,17100,1,12,0:1:0:0:
104,183,17436,6,0,P|96:126|87:69,1,115,4|12,3:1|0:1,0:0:0:0:
178,57,18106,2,0,P|181:85|185:113,2,57.5,4|2|14,3:1|3:1|0:1,0:0:0:0:
263,24,18776,2,0,P|318:33|397:42,1,115,4|12,3:1|0:1,0:0:0:0:
468,50,19447,2,0,P|464:78|460:106,1,57.5,6|2,3:1|3:1,0:0:0:0:
451,152,19782,1,12,0:1:0:0:
360,167,20117,6,0,P|368:223|376:280,1,115,4|12,3:1|0:1,0:0:0:0:
454,329,20788,2,0,P|482:331|511:334,2,57.5,6|0|12,3:1|3:0|0:1,0:0:0:0:
374,375,21458,2,0,P|319:366|240:357,1,115,6|12,3:1|0:1,0:0:0:0:
181,310,22128,2,0,P|148:313|102:319,1,57.5,6|2,3:1|3:1,0:0:0:0:
78,325,22463,1,12,0:0:0:0:
5,268,22799,6,0,P|-13:215|13:148,1,115,6|12,0:2|0:1,0:0:0:0:
76,104,23469,2,0,P|79:75|83:47,2,57.5,4|0|12,3:1|3:1|0:1,0:0:0:0:
148,160,24140,2,0,P|203:151|282:142,1,115,4|12,3:1|0:1,0:0:0:0:
341,189,24810,2,0,P|374:192|420:198,1,57.5,6|2,3:1|3:1,3:1:0:0:
444,204,25145,1,12,0:1:0:0:
401,285,25480,6,0,P|346:276|267:267,1,115,6|12,3:1|0:1,0:0:0:0:
207,315,26151,2,0,P|211:342|218:380,2,57.5,6|2|14,3:1|3:1|0:1,0:0:0:0:
127,268,26821,2,0,P|109:215|135:148,1,115,4|12,3:1|0:1,0:0:0:0:
200,107,27492,1,6,3:1:0:0:
129,48,27827,1,12,0:1:0:0:
212,9,28162,6,0,P|269:16|325:25,1,115,4|12,3:1|0:1,0:0:0:0:
404,72,28832,2,0,P|432:69|461:66,2,57.5,6|2|12,3:1|3:1|0:1,0:0:0:0:
335,134,29503,2,0,B|312:191|312:191|340:243,1,115,4|12,3:1|0:1,0:0:0:0:
431,245,30173,2,0,P|425:279|419:313,1,57.5,6|0,3:1|3:0,0:0:0:0:
414,347,30508,1,12,0:1:0:0:
326,375,30843,6,0,P|271:366|192:357,1,115,6|12,3:1|0:1,0:0:0:0:
121,341,31514,2,0,P|66:363|-1:335,1,115,6|12,3:1|0:1,0:0:0:0:
63,270,32184,1,4,3:1:0:0:
115,194,32519,1,8,0:0:0:0:
188,250,32855,2,8,P|225:245|254:242,1,57.5,2|8,3:1|3:3,0:0:0:0:
287,223,33190,2,8,P|315:226|344:230,1,57.5,8|8,3:3|0:0,0:0:0:0:
383,253,33525,6,0,P|391:196|399:139,1,115,6|8,3:2|0:0,0:0:0:0:
349,61,34195,2,0,P|344:26|339:-10,2,57.5,2|0|8,3:0|3:0|0:0,0:0:0:0:
300,140,34866,2,0,P|247:158|183:132,1,115,2|8,3:0|0:0,0:0:0:0:
107,106,35536,2,0,P|110:73|117:25,1,57.5,2|2,3:0|3:2,0:0:0:0:
123,3,35871,1,8,0:0:0:0:
33,25,36207,6,0,P|25:80|14:159,1,115,2|8,3:0|0:0,0:0:0:0:
83,202,36877,2,0,P|120:195|158:188,2,57.5,2|2|12,3:0|3:1|0:0,0:0:0:0:
70,293,37547,2,0,P|127:299|193:309,1,115,8|8,0:0|3:2,0:0:0:0:
268,269,38218,1,8,3:3:0:0:
340,326,38553,1,8,0:0:0:0:
419,280,38888,6,0,P|441:226|408:152,1,115,4|12,0:0|0:1,0:0:0:0:
456,85,39559,2,0,P|490:79|533:72,2,57.5,4|2|12,3:1|3:1|0:1,0:0:0:0:
367,110,40229,2,0,P|310:102|252:95,1,115,4|12,3:1|0:1,0:0:0:0:
182,157,40899,2,0,P|149:160|103:166,1,57.5,4|2,3:1|3:1,0:0:0:0:
79,166,41234,1,12,0:1:0:0:
7,107,41570,6,0,P|-15:161|6:226,1,115,4|12,3:1|0:1,0:0:0:0:
51,288,42240,2,0,P|46:319|41:354,2,57.5,4|2|12,3:1|3:1|0:1,0:0:0:0:
132,244,42911,2,0,B|189:223|189:223|254:249,1,115,4|12,3:1|0:1,0:0:0:0:
328,263,43581,2,0,P|324:295|318:344,1,57.5,6|2,3:1|3:1,0:0:0:0:
316,365,43916,1,12,0:0:0:0:
407,357,44251,6,0,P|415:300|423:243,1,115,4|12,3:1|0:1,0:0:0:0:
393,155,44922,2,0,P|424:149|465:161,2,57.5,6|0|12,3:1|3:1|0:1,0:0:0:0:
310,194,45592,2,0,P|253:186|195:179,1,115,4|12,3:1|0:1,0:0:0:0:
133,111,46262,2,0,P|100:114|54:120,1,57.5,6|2,3:1|3:1,0:0:0:0:
30,122,46597,1,12,0:1:0:0:
45,212,46933,6,0,P|37:267|26:346,1,115,4|12,3:1|0:1,0:0:0:0:
119,308,47603,2,0,P|123:279|127:251,2,57.5,4|0|12,3:1|3:1|0:1,0:0:0:0:
197,357,48274,2,0,P|249:372|323:341,1,115,6|12,3:1|0:1,0:0:0:0:
354,277,48944,2,0,P|350:248|346:220,1,57.5,6|8,3:1|3:3,0:0:0:0:
311,189,49279,2,0,P|315:160|319:132,1,57.5,8|8,0:0|0:0,0:0:0:0:
337,89,49614,6,0,P|280:82|194:72,1,115,4|8,0:0|0:1,0:0:0:0:
140,115,50285,2,0,P|84:95|31:109,1,115,6|12,3:1|0:1,0:0:0:0:
85,183,50955,1,6,3:1:0:0:
23,251,51290,1,12,0:1:0:0:
89,314,51626,2,0,P|80:358|76:380,2,57.5,6|2|12,3:1|3:1|0:1,0:0:0:0:
155,250,52296,6,0,P|211:230|267:250,1,115,6|12,3:1|0:1,0:0:0:0:
317,319,52966,2,0,P|373:339|429:319,1,115,6|12,3:1|0:1,0:0:0:0:
485,254,53637,1,6,3:1:0:0:
417,191,53972,1,12,0:1:0:0:
482,126,54307,2,0,P|478:93|472:45,1,57.5,6|2,3:1|3:1,0:0:0:0:
468,23,54642,1,12,0:1:0:0:
376,36,54978,6,0,P|319:28|261:22,1,115,4|12,0:0|0:1,0:0:0:0:
217,102,55648,2,0,P|159:108|102:115,1,115,6|12,3:1|0:1,0:0:0:0:
28,170,56318,1,6,3:1:0:0:
95,232,56654,1,12,0:1:0:0:
18,282,56989,2,0,P|11:324|6:361,2,57.5,6|2|12,3:1|3:1|0:1,0:0:0:0:
95,232,57659,6,0,P|151:224|209:218,1,115,6|12,3:1|0:1,0:0:0:0:
282,274,58330,2,0,P|315:277|357:281,1,57.5,6|2,3:1|3:1,0:0:0:0:
385,283,58665,1,12,0:1:0:0:
449,217,59000,6,0,P|477:214|506:211,2,57.5,6|2|12,3:2|3:1|0:1,0:0:0:0:
369,170,59670,1,12,0:0:0:0:
431,101,60006,1,8,3:3:0:0:
359,42,60341,6,0,P|307:25|243:52,1,115,4|8,3:0|0:0,0:0:0:0:
173,92,61011,2,0,P|145:89|116:86,2,57.5,2|0|8,3:0|3:1|0:0,0:0:0:0:
256,130,61681,1,2,3:0:0:0:
192,196,62017,1,8,0:0:0:0:
270,244,62352,2,0,P|320:238|398:230,1,115,2|8,3:0|0:0,0:0:0:0:
386,323,63022,6,0,P|328:328|271:335,1,115,2|8,3:0|0:0,0:0:0:0:
191,290,63693,2,0,P|182:252|176:221,2,57.5,2|0|8,3:0|3:1|0:0,0:0:0:0:
142,368,64363,1,2,3:0:0:0:
74,305,64698,1,8,0:0:0:0:
2,363,65033,2,0,P|-18:308|7:243,1,115,2|8,3:0|0:0,0:0:0:0:
82,219,65704,6,0,P|102:164|77:99,1,115,2|8,3:0|0:0,0:0:0:0:
56,24,66374,2,0,P|23:19|-20:14,2,57.5,2|0|8,3:0|3:1|0:0,0:0:0:0:
146,43,67045,2,0,P|203:36|260:30,1,115,2|8,3:0|0:0,0:0:0:0:
339,74,67715,2,0,P|372:77|418:82,1,57.5,2|2,3:0|3:1,0:0:0:0:
442,83,68050,1,8,3:3:0:0:
390,159,68385,6,0,B|357:243|436:236|402:327,1,172.5,4|8,0:0|0:0,0:0:0:0:
313,301,69223,1,2,0:1:0:0:
313,301,69391,2,0,P|273:294|231:282,1,57.5,8|8,0:0|3:3,0:0:0:0:
228,326,69726,2,0,P|113:341|43:351,1,172.5,0|8,3:1|0:0,0:0:0:0:
32,260,70564,1,8,3:0:0:0:
32,260,70732,2,0,L|104:249,1,57.5,8|8,0:0|0:0,0:0:0:0:
132,235,71067,6,0,B|154:183|154:183|120:113,1,115,4|8,0:0|0:0,0:0:0:0:
56,73,71737,2,0,L|0:81,2,57.5,2|0|8,3:0|3:1|0:0,0:0:0:0:
135,25,72408,1,2,3:0:0:0:
209,78,72743,1,8,0:0:0:0:
288,31,73078,2,0,P|338:37|416:45,1,115,2|8,3:0|0:0,0:0:0:0:
491,20,73749,6,0,P|513:73|490:133,1,115,2|8,3:0|0:0,0:0:0:0:
409,156,74419,2,0,L|344:146,2,57.5,2|0|8,3:0|3:1|0:0,0:0:0:0:
486,205,75089,1,2,3:0:0:0:
432,280,75424,1,8,0:0:0:0:
493,348,75760,2,0,P|441:371|372:348,1,115,2|8,3:0|0:0,0:0:0:0:
329,285,76430,6,0,P|277:262|208:285,1,115,6|8,3:2|0:0,0:0:0:0:
139,314,77100,2,0,P|146:352|153:390,2,57.5,2|0|8,3:0|3:1|0:0,0:0:0:0:
69,253,77771,2,0,P|76:196|85:139,1,115,2|8,3:0|0:0,0:0:0:0:
41,58,78441,2,0,P|84:52|111:47,1,57.5,2|2,3:0|3:1,0:0:0:0:
141,34,78776,1,8,3:3:0:0:
180,117,79112,6,0,P|223:123|315:139,1,115,12|12,0:1|0:1,0:0:0:0:
351,63,79782,2,0,P|407:52|464:44,1,115,12|12,0:1|0:1,0:0:0:0:
443,134,80452,1,12,3:1:0:0:
511,196,80788,1,8,3:0:0:0:
438,252,81123,1,8,3:3:0:0:
503,316,81458,1,8,3:3:0:0:
426,366,81793,6,0,P|369:356|312:348,1,115,4|8,0:0|0:0,0:0:0:0:
230,305,82464,2,0,L|173:313,2,57.5,2|0|8,3:0|3:1|0:0,0:0:0:0:
304,250,83134,1,2,3:0:0:0:
252,173,83469,1,10,0:0:0:0:
309,101,83804,2,0,P|255:82|196:100,1,115,2|10,3:0|0:0,0:0:0:0:
112,122,84475,6,0,P|120:178|131:239,1,115,2|8,3:0|0:0,0:0:0:0:
75,309,85145,2,0,P|42:303|7:297,2,57.5,2|0|8,3:0|3:1|0:0,0:0:0:0:
158,357,85816,1,2,3:0:0:0:
227,296,86151,1,8,0:0:0:0:
300,361,86486,2,0,P|353:352|442:339,1,115,2|8,3:0|0:0,0:0:0:0:
496,303,87156,6,0,B|520:251|520:251|489:183,1,115,2|8,3:0|0:0,0:0:0:0:
421,140,87827,2,0,P|414:99|409:70,2,57.5,2|0|8,3:0|3:1|0:0,0:0:0:0:
358,207,88497,2,0,P|303:225|238:197,1,115,2|8,3:0|0:0,0:0:0:0:
191,136,89168,2,0,P|198:95|203:66,1,57.5,2|2,3:0|3:1,0:0:0:0:
212,34,89503,1,8,0:0:0:0:
120,41,89838,6,0,P|111:97|101:158,1,115,2|8,3:0|0:0,0:0:0:0:
139,238,90508,2,0,L|125:312,2,57.5,2|2|12,3:0|3:1|0:0,0:0:0:0:
202,168,91179,1,2,3:0:0:0:
276,222,91514,1,8,0:0:0:0:
343,159,91849,2,0,L|332:102,2,57.5,2|2|12,3:0|3:1|0:0,0:0:0:0:
414,216,92519,1,12,0:1:0:0:
414,216,93525,5,8,0:0:0:0:
414,216,93693,2,0,P|315:265|247:231,1,172.5,4|12,0:0|0:1,0:0:0:0:
191,187,94531,1,4,3:1:0:0:
254,120,94866,1,12,0:1:0:0:
186,57,95201,1,4,0:0:0:0:
186,57,95369,2,0,B|143:33|143:33|8:73,1,172.5,0|2,3:0|0:0,0:0:0:0:
0,156,96207,1,2,3:2:0:0:
0,156,96374,2,0,P|7:191|16:232,1,57.5
