osu file format v14

[General]
AudioFilename: rewrite.mp3
AudioLeadIn: 0
PreviewTime: 59922
Countdown: 0
SampleSet: Soft
StackLeniency: 0.2
Mode: 0
LetterboxInBreaks: 0
WidescreenStoryboard: 0

[Editor]
Bookmarks: 11147,22804,33530,38893,49619,60346,92524
DistanceSpacing: 0.3
BeatDivisor: 4
GridSize: 32
TimelineZoom: 2.4

[Metadata]
Title:rewrite
TitleUnicode:リライト
Artist:ASIAN KUNG-FU GENERATION
ArtistUnicode:ASIAN KUNG-FU GENERATION
Creator:Irohas
Version:dignity
Source:鋼の錬金術師
Tags:fullmetal alchemist hagane no renkijutsushi ハガレン hagaren fma edward elric alphonse akg opening 4 tv size mugiwarasekai hazu- pkhg
BeatmapID:1620293
BeatmapSetID:472742

[Difficulty]
HPDrainRate:7
CircleSize:4.2
OverallDifficulty:8.5
ApproachRate:9.2
SliderMultiplier:1.75
SliderTickRate:2

[Events]
//Background and Video events
0,0,"bg.jpg",0,0
//Break Periods
//Storyboard Layer 0 (Background)
//Storyboard Layer 1 (Fail)
//Storyboard Layer 2 (Pass)
//Storyboard Layer 3 (Foreground)
//Storyboard Sound Samples

[TimingPoints]
6,335.195530726257,4,2,1,70,1,0
1011,-200,4,2,1,70,0,0
1262,-200,4,2,1,5,0,0
1346,-100,4,2,1,70,0,0
6961,-100,4,2,1,5,0,0
7045,-100,4,2,1,70,0,0
11067,-86.9565217391304,4,2,1,70,0,0
12073,-111.111111111111,4,2,1,70,0,0
21709,-111.111111111111,4,2,1,5,0,0
21793,-111.111111111111,4,2,1,70,0,0
22715,-111.111111111111,4,2,1,5,0,0
22799,-111.111111111111,4,2,2,70,0,0
22966,-111.111111111111,4,2,1,70,0,0
32184,-100,4,2,1,70,0,0
32771,-100,4,2,1,5,0,0
32855,-86.9565217391304,4,2,1,70,0,0
33190,-100,4,2,1,70,0,0
33525,-100,4,2,1,70,0,0
33776,-100,4,2,1,5,0,0
33860,-100,4,2,1,70,0,0
37883,-86.9565217391304,4,2,1,70,0,0
38302,-80,4,2,1,70,0,0
38721,-74.0740740740741,4,2,1,70,0,0
38888,-111.111111111111,4,2,1,70,0,0
43916,-100,4,2,1,70,0,0
44168,-100,4,2,1,5,0,0
44251,-111.111111111111,4,2,1,70,0,0
48944,-100,4,2,1,70,0,0
49279,-100,4,2,1,70,0,0
49447,-100,4,2,1,70,0,0
49614,-100,4,2,1,70,0,0
49866,-100,4,2,1,5,0,0
49950,-105.263157894737,4,2,1,70,0,0
59503,-100,4,2,1,70,0,0
60006,-200,4,2,1,70,0,0
60257,-200,4,2,1,5,0,0
60341,-100,4,2,1,95,0,1
60508,-100,4,2,1,80,0,1
69056,-111.111111111111,4,2,1,80,0,1
70732,-100,4,2,1,80,0,0
71067,-100,4,2,1,80,0,1
71318,-100,4,2,1,5,0,1
71402,-100,4,2,1,80,0,1
80788,-86.9565217391304,4,2,1,80,0,1
81458,-86.9565217391304,4,2,1,80,0,0
81793,-100,4,2,1,80,0,1
92519,-125,4,2,1,70,0,0
92687,-125,4,2,1,50,0,0
93525,-105.263157894737,4,2,1,70,0,0
95366,-125,4,2,1,50,0,0
96542,-100,4,2,1,50,0,0
96626,-125,4,2,1,5,0,0

[Colours]
Combo1 : 133,192,241
Combo2 : 251,209,164
Combo3 : 170,255,251
Combo4 : 223,223,223

[HitObjects]
332,312,1011,6,0,P|362:304|406:293,1,65.625,12|0,3:2|0:0,0:0:0:0:
395,296,1346,6,0,P|344:291|210:279,1,175,4|8,0:0|0:0,0:0:0:0:
223,285,1849,1,2,0:0:0:0:
417,219,2017,2,0,P|438:169|424:132,1,87.5,2|2,0:1|0:1,0:1:0:0:
214,53,2352,1,8,0:0:0:0:
342,163,2519,6,0,P|294:156|237:151,1,87.5,2|2,0:0|3:0,0:0:0:0:
187,204,2855,1,0,3:0:0:0:
335,80,3022,1,8,0:0:0:0:
183,218,3190,1,0,3:0:0:0:
42,89,3357,6,0,P|51:133|62:191,1,87.5,2|2,3:1|3:1,3:1:0:0:
126,343,3693,2,0,P|117:300|108:257,1,87.5,10|0,0:0|3:0,3:1:0:0:
285,138,4028,6,0,B|241:122|241:122|194:140,1,87.5,2|2,3:0|0:0,0:0:0:0:
367,234,4363,2,0,P|421:224|476:215,1,87.5,8|0,0:0|0:0,0:0:0:0:
243,211,4698,5,2,3:1:0:0:
301,332,4866,1,2,3:1:0:0:
331,131,5033,5,8,0:0:0:0:
301,332,5201,1,2,0:0:0:0:
143,291,5369,5,2,3:0:0:0:
367,212,5536,1,2,3:2:0:0:
144,111,5704,6,0,P|153:155|164:213,1,87.5,14|0,0:0|3:1,3:1:0:0:
287,35,6039,1,6,0:0:0:0:
280,29,6123,1,2,3:1:0:0:
272,24,6207,6,8,P|267:57|261:91,1,43.75
248,151,6374,1,8,0:0:0:0:
480,47,6542,1,2,3:1:0:0:
468,41,6626,1,8,0:0:0:0:
458,35,6709,6,0,P|444:143|439:184,1,131.25,4|0,0:0|0:0,0:0:0:0:
358,211,7045,2,0,P|338:161|353:120,1,87.5,8|2,0:0|0:0,0:0:0:0:
407,317,7380,2,0,P|351:307|297:299,1,87.5,0|2,3:0|3:1,3:1:0:0:
158,202,7715,2,0,P|201:209|244:216,1,87.5,8|2,0:2|3:2,3:2:0:0:
246,131,8050,5,2,3:0:0:0:
121,288,8218,1,0,3:0:0:0:
0,143,8385,2,0,P|9:190|22:251,1,87.5,8|2,0:0|0:0,0:0:0:0:
197,353,8721,1,2,3:0:0:0:
128,211,8888,1,2,3:2:0:0:
197,353,9056,5,8,0:0:0:0:
236,156,9223,1,2,0:0:0:0:
41,322,9391,6,0,P|96:308|150:295,1,87.5,2|0,3:0|0:0,0:0:0:0:
289,246,9726,1,8,0:0:0:0:
130,110,9894,2,0,P|139:157|152:218,1,87.5,2|2,0:2|3:0,0:0:0:0:
44,178,10229,5,2,3:1:0:0:
212,74,10397,1,12,0:0:0:0:
115,10,10564,1,0,3:1:0:0:
242,166,10732,5,8,0:0:0:0:
276,158,10815,1,8,3:3:0:0:
310,151,10899,1,8,3:3:0:0:
344,145,10983,1,8,3:3:0:0:
376,136,11067,6,0,P|369:167|361:207,1,50.3125009596348,8|0,3:2|3:1,0:0:0:0:
372,304,11235,1,8,0:0:0:0:
374,308,11318,1,0,3:0:0:0:
376,312,11402,6,8,P|381:287|386:262,1,50.3125009596348
296,343,11570,1,8,0:0:0:0:
292,346,11654,1,2,3:1:0:0:
288,349,11737,6,0,P|246:362|225:361,1,50.3125009596348,8|8,0:0|3:3,0:0:0:0:
465,278,11905,2,8,P|489:281|512:291,1,50.3125009596348
363,235,12073,6,0,P|326:144|349:79,1,157.499995193482,4|12,0:0|0:1,0:0:0:0:
209,0,12575,1,2,0:0:0:0:
148,62,12743,2,0,P|157:100|169:143,1,78.7499975967408,6|0,3:1|3:1,3:1:0:0:
124,288,13078,2,0,P|115:249|105:211,1,78.7499975967408,14|0,0:1|3:1,3:1:0:0:
196,347,13413,5,4,3:1:0:0:
268,235,13581,1,0,3:1:0:0:
380,343,13749,2,0,P|341:336|302:328,1,78.7499975967408,12|0,0:1|0:0,0:0:0:0:
494,201,14084,1,6,3:1:0:0:
421,158,14251,1,2,3:1:0:0:
486,297,14419,2,0,P|476:340|465:387,1,78.7499975967408,12|0,0:1|0:0,0:0:0:0:
336,265,14754,6,0,P|383:246|425:258,1,78.7499975967408,4|0,3:1|3:0,3:0:0:0:
258,134,15089,2,0,P|268:177|279:224,1,78.7499975967408,12|0,0:1|3:0,0:0:0:0:
315,63,15424,5,4,3:1:0:0:
181,174,15592,1,2,3:1:0:0:
64,55,15760,2,0,P|71:98|80:145,1,78.7499975967408,12|0,0:1|0:0,0:0:0:0:
154,263,16095,6,0,P|160:224|168:172,1,78.7499975967408,4|0,3:1|3:0,3:0:0:0:
44,352,16430,2,0,P|86:344|139:336,1,78.7499975967408,12|0,0:1|3:0,0:0:0:0:
242,265,16765,5,6,3:1:0:0:
208,384,16933,1,2,3:1:0:0:
375,347,17100,2,0,P|333:339|280:331,1,78.7499975967408,12|0,0:1|3:0,0:0:0:0:
462,143,17436,6,0,P|515:231|487:306,1,157.499995193482,4|12,3:1|0:1,0:0:0:0:
340,127,17938,1,2,0:0:0:0:
417,222,18106,2,0,P|372:214|325:206,1,78.7499975967408,6|2,3:1|3:1,3:1:0:0:
195,251,18441,2,0,P|233:257|272:264,1,78.7499975967408,12|0,0:1|0:1,3:1:0:0:
251,176,18776,5,4,3:1:0:0:
137,317,18944,1,2,3:1:0:0:
47,257,19112,2,0,P|27:301|30:336,1,78.7499975967408,12|0,0:1|0:0,0:0:0:0:
122,217,19447,5,6,3:1:0:0:
55,151,19614,1,2,3:1:0:0:
137,317,19782,5,12,0:1:0:0:
245,133,19950,1,0,3:0:0:0:
309,202,20117,6,0,P|299:253|289:305,1,78.7499975967408,4|0,3:1|3:0,0:0:0:0:
160,83,20452,1,12,0:1:0:0:
245,133,20620,6,0,P|288:123|347:114,1,78.7499975967408,2|6,0:0|3:1,0:0:0:0:
174,196,20955,1,0,0:0:0:0:
130,0,21123,1,12,0:1:0:0:
235,54,21290,1,0,3:1:0:0:
56,173,21458,6,0,P|47:221|38:271,1,78.7499975967408,6|0,3:1|3:0,0:0:0:0:
4,88,21793,1,12,0:1:0:0:
174,196,21961,1,0,3:0:0:0:
178,202,22045,1,8,3:2:0:0:
180,209,22128,5,6,3:1:0:0:
116,99,22296,1,2,3:1:0:0:
190,310,22464,2,0,P|250:297|330:280,1,118.124996395111,12|0,0:0|0:0,0:0:0:0:
298,272,22799,6,0,P|340:294|384:292,1,78.7499975967408,6|0,3:2|3:0,0:0:0:0:
484,106,23134,1,12,0:1:0:0:
449,190,23302,2,0,P|458:232|469:278,1,78.7499975967408,2|4,0:0|3:1,0:0:0:0:
352,215,23637,5,2,3:1:0:0:
488,101,23804,2,0,P|442:83|390:95,1,78.7499975967408,12|0,0:1|3:0,0:0:0:0:
254,146,24140,6,0,P|293:146|328:130,1,78.7499975967408,4|0,3:1|3:0,3:0:0:0:
132,28,24475,1,12,0:1:0:0:
167,109,24642,6,0,P|159:152|138:286,1,157.499995193482,0|2,3:0|3:1,3:0:0:0:
294,275,25145,1,12,0:1:0:0:
243,203,25313,1,0,3:0:0:0:
311,377,25480,2,0,P|362:368|413:361,1,78.7499975967408,6|0,3:1|3:0,3:0:0:0:
203,309,25816,1,12,0:1:0:0:
307,257,25983,6,0,P|339:164|315:104,1,157.499995193482,0|2,3:0|3:1,3:0:0:0:
194,0,26486,1,12,0:1:0:0:
280,37,26654,1,0,3:0:0:0:
146,165,26821,2,0,P|98:156|56:148,1,78.7499975967408,4|0,3:1|0:0,0:0:0:0:
222,101,27156,5,12,0:1:0:0:
112,265,27324,1,0,3:0:0:0:
232,208,27492,5,6,3:1:0:0:
124,68,27659,1,2,3:1:0:0:
232,228,27827,2,0,P|280:219|322:211,1,78.7499975967408,12|0,0:1|3:0,0:0:0:0:
461,132,28162,6,0,P|420:116|376:126,1,78.7499975967408,4|0,3:1|3:0,0:0:0:0:
512,225,28497,1,12,0:1:0:0:
433,296,28665,2,0,P|423:250|411:196,1,78.7499975967408,2|4,0:0|3:1,0:0:0:0:
221,344,29000,1,2,3:1:0:0:
324,274,29168,2,0,P|273:265|223:258,1,78.7499975967408,12|0,0:1|0:0,0:0:0:0:
59,283,29503,6,0,P|97:288|136:295,1,78.7499975967408,4|0,3:1|0:0,0:0:0:0:
8,136,29838,1,12,0:1:0:0:
102,96,30006,2,0,P|93:134|85:172,1,78.7499975967408,2|6,0:0|3:1,0:0:0:0:
276,91,30341,1,0,0:0:0:0:
222,170,30508,2,0,P|264:197|302:196,1,78.7499975967408,12|0,0:1|0:0,0:0:0:0:
172,13,30843,6,0,P|180:51|188:89,1,78.7499975967408,6|0,3:1|3:0,0:0:0:0:
215,259,31179,2,0,P|223:220|231:182,1,78.7499975967408,12|2,0:1|3:1,0:0:0:0:
401,99,31514,1,6,3:1:0:0:
365,196,31681,1,2,3:1:0:0:
312,19,31849,5,12,0:1:0:0:
365,196,32017,1,0,3:0:0:0:
452,27,32184,5,6,3:1:0:0:
281,145,32352,1,2,3:1:0:0:
511,105,32519,6,0,P|500:163|483:251,1,131.25,12|0,0:0|0:0,0:0:0:0:
436,296,32855,6,8,P|412:305|387:308,1,50.3125009596348,2|8,3:1|0:0,0:0:0:0:
268,231,33022,2,8,P|292:234|316:242,1,50.3125009596348,8|8,3:3|0:0,0:0:0:0:
302,332,33190,5,8,3:3:0:0:
274,353,33273,1,8,0:0:0:0:
239,360,33357,1,8,0:0:0:0:
204,357,33441,1,8,0:0:0:0:
172,340,33525,6,0,P|227:329|325:316,1,131.25,6|0,3:2|0:0,0:0:0:0:
268,231,33860,2,0,P|221:219|176:237,1,87.5,8|0,0:0|0:0,0:0:0:0:
29,139,34195,2,0,P|37:181|46:224,1,87.5,2|0,3:0|3:0,3:1:0:0:
167,75,34531,2,0,P|158:117|149:160,1,87.5,10|0,0:0|3:0,3:1:0:0:
90,32,34866,5,2,3:0:0:0:
236,145,35033,1,2,3:2:0:0:
395,23,35201,2,0,B|417:65|417:65|399:108,1,87.5,8|2,0:0|0:0,0:0:0:0:
289,232,35536,1,2,3:0:0:0:
211,53,35704,1,2,3:2:0:0:
332,132,35871,5,8,0:0:0:0:
176,225,36039,1,2,0:2:0:0:
330,346,36207,6,0,P|275:332|221:319,1,87.5,2|0,3:0|3:0,0:0:0:0:
453,267,36542,1,8,0:0:0:0:
332,144,36710,2,0,P|341:191|354:252,1,87.5,2|2,0:2|3:0,0:0:0:0:
400,83,37045,5,2,3:1:0:0:
257,214,37212,1,12,0:0:0:0:
166,83,37380,1,2,3:0:0:0:
7,208,37547,5,8,0:0:0:0:
41,200,37630,1,8,3:3:0:0:
75,193,37714,1,8,3:3:0:0:
109,187,37798,1,8,3:3:0:0:
141,178,37883,6,0,P|134:209|126:249,1,50.3125009596348,8|0,3:2|3:1,0:0:0:0:
167,78,38050,2,0,P|161:53|156:28,1,50.3125009596348,8|0,3:2|3:1,0:0:0:0:
228,141,38218,5,0,3:1:0:0:
235,146,38302,2,0,P|268:141|298:129,1,54.6875,8|8,0:0|3:3,0:0:0:0:
416,222,38469,5,8,3:3:0:0:
415,215,38553,2,0,P|389:206|362:202,1,54.6875,8|8,0:0|3:3,0:0:0:0:
274,239,38721,6,8,P|285:281|289:317,1,59.0625002253056
372,106,38888,6,0,P|460:61|529:90,1,157.499995193482,4|12,0:0|0:1,0:0:0:0:
404,231,39391,1,2,0:0:0:0:
508,175,39559,2,0,P|496:224|488:264,1,78.7499975967408,6|2,3:1|3:1,3:1:0:0:
330,366,39894,2,0,P|338:327|347:289,1,78.7499975967408,12|0,0:1|3:1,3:1:0:0:
179,101,40229,5,4,3:1:0:0:
225,244,40397,1,0,3:0:0:0:
342,178,40564,2,0,P|303:171|242:160,1,78.7499975967408,12|0,0:1|0:0,0:0:0:0:
17,77,40899,1,4,3:1:0:0:
99,27,41066,1,2,3:1:0:0:
32,178,41234,2,0,P|42:221|53:268,1,78.7499975967408,12|0,0:1|0:0,0:0:0:0:
115,121,41570,6,0,P|162:102|204:114,1,78.7499975967408,4|0,3:1|3:0,3:0:0:0:
342,159,41905,2,0,P|295:178|253:166,1,78.7499975967408,12|0,0:1|3:0,3:0:0:0:
417,107,42240,5,4,3:1:0:0:
355,244,42408,1,2,3:1:0:0:
246,108,42575,2,0,P|256:151|267:198,1,78.7499975967408,12|0,0:1|3:0,0:0:0:0:
101,242,42911,2,0,P|148:223|190:235,1,78.7499975967408,4|0,3:1|3:0,3:0:0:0:
346,357,43246,1,12,0:1:0:0:
243,384,43413,6,0,P|251:345|260:307,1,78.7499975967408,2|6,0:0|3:1,0:0:0:0:
373,147,43749,1,2,3:1:0:0:
186,256,43916,6,0,P|262:215|326:239,1,131.25,12|0,0:0|0:0,0:0:0:0:
314,214,44251,6,0,P|304:265|294:314,1,78.7499975967408,6|2,3:1|3:1,3:1:0:0:
388,144,44587,1,12,0:1:0:0:
294,106,44754,6,0,P|191:123|130:133,1,157.499995193482,0|0,3:1|3:1,3:1:0:0:
0,73,45257,1,12,0:1:0:0:
80,25,45424,1,0,3:0:0:0:
0,170,45592,6,0,P|8:211|18:265,1,78.7499975967408,6|0,3:1|3:1,3:1:0:0:
139,370,45927,1,12,0:1:0:0:
236,321,46095,6,0,P|269:226|243:173,1,157.499995193482,0|2,3:0|3:1,3:0:0:0:
150,26,46598,1,12,0:1:0:0:
236,76,46765,1,0,3:0:0:0:
75,196,46933,2,0,P|37:185|-1:175,1,78.7499975967408,4|0,3:1|3:0,3:0:0:0:
165,120,47268,5,12,0:1:0:0:
215,283,47436,2,0,P|237:242|230:193,1,78.7499975967408,2|4,0:0|3:1,0:0:0:0:
146,223,47771,5,0,3:1:0:0:
246,381,47938,1,12,0:1:0:0:
303,276,48106,1,0,3:0:0:0:
115,374,48274,5,6,3:1:0:0:
319,268,48441,1,2,3:1:0:0:
227,162,48609,5,12,0:1:0:0:
332,384,48776,1,2,3:0:0:0:
433,174,48944,5,6,3:1:0:0:
422,166,49028,1,8,3:3:0:0:
409,169,49112,1,8,3:3:0:0:
402,180,49195,1,8,3:3:0:0:
425,200,49279,5,8,0:0:0:0:
442,174,49362,1,8,0:0:0:0:
430,145,49446,1,8,0:0:0:0:
400,138,49530,1,8,0:0:0:0:
382,180,49614,6,0,P|431:172|541:155,1,131.25,4|0,0:0|0:0,0:0:0:0:
512,64,49950,2,0,P|457:52|419:73,1,83.1249977803231,8|0,0:1|3:0,0:0:0:0:
300,156,50285,1,6,3:1:0:0:
433,255,50453,1,2,3:1:0:0:
287,356,50620,6,0,P|342:342|391:330,1,83.1249977803231,12|0,0:1|3:0,0:0:0:0:
190,241,50955,2,0,P|166:286|179:328,1,83.1249977803231,4|0,3:1|3:1,3:1:0:0:
262,174,51290,5,12,0:1:0:0:
75,266,51458,2,0,P|68:224|61:174,1,83.1249977803231,2|6,0:0|3:1,0:0:0:0:
116,113,51793,5,2,3:1:0:0:
218,262,51961,1,12,0:1:0:0:
245,51,52128,1,2,0:0:0:0:
105,204,52296,6,0,P|160:190|209:178,1,83.1249977803231,6|0,3:1|3:1,3:1:0:0:
433,273,52631,1,12,0:1:0:0:
356,327,52799,6,0,P|336:279|344:242,1,83.1249977803231,2|6,0:0|3:1,0:0:0:0:
403,179,53134,5,2,3:1:0:0:
261,329,53302,1,12,0:1:0:0:
175,184,53469,1,0,3:2:0:0:
264,344,53637,6,0,P|273:300|284:245,1,83.1249977803231,4|0,3:1|3:1,3:1:0:0:
92,300,53972,2,0,P|144:279|183:295,1,83.1249977803231,12|0,0:1|0:0,0:0:0:0:
39,378,54307,5,6,3:1:0:0:
5,252,54475,1,2,3:1:0:0:
160,376,54642,2,0,P|169:332|181:279,1,83.1249977803231,12|0,0:1|3:0,3:1:0:0:
0,115,54978,6,0,P|34:74|145:94,1,166.249995560646,4|12,0:0|0:1,0:0:0:0:
224,238,55480,1,0,0:0:0:0:
71,194,55648,2,0,P|126:182|174:175,1,83.1249977803231,4|0,3:1|3:1,3:1:0:0:
308,89,55983,2,0,P|267:95|226:104,1,83.1249977803231,14|0,0:1|3:0,3:1:0:0:
397,156,56318,5,6,3:1:0:0:
356,11,56486,1,0,3:1:0:0:
495,102,56654,2,0,P|504:58|516:1,1,83.1249977803231,14|0,0:1|3:0,3:1:0:0:
318,163,56989,5,6,3:1:0:0:
452,233,57157,1,2,3:1:0:0:
321,341,57324,2,0,P|361:330|401:320,1,83.1249977803231,12|2,0:1|0:2,0:0:0:0:
192,282,57659,6,0,P|247:268|296:256,1,83.1249977803231,4|0,3:1|3:1,3:1:0:0:
88,322,57994,2,0,P|33:306|-3:320,1,83.1249977803231,12|0,0:1|0:0,0:0:0:0:
105,215,58330,1,6,3:1:0:0:
179,376,58497,1,2,3:1:0:0:
220,187,58665,1,12,0:1:0:0:
74,337,58832,1,0,3:0:0:0:
290,261,59000,5,6,3:2:0:0:
129,113,59168,1,2,3:1:0:0:
270,384,59335,5,12,0:1:0:0:
421,105,59503,2,0,P|415:134|405:175,1,43.75,0|8,3:0|3:3,0:0:0:0:
368,220,59670,1,12,0:0:0:0:
316,130,59838,5,2,3:1:0:0:
452,330,60006,2,0,P|402:320|372:315,1,65.625,8|0,3:3|0:0,0:0:0:0:
350,316,60341,6,0,B|409:301|409:301|450:328|450:328|525:305,1,175,4|8,3:0|0:0,0:0:0:0:
316,218,60843,1,2,0:0:0:0:
470,124,61011,2,0,P|460:181|451:228,1,87.5,2|0,3:0|3:1,0:0:0:0:
285,372,61346,1,8,0:0:0:0:
224,188,61514,1,2,0:2:0:0:
368,310,61681,5,2,3:0:0:0:
164,279,61849,1,0,3:0:0:0:
378,298,62017,5,8,0:0:0:0:
153,303,62184,1,0,3:0:0:0:
303,156,62352,5,2,3:0:0:0:
188,381,62519,1,2,3:1:0:0:
9,234,62687,2,0,P|53:209|108:226,1,87.5,8|2,0:0|0:0,0:0:0:0:
313,292,63022,6,0,P|266:311|213:287,1,87.5,2|0,3:0|3:0,0:0:0:0:
459,195,63357,2,0,P|448:244|437:297,1,87.5,8|2,0:0|0:0,0:0:0:0:
331,103,63693,2,0,P|343:160|353:205,1,87.5,2|0,3:0|3:1,3:1:0:0:
398,45,64028,1,8,0:0:0:0:
258,171,64195,1,0,3:0:0:0:
138,37,64363,5,2,3:0:0:0:
269,176,64531,1,2,3:1:0:0:
83,145,64698,5,8,0:0:0:0:
258,50,64866,1,0,3:0:0:0:
131,247,65033,5,2,3:0:0:0:
20,59,65201,1,2,3:1:0:0:
142,267,65369,2,0,P|90:259|35:250,1,87.5,8|0,0:0|0:0,0:0:0:0:
226,319,65704,6,0,P|280:301|317:314,1,87.5,2|2,3:0|0:0,0:0:0:0:
448,209,66039,2,0,P|438:266|429:313,1,87.5,8|0,0:0|3:0,0:0:0:0:
339,156,66374,1,2,3:0:0:0:
341,162,66542,1,0,3:1:0:0:
512,86,66709,2,0,P|460:78|405:69,1,87.5,8|2,0:0|0:0,0:0:0:0:
270,26,67045,6,0,P|324:8|361:21,1,87.5,2|2,3:0|0:0,0:0:0:0:
201,123,67380,2,0,P|149:115|94:106,1,87.5,8|2,0:0|0:0,0:0:0:0:
317,87,67715,5,2,3:0:0:0:
219,238,67883,1,2,3:1:0:0:
88,88,68050,2,0,P|98:145|107:192,1,87.5,8|0,3:3|3:0,0:0:0:0:
314,186,68385,5,4,0:0:0:0:
225,131,68553,1,0,3:0:0:0:
317,87,68721,5,2,3:1:0:0:
155,281,68888,1,8,0:0:0:0:
248,344,69056,6,0,P|264:296|257:261,1,78.7499975967408,0|2,3:0|0:1,0:0:0:0:
91,110,69391,1,8,0:0:0:0:
155,281,69559,1,8,3:3:0:0:
205,201,69726,5,0,3:1:0:0:
51,315,69894,1,2,3:1:0:0:
0,225,70061,5,8,3:3:0:0:
156,384,70229,2,0,P|164:340|173:299,1,78.7499975967408,8|0,0:0|3:0,0:0:0:0:
249,355,70564,5,8,3:0:0:0:
94,239,70732,1,8,0:0:0:0:
269,148,70899,1,8,0:0:0:0:
145,43,71067,6,0,P|156:99|172:183,1,131.25,4|0,0:0|0:0,0:0:0:0:
228,53,71402,2,0,P|267:35|320:51,1,87.5,8|0,0:0|3:0,0:0:0:0:
469,121,71737,2,0,P|429:139|387:130,1,87.5,2|2,3:0|3:1,3:1:0:0:
511,44,72073,1,8,0:0:0:0:
435,221,72240,1,0,3:0:0:0:
329,43,72408,5,2,3:0:0:0:
442,234,72575,1,2,3:1:0:0:
268,167,72743,5,8,0:0:0:0:
416,86,72911,1,0,3:0:0:0:
300,260,73078,5,2,3:0:0:0:
217,61,73246,1,2,3:1:0:0:
79,264,73413,2,0,P|124:256|188:245,1,87.5,8|2,0:0|0:0,0:0:0:0:
19,116,73749,6,0,P|-5:153|6:205,1,87.5,2|0,3:0|3:0,0:0:0:0:
75,363,74084,2,0,P|83:319|90:276,1,87.5,8|0,0:0|3:0,0:0:0:0:
257,183,74419,2,0,B|215:163|215:163|161:184,1,87.5,2|0,3:0|3:1,3:1:0:0:
350,135,74754,1,8,0:0:0:0:
303,280,74922,1,0,3:0:0:0:
254,83,75089,5,2,3:0:0:0:
310,299,75257,1,0,3:1:0:0:
423,210,75424,5,8,0:0:0:0:
199,172,75592,1,0,3:1:0:0:
375,101,75760,5,2,3:0:0:0:
219,265,75927,1,2,3:1:0:0:
63,108,76095,2,0,P|70:151|78:194,1,87.5,8|0,0:0|3:0,0:0:0:0:
148,351,76430,6,0,P|139:307|132:264,1,87.5,6|0,3:2|3:0,0:0:0:0:
334,350,76765,2,0,P|284:330|241:345,1,87.5,8|0,0:0|0:0,0:0:0:0:
421,209,77100,2,0,P|411:253|403:296,1,87.5,2|0,3:0|3:1,0:0:0:0:
351,146,77436,1,8,0:0:0:0:
506,241,77603,1,2,3:2:0:0:
447,44,77771,6,0,P|456:88|464:131,1,87.5,2|0,3:0|3:1,0:0:0:0:
282,15,78106,2,0,P|332:-5|372:6,1,87.5,8|0,0:0|3:0,0:0:0:0:
202,111,78441,1,2,3:0:0:0:
204,117,78609,1,2,3:1:0:0:
80,14,78776,2,0,P|89:58|97:101,1,87.5,8|0,3:3|3:1,0:0:0:0:
256,271,79112,5,12,0:1:0:0:
301,113,79279,1,0,3:1:0:0:
249,289,79447,5,12,0:1:0:0:
191,27,79614,1,0,3:1:0:0:
368,226,79782,5,12,0:1:0:0:
119,159,79950,1,0,3:1:0:0:
378,211,80117,5,12,0:1:0:0:
108,173,80285,1,0,3:0:0:0:
341,12,80452,6,0,P|332:56|322:107,1,87.5,12|0,3:1|3:0,0:0:0:0:
235,111,80704,1,8,0:0:0:0:
235,111,80788,6,0,P|243:74|250:38,1,50.3125009596348,8|2,3:0|3:1,0:0:0:0:
168,17,80955,2,0,P|160:54|153:90,1,50.3125009596348,2|8,3:1|3:3,0:0:0:0:
99,143,81123,5,8,0:3:0:0:
99,143,81207,2,0,P|57:156|36:155,1,50.3125009596348,8|0,0:0|3:3,0:0:0:0:
180,178,81374,6,0,P|196:210|200:246,1,50.3125009596348,8|0,3:3|3:0,0:0:0:0:
150,291,81542,1,8,3:3:0:0:
150,291,81626,2,0,P|134:323|130:359,1,50.3125009596348,8|0,3:0|3:0,0:0:0:0:
230,334,81793,6,0,B|142:317|175:392|54:377,1,175,4|8,0:0|0:0,0:0:0:0:
180,178,82296,1,2,0:0:0:0:
12,119,82464,2,0,P|26:176|39:222,1,87.5,2|0,3:0|3:1,0:0:0:0:
62,39,82799,2,0,P|106:14|161:31,1,87.5,8|2,0:0|0:0,0:0:0:0:
292,169,83134,5,2,3:0:0:0:
121,103,83302,1,2,3:1:0:0:
255,10,83469,2,0,P|241:67|229:116,1,87.5,10|0,0:0|3:1,0:0:0:0:
88,290,83804,5,2,3:0:0:0:
239,225,83972,1,2,3:1:0:0:
121,103,84140,2,0,P|135:160|147:209,1,87.5,10|0,0:0|3:1,0:0:0:0:
332,274,84475,6,0,B|352:232|352:232|326:177,1,87.5,2|0,3:0|3:1,3:1:0:0:
187,356,84810,2,0,P|240:346|292:341,1,87.5,8|0,0:0|0:0,0:0:0:0:
78,301,85145,1,2,3:0:0:0:
81,307,85313,1,0,3:1:0:0:
189,170,85480,2,0,P|180:229|173:279,1,87.5,8|0,0:0|3:1,0:0:0:0:
127,109,85816,5,2,3:0:0:0:
265,212,85983,1,2,3:1:0:0:
393,91,86151,2,0,B|415:133|415:133|397:176,1,87.5,8|2,0:0|0:0,0:0:0:0:
311,312,86486,5,2,3:0:0:0:
246,126,86654,1,2,3:1:0:0:
437,250,86821,2,0,P|384:240|332:235,1,87.5,8|0,0:0|0:0,0:0:0:0:
123,370,87156,6,0,P|69:278|109:207,1,175,2|8,3:0|0:0,0:0:0:0:
241,291,87659,1,0,0:0:0:0:
214,118,87827,2,0,P|202:176|192:225,1,87.5,2|0,3:0|3:1,0:0:0:0:
146,44,88162,2,0,P|102:25|47:42,1,87.5,8|2,0:0|0:0,0:0:0:0:
196,203,88497,5,2,3:0:0:0:
199,209,88665,1,2,3:1:0:0:
326,65,88832,2,0,P|314:123|304:172,1,87.5,8|0,0:0|3:0,0:0:0:0:
383,283,89168,2,0,P|391:240|400:197,1,87.5,2|2,3:0|3:1,3:1:0:0:
242,348,89503,2,0,B|282:368|282:368|332:346,1,87.5,8|0,0:0|0:0,0:0:0:0:
141,236,89838,6,0,B|100:221|100:221|46:241,1,87.5,2|2,3:0|3:1,0:0:0:0:
215,176,90173,1,8,0:0:0:0:
154,329,90341,1,2,0:0:0:0:
29,169,90508,2,0,P|37:211|46:254,1,87.5,2|2,3:0|3:1,3:1:0:0:
153,66,90843,2,0,P|144:108|134:162,1,87.5,12|0,0:0|3:0,3:1:0:0:
85,6,91179,5,2,3:0:0:0:
230,146,91346,1,2,3:1:0:0:
265,46,91514,5,8,0:0:0:0:
152,211,91681,1,2,3:2:0:0:
319,168,91849,5,2,3:0:0:0:
142,74,92017,1,2,3:1:0:0:
319,168,92184,5,12,0:0:0:0:
319,168,92519,1,12,0:1:0:0:
245,272,92687,6,0,P|299:262|392:252,1,140,2|0,3:2|3:0,3:0:0:0:
236,185,93190,2,0,P|198:172|162:181,1,70,2|0,0:0|3:0,0:0:0:0:
116,276,93525,1,8,0:0:0:0:
2,143,93693,6,0,P|12:199|30:312,1,166.249995560646,4|0,0:0|3:0,0:0:0:0:
91,134,94195,2,0,B|132:116|132:116|185:136,1,83.1249977803231,12|2,0:1|0:0,0:0:0:0:
245,194,94531,5,4,3:1:0:0:
194,44,94698,1,0,3:0:0:0:
245,194,94866,2,0,P|252:139|260:96,1,83.1249977803231,12|0,0:1|3:0,0:0:0:0:
145,259,95201,1,12,0:0:0:0:
225,310,95369,6,0,P|284:275|356:292,1,140,2|0,3:2|3:0,3:0:0:0:
424,362,95871,2,0,P|431:327|440:294,1,70,2|0,0:0|3:0,0:0:0:0:
512,245,96207,5,0,3:0:0:0:
377,150,96374,1,2,0:0:0:0:
466,95,96542,6,0,L|454:164,1,43.75
