osu file format v14

[General]
AudioFilename: audio.mp3
AudioLeadIn: 0
PreviewTime:59922
Countdown: 0
SampleSet: Soft
StackLeniency: 0.7
Mode: 2
LetterboxInBreaks: 0
WidescreenStoryboard: 0

[Editor]
Bookmarks: 12073,33525,38888,71067
DistanceSpacing: 1.4
BeatDivisor: 4
GridSize: 4
TimelineZoom: 2.3

[Metadata]
Title:rewrite
TitleUnicode:リライト
Artist:ASIAN KUNG-FU GENERATION
ArtistUnicode:ASIAN KUNG-FU GENERATION
Creator:Cowboy
Version:Ponchi's Platter
Source:鋼の錬金術師
Tags:fullmetal alchemist hagane no renkijutsushi ハガレン hagaren fma edward elric alphonse akfg akg opening 4 tv size japanese Irohas Ponchiwi daxeroz anime
BeatmapID:0
BeatmapSetID:-1

[Difficulty]
HPDrainRate:5
CircleSize:3.5
OverallDifficulty:8
ApproachRate:8
SliderMultiplier:1.6
SliderTickRate:2

[Events]
//Background and Video events
0,0,"kese.jpeg",0,0
//Break Periods
//Storyboard Layer 0 (Background)
//Storyboard Layer 1 (Fail)
//Storyboard Layer 2 (Pass)
//Storyboard Layer 3 (Foreground)
//Storyboard Layer 4 (Overlay)
//Storyboard Sound Samples

[TimingPoints]
6,335.195530726257,4,2,1,70,1,0
60341,-100,4,2,1,95,0,1
81793,-100,4,2,1,80,0,0
92519,-100,4,2,1,70,0,0
92686,-100,4,2,1,50,0,0
93525,-100,4,2,1,70,0,0
95369,-100,4,2,1,50,0,0

[Colours]
Combo1 : 187,176,150
Combo2 : 65,46,42
Combo3 : 146,79,85
Combo4 : 84,39,44
Combo5 : 215,212,209
Combo6 : 148,126,71

[HitObjects]
144,164,1011,5,12,3:2:0:0:
432,296,1346,6,0,P|428:220|356:182,1,160,4|8,2:0|2:0,2:0:0:0:
200,262,1849,2,0,L|91:263,2,80,2|2|2,2:0|2:1|2:1,2:0:0:0:
360,80,2352,2,0,L|440:80,2,80,8|2|2,2:0|2:0|3:0,2:0:0:0:
200,262,2855,1,0,3:0:0:0:
200,152,3022,5,8,2:0:0:0:
304,80,3190,1,0,3:0:0:0:
476,332,3357,5,2,3:1:0:0:
476,248,3525,1,2,3:1:0:0:
408,192,3693,1,10,2:0:0:0:
324,200,3860,1,0,3:0:0:0:
80,80,4028,6,0,P|84:157|157:183,1,160,2|8,3:0|2:0,2:0:0:0:
344,264,4531,2,0,P|412:208|392:112,1,160,0|2,2:0|3:1,2:0:0:0:
336,44,5033,1,8,2:0:0:0:
180,120,5201,6,0,P|112:160|120:248,1,160,2|2,2:0|3:2,2:0:0:0:
288,328,5704,2,0,L|288:232,1,80,14|0,2:0|3:1,2:0:0:0:
464,232,6039,5,6,2:0:0:0:
469,192,6123,1,2,3:1:0:0:
461,153,6207,1,8,2:0:0:0:
439,120,6290,1,8,2:0:0:0:
407,97,6374,1,8,2:0:0:0:
369,86,6458,1,0,2:0:0:0:
329,90,6542,1,2,3:1:0:0:
76,224,6709,6,0,P|81:301|149:337,1,160,4|8,2:0|2:0,2:0:0:0:
312,184,7212,2,0,P|360:136|300:92,1,160,2|2,2:0|3:1,2:0:0:0:
208,88,7715,1,8,2:0:0:0:
40,208,7883,6,0,P|49:284|117:320,1,160,2|0,3:2|3:0,2:0:0:0:
280,320,8385,2,0,L|368:320,2,80,8|2|2,2:0|2:0|3:0,2:0:0:0:
116,232,8888,2,0,L|20:232,2,80,2|8|2,3:2|2:0|2:0,2:0:0:0:
380,84,9391,6,0,P|436:140|388:188,1,160,2|8,3:0|2:0,2:0:0:0:
215,339,9894,2,0,P|160:280|156:200,1,160,2|2,2:0|3:1,2:0:0:0:
48,108,10397,2,0,L|136:108,1,80,12|0,2:0|3:1,2:0:0:0:
280,328,10732,5,8,2:0:0:0:
344,328,10816,1,8,3:0:0:0:
340,260,10899,1,8,3:0:0:0:
168,100,11067,1,8,3:2:0:0:
104,100,11151,1,0,3:1:0:0:
104,160,11235,1,8,2:0:0:0:
256,336,11402,5,8,2:0:0:0:
256,280,11486,1,8,2:0:0:0:
232,240,11570,1,8,2:0:0:0:
188,204,11654,1,2,3:1:0:0:
132,200,11737,1,8,2:0:0:0:
72,200,11821,1,8,3:0:0:0:
132,200,11905,1,8,2:0:0:0:
364,216,12073,6,0,P|420:156|404:80,1,160,4|12,2:0|2:1,2:0:0:0:
254,83,12575,2,0,P|182:135|198:207,1,160,2|0,2:0|3:1,2:0:0:0:
312,276,13078,2,0,L|224:276,1,80,14|0,2:1|3:1,2:0:0:0:
48,216,13413,6,0,P|56:140|128:96,1,160,4|12,3:1|2:1,2:0:0:0:
244,92,13916,1,0,2:0:0:0:
120,216,14084,2,0,L|120:304,1,80,6|2,3:1|3:1,2:0:0:0:
264,340,14419,2,0,L|264:256,1,80,12|0,2:1|2:0,2:0:0:0:
460,216,14754,6,0,P|460:296|392:340,1,160,4|12,3:1|2:1,2:0:0:0:
212,344,15257,2,0,P|150:297|151:220,1,160,0|2,3:0|3:1,2:0:0:0:
264,224,15760,1,12,2:1:0:0:
376,224,15927,1,0,2:0:0:0:
216,96,16095,6,0,L|124:68,1,80,4|0,3:1|3:0,2:0:0:0:
272,156,16430,2,0,L|352:176,1,80,12|0,2:1|3:0,2:0:0:0:
176,328,16765,2,0,L|176:232,1,80,6|2,3:1|3:1,2:0:0:0:
320,164,17100,2,0,L|320:76,1,80,12|0,2:1|3:0,2:0:0:0:
52,220,17436,6,0,P|60:148|144:100,1,160,4|12,3:1|2:1,2:0:0:0:
40,312,17938,2,0,L|204:312,1,160,2|2,2:0|3:1,2:0:0:0:
320,312,18441,1,12,2:1:0:0:
199,308,18609,1,0,2:1:0:0:
360,208,18776,6,0,P|356:140|268:88,1,160,4|12,3:1|2:1,2:0:0:0:
128,204,19279,2,0,L|284:252,1,160,0|2,2:0|3:1,2:0:0:0:
412,208,19782,2,0,L|332:184,1,80,12|0,2:1|3:0,2:0:0:0:
56,280,20117,5,4,3:1:0:0:
52,172,20285,1,0,3:0:0:0:
132,88,20452,1,12,2:1:0:0:
240,88,20620,1,2,2:0:0:0:
144,216,20788,6,0,L|240:216,1,80,6|0,3:1|2:0,2:0:0:0:
348,220,21123,1,12,2:1:0:0:
224,216,21290,1,0,3:1:0:0:
224,92,21458,1,6,3:1:0:0:
348,88,21626,1,0,3:0:0:0:
232,316,21793,6,0,L|320:316,1,80,12|0,2:1|3:0,2:0:0:0:
472,264,22128,1,6,3:1:0:0:
472,156,22296,1,2,3:1:0:0:
396,72,22464,1,12,2:0:0:0:
288,72,22631,1,0,2:0:0:0:
40,216,22799,6,0,P|60:300|140:316,1,160,6|12,3:2|2:1,2:0:0:0:
256,320,23302,2,0,L|256:232,1,80,2|4,2:0|3:1,2:0:0:0:
136,128,23637,2,0,L|44:128,1,80,2|12,3:1|2:1,2:0:0:0:
156,240,23972,1,0,3:0:0:0:
348,240,24140,6,0,P|349:168|281:112,1,160,4|12,3:1|2:1,2:0:0:0:
176,112,24642,1,0,3:0:0:0:
176,236,24810,1,0,2:0:0:0:
348,240,24978,2,0,L|436:240,2,80,2|12|0,3:1|2:1|3:0,2:0:0:0:
156,212,25480,6,0,P|176:296|256:320,1,160,6|12,3:1|2:1,2:0:0:0:
416,256,25983,2,0,P|416:180|344:132,1,160,0|2,3:0|3:1,2:0:0:0:
232,132,26486,2,0,L|148:132,1,80,12|0,2:1|3:0,2:0:0:0:
288,224,26821,6,0,L|388:224,1,80,4|0,3:1|2:0,2:0:0:0:
252,104,27156,1,12,2:1:0:0:
132,108,27324,1,0,3:0:0:0:
132,216,27492,1,6,3:1:0:0:
256,212,27659,1,2,3:1:0:0:
132,216,27827,2,0,L|228:216,1,80,12|0,2:1|3:0,2:0:0:0:
450,299,28162,6,0,P|447:222|382:183,1,160,4|12,3:1|2:1,2:0:0:0:
200,104,28665,2,0,L|16:104,1,160,2|2,2:0|3:1,2:0:0:0:
128,176,29168,2,0,L|228:176,1,80,12|0,2:1|2:0,2:0:0:0:
392,204,29503,6,0,L|392:32,1,160,4|12,3:1|2:1,2:0:0:0:
208,176,30006,2,0,L|208:344,1,160,2|0,2:0|2:0,2:0:0:0:
340,80,30508,2,0,L|340:164,1,80,12|0,2:1|2:0,2:0:0:0:
52,216,30843,6,0,P|56:292|148:328,1,160,6|12,3:1|2:1,2:0:0:0:
284,328,31346,2,0,P|288:252|192:196,1,160,2|2,3:1|3:1,2:0:0:0:
112,104,31849,2,0,L|196:104,1,80,12|0,2:1|3:0,2:0:0:0:
360,104,32184,6,0,L|384:200,1,80,6|2,3:1|3:1,2:0:0:0:
229,199,32519,2,0,L|141:199,1,80,12|0,2:0|2:0,2:0:0:0:
296,72,32855,5,2,3:1:0:0:
335,74,32938,1,8,2:0:0:0:
372,89,33022,1,8,3:0:0:0:
402,116,33106,1,8,2:0:0:0:
421,150,33190,1,8,3:0:0:0:
429,190,33274,1,8,2:0:0:0:
423,229,33357,1,8,2:0:0:0:
144,316,33525,6,0,L|48:316,2,80,6|0|8,3:2|2:0|2:0,2:0:0:0:
268,316,34028,1,0,2:0:0:0:
148,312,34195,1,2,3:0:0:0:
148,200,34363,1,0,3:0:0:0:
272,200,34531,1,10,2:0:0:0:
148,200,34698,1,0,3:0:0:0:
272,104,34866,6,0,L|360:104,1,80,2|2,3:0|3:2,2:0:0:0:
192,60,35201,2,0,L|88:60,1,80,8|2,2:0|2:0,2:0:0:0:
272,200,35536,2,0,L|360:200,2,80,2|2|8,3:0|3:2|2:0,2:0:0:0:
152,204,36039,1,2,2:0:0:0:
392,304,36207,6,0,L|412:216,1,80,2|0,3:0|3:0,2:0:0:0:
296,220,36542,1,8,2:0:0:0:
184,220,36709,1,2,2:0:0:0:
296,220,36877,2,0,L|380:220,1,80,2|2,3:0|3:1,2:0:0:0:
208,80,37212,2,0,L|120:80,1,80,12|2,2:0|3:0,2:0:0:0:
296,76,37547,5,8,2:0:0:0:
360,76,37631,1,8,3:0:0:0:
360,136,37715,1,8,3:0:0:0:
468,324,37883,1,8,3:2:0:0:
468,256,37966,1,0,3:1:0:0:
400,256,38050,1,8,3:2:0:0:
244,308,38218,5,0,3:1:0:0:
236,263,38302,1,8,2:0:0:0:
247,218,38385,1,8,3:0:0:0:
275,182,38469,1,8,3:0:0:0:
315,160,38553,1,8,2:0:0:0:
368,160,38637,1,8,3:0:0:0:
315,160,38721,1,8,2:0:0:0:
56,232,38888,6,0,P|64:308|136:336,1,160,4|12,2:0|2:1,2:0:0:0:
308,280,39391,2,0,L|308:88,1,160,2|2,2:0|3:1,2:0:0:0:
160,168,39894,2,0,L|160:64,1,80,12|0,2:1|3:1,2:0:0:0:
360,208,40229,6,0,P|360:140|272:88,1,160,4|12,3:1|2:1,2:0:0:0:
168,88,40732,1,0,2:0:0:0:
284,292,40899,1,4,3:1:0:0:
172,292,41067,1,2,3:1:0:0:
60,292,41235,2,0,L|60:196,1,80,12|0,2:0|2:0,2:0:0:0:
260,328,41570,6,0,L|432:328,1,160,4|12,3:1|2:1,2:0:0:0:
272,248,42073,2,0,L|88:248,1,160,0|2,3:0|3:1,2:0:0:0:
228,248,42575,1,12,2:1:0:0:
112,248,42743,1,0,3:0:0:0:
228,152,42911,6,0,L|328:152,2,80,4|0|12,3:1|3:0|2:1,2:0:0:0:
100,248,43413,1,2,2:0:0:0:
228,248,43581,2,0,L|228:344,1,80,6|2,3:1|3:1,2:0:0:0:
100,248,43916,1,12,2:0:0:0:
228,248,44084,1,0,2:0:0:0:
456,216,44251,6,0,P|456:140|368:84,1,160,6|12,3:1|2:1,2:0:0:0:
208,216,44754,2,0,P|152:184|160:96,1,160,0|0,3:1|3:1,2:0:0:0:
288,312,45257,2,0,L|188:308,1,80,12|0,2:1|3:0,2:0:0:0:
36,200,45592,6,0,P|56:120|140:88,1,160,6|12,3:1|2:1,2:0:0:0:
272,88,46095,2,0,P|328:144|280:184,1,160,0|2,3:0|3:1,2:0:0:0:
144,280,46598,2,0,L|228:280,1,80,12|0,2:1|3:0,2:0:0:0:
476,320,46933,5,4,3:1:0:0:
472,224,47100,1,0,2:0:0:0:
388,176,47268,1,12,2:1:0:0:
220,72,47436,2,0,L|128:72,2,80,2|4|0,2:0|3:1|3:1,2:0:0:0:
344,72,47938,1,12,2:1:0:0:
220,72,48106,1,0,3:0:0:0:
76,164,48274,6,0,L|176:164,1,80,6|2,3:1|3:1,2:0:0:0:
288,320,48609,2,0,L|200:320,1,80,12|2,2:1|3:0,2:0:0:0:
44,228,48944,5,6,3:1:0:0:
38,189,49028,1,8,3:0:0:0:
46,149,49112,1,8,3:0:0:0:
65,115,49195,1,8,3:0:0:0:
95,88,49279,1,8,2:0:0:0:
132,73,49363,1,8,2:0:0:0:
171,71,49447,1,8,2:0:0:0:
468,192,49614,6,0,P|464:116|380:76,1,160,4|8,2:0|2:1,2:0:0:0:
264,172,50117,1,0,3:0:0:0:
388,176,50285,1,6,3:1:0:0:
392,296,50452,1,2,3:1:0:0:
264,172,50620,2,0,L|264:80,1,80,12|0,2:1|3:0,2:0:0:0:
68,224,50955,6,0,P|73:299|144:329,1,160,4|12,3:1|2:1,2:0:0:0:
264,328,51458,1,2,2:0:0:0:
140,212,51626,2,0,L|244:212,1,80,6|2,3:1|3:1,2:0:0:0:
376,128,51961,2,0,L|376:36,1,80,12|2,2:1|2:0,2:0:0:0:
176,48,52296,6,0,P|112:72|100:156,1,160,6|12,3:1|2:1,2:0:0:0:
276,152,52799,2,0,P|328:220|276:268,1,160,2|2,2:0|3:1,2:0:0:0:
164,268,53302,1,12,2:1:0:0:
319,175,53469,6,0,P|319:111|224:56,1,160,0|0,3:2|3:1,2:0:0:0:
132,56,53972,1,12,2:1:0:0:
249,55,54140,1,0,2:0:0:0:
136,180,54307,2,0,L|220:180,1,80,6|2,3:1|3:1,2:0:0:0:
364,320,54642,2,0,L|364:232,1,80,12|0,2:1|3:0,2:0:0:0:
128,124,54978,6,0,P|72:168|72:256,1,160,4|12,2:0|2:1,2:0:0:0:
184,248,55480,1,0,2:0:0:0:
72,328,55648,2,0,L|160:328,1,80,4|0,3:1|3:1,2:0:0:0:
304,340,55983,1,14,2:1:0:0:
304,248,56151,1,0,3:0:0:0:
120,96,56318,6,0,L|296:96,1,160,6|14,3:1|2:1,2:0:0:0:
408,184,56821,1,0,3:0:0:0:
296,184,56989,1,6,2:0:0:0:
184,180,57156,1,2,2:0:0:0:
344,288,57324,2,0,L|436:288,1,80,12|2,2:1|2:0,2:0:0:0:
160,104,57659,6,0,P|116:184|160:212,1,160,4|12,3:1|2:1,2:0:0:0:
340,280,58162,2,0,P|384:216|320:168,1,160,0|2,2:0|3:1,2:0:0:0:
168,308,58665,2,0,L|104:248,1,80,12|0,2:1|3:0,2:0:0:0:
284,64,59000,6,0,L|372:64,1,80,6|2,3:2|3:1,2:0:0:0:
208,224,59335,2,0,L|128:224,1,80,12|0,2:1|3:0,2:0:0:0:
168,312,59587,1,8,3:0:0:0:
216,312,59670,1,12,2:0:0:0:
452,240,60006,1,8,3:0:0:0:
48,176,60341,6,0,P|60:88|148:60,1,160,4|8,3:0|2:0,2:0:0:0:
241,60,60843,2,0,L|345:60,2,80,2|2|0,2:0|3:0|3:1,2:0:0:0:
88,156,61346,2,0,L|184:156,1,80,8|2,2:0|2:0,2:0:0:0:
304,156,61681,5,2,3:0:0:0:
304,272,61849,1,0,3:0:0:0:
184,276,62017,1,8,2:0:0:0:
304,272,62184,1,0,3:0:0:0:
444,84,62352,2,0,L|348:84,1,80,2|2,3:0|3:1,2:0:0:0:
212,52,62687,2,0,L|304:52,1,80,8|2,2:0|2:0,2:0:0:0:
464,205,63022,6,0,P|464:280|392:320,1,160,2|8,3:0|2:0,2:0:0:0:
280,320,63525,1,2,2:0:0:0:
168,232,63693,2,0,L|248:232,1,80,2|0,3:0|3:1,2:0:0:0:
376,140,64028,2,0,L|292:140,1,80,8|0,2:0|3:0,2:0:0:0:
168,104,64363,5,2,3:0:0:0:
168,232,64531,1,2,3:1:0:0:
280,236,64698,1,8,2:0:0:0:
168,232,64866,1,0,3:0:0:0:
36,244,65033,2,0,P|40:160|116:112,1,160,2|8,3:0|2:0,2:0:0:0:
208,112,65536,1,0,2:0:0:0:
468,304,65704,6,0,L|485:128,1,160,2|8,3:0|2:0,2:0:0:0:
392,116,66207,1,0,3:0:0:0:
208,112,66374,2,0,L|184:276,1,160,2|8,3:0|2:0,2:0:0:0:
296,276,66877,1,2,2:0:0:0:
184,270,67045,6,0,L|80:270,1,80,2|2,3:0|2:0,2:0:0:0:
208,176,67380,1,8,2:0:0:0:
324,176,67547,1,2,2:0:0:0:
208,176,67715,2,0,L|128:176,2,80,2|2|8,3:0|3:1|3:0,2:0:0:0:
324,176,68218,1,0,3:0:0:0:
68,164,68385,6,0,L|44:332,1,160,4|2,2:0|3:1,2:0:0:0:
144,328,68888,1,8,2:0:0:0:
332,328,69056,2,0,L|352:168,1,160,0|8,3:0|2:0,2:0:0:0:
256,172,69559,1,8,3:0:0:0:
56,252,69726,6,0,P|64:173|140:141,1,160,0|8,3:1|3:0,2:0:0:0:
244,144,70229,1,8,2:0:0:0:
380,336,70397,2,0,L|360:244,1,80,0|8,3:0|3:0,2:0:0:0:
188,276,70732,2,0,L|172:168,1,80,8|8,2:0|2:0,2:0:0:0:
448,216,71067,6,0,P|444:152|360:96,1,160,4|8,2:0|2:0,2:0:0:0:
252,96,71570,1,0,3:0:0:0:
371,97,71737,1,2,3:0:0:0:
484,96,71905,1,2,3:1:0:0:
298,263,72073,2,0,L|210:263,1,80,8|0,2:0|3:0,2:0:0:0:
384,268,72408,5,2,3:0:0:0:
384,172,72575,1,2,3:1:0:0:
316,100,72743,1,8,2:0:0:0:
224,96,72911,1,0,3:0:0:0:
60,138,73078,2,0,L|60:230,1,80,2|2,3:0|3:1,2:0:0:0:
196,216,73413,2,0,L|297:216,1,80,8|2,2:0|2:0,2:0:0:0:
108,220,73749,6,0,P|124:316|186:338,1,160,2|8,3:0|2:0,2:0:0:0:
320,224,74251,2,0,L|320:136,1,80,0|2,3:0|3:0,2:0:0:0:
200,136,74587,1,0,3:1:0:0:
344,80,74754,2,0,L|428:80,1,80,8|0,2:0|3:0,2:0:0:0:
264,56,75089,6,0,L|176:56,1,80,2|0,3:0|3:1,2:0:0:0:
340,140,75424,2,0,L|456:136,2,80,8|0|2,2:0|3:1|3:0,2:0:0:0:
232,140,75927,1,2,3:1:0:0:
340,140,76095,1,8,2:0:0:0:
344,240,76262,1,0,3:0:0:0:
68,216,76430,6,0,P|76:292|148:324,1,160,6|8,3:2|2:0,2:0:0:0:
248,328,76933,1,0,2:0:0:0:
416,336,77100,2,0,L|476:160,1,160,2|8,3:0|2:0,2:0:0:0:
336,144,77603,1,2,3:2:0:0:
192,146,77771,6,0,L|104:145,2,80,2|0|8,3:0|3:1|2:0,2:0:0:0:
338,223,78274,2,0,L|424:222,2,80,0|2|2,3:0|3:0|3:1,2:0:0:0:
199,302,78776,2,0,L|199:204,1,80,8|0,3:0|3:1,2:0:0:0:
452,291,79112,6,0,P|452:216|356:176,1,160,12|12,2:1|2:1,2:0:0:0:
283,167,79614,1,0,3:1:0:0:
171,44,79782,2,0,L|333:46,1,160,12|12,2:1|2:1,2:0:0:0:
236,124,80285,1,0,3:0:0:0:
64,224,80452,6,0,L|232:224,1,160,12|8,3:1|3:0,2:0:0:0:
376,144,80955,1,2,3:1:0:0:
376,80,81039,1,8,3:0:0:0:
312,80,81123,1,8,2:3:0:0:
156,88,81290,5,0,3:0:0:0:
119,104,81374,1,8,3:0:0:0:
92,133,81458,1,0,3:0:0:0:
79,170,81542,1,8,3:0:0:0:
81,210,81626,1,8,3:0:0:0:
354,211,81793,6,0,P|422:247|432:324,1,160,4|8,2:0|2:0,2:0:0:0:
304,320,82296,1,2,2:0:0:0:
420,128,82464,2,0,L|332:128,1,80,2|0,3:0|3:1,2:0:0:0:
192,228,82799,2,0,L|280:228,1,80,8|2,2:0|2:0,2:0:0:0:
152,136,83134,6,0,L|152:48,1,80,2|2,3:0|3:1,2:0:0:0:
308,56,83469,2,0,L|412:56,2,80,10|0|2,2:0|3:1|3:0,2:0:0:0:
184,36,83972,1,2,3:1:0:0:
296,40,84140,1,10,2:0:0:0:
292,152,84307,1,0,3:1:0:0:
48,224,84475,6,0,P|60:304|132:336,1,160,2|8,3:0|2:0,2:0:0:0:
256,336,84978,2,0,L|336:336,2,80,0|2|0,2:0|3:0|3:1,2:0:0:0:
128,240,85480,1,8,2:0:0:0:
260,244,85648,1,0,3:1:0:0:
128,120,85816,6,0,L|44:120,2,80,2|2|8,3:0|3:1|2:0,2:0:0:0:
272,120,86318,2,0,L|356:120,1,80,2|2,2:0|3:0,2:0:0:0:
200,288,86654,2,0,L|100:288,1,80,2|8,3:1|2:0,2:0:0:0:
228,204,86989,1,0,2:0:0:0:
460,300,87156,6,0,P|460:220|376:168,1,160,2|8,3:0|2:0,2:0:0:0:
292,168,87659,1,0,2:0:0:0:
168,168,87827,2,0,L|84:168,2,80,2|0|8,3:0|3:1|2:0,2:0:0:0:
292,168,88330,1,2,2:0:0:0:
176,272,88497,6,0,L|264:272,1,80,2|2,3:0|3:1,2:0:0:0:
408,292,88832,2,0,L|392:204,1,80,8|0,2:0|3:0,2:0:0:0:
240,160,89168,2,0,L|160:156,1,80,2|2,3:0|3:1,2:0:0:0:
304,64,89503,2,0,L|404:64,1,80,8|0,2:0|2:0,2:0:0:0:
120,176,89838,6,0,P|63:210|55:298,1,160,2|8,3:0|2:0,2:0:0:0:
228,304,90341,2,0,L|396:304,1,160,2|2,2:0|3:1,2:0:0:0:
220,200,90843,2,0,L|40:200,1,160,12|2,2:0|3:0,2:0:0:0:
188,200,91346,1,2,3:1:0:0:
344,204,91514,6,0,L|368:120,1,80,8|2,2:0|3:2,2:0:0:0:
232,72,91849,2,0,L|128:72,1,80,2|2,3:0|3:1,2:0:0:0:
264,152,92184,1,12,2:0:0:0:
384,152,92352,1,0,2:0:0:0:
136,264,92519,6,0,L|36:264,1,80,12|2,2:1|3:2,2:0:0:0:
316,148,93022,2,0,L|416:148,1,80,0|2,3:0|2:0,2:0:0:0:
136,192,93525,1,8,2:0:0:0:
32,304,93693,6,0,L|208:304,1,160,4|0,2:0|3:0,2:0:0:0:
324,160,94195,2,0,L|236:160,1,80,12|2,2:1|2:0,2:0:0:0:
120,84,94531,2,0,L|220:84,1,80,4|0,3:1|3:0,2:0:0:0:
336,84,94866,2,0,L|424:84,2,80,12|0|12,2:1|3:0|2:0,2:0:0:0:
104,112,95369,6,0,P|44:168|44:248,1,160,2|0,3:2|3:0,2:0:0:0:
200,316,95871,2,0,L|376:316,1,160,2|0,2:0|3:0,2:0:0:0:
244,312,96374,1,2,2:0:0:0:
