osu file format v14

[General]
AudioFilename: audio.mp3
AudioLeadIn: 0
PreviewTime: 34211
Countdown: 0
SampleSet: Normal
StackLeniency: 0.7
Mode: 0
LetterboxInBreaks: 0
WidescreenStoryboard: 0

[Editor]
Bookmarks: 23372
DistanceSpacing: 1.1
BeatDivisor: 4
GridSize: 8
TimelineZoom: 0.6999998

[Metadata]
Title:Re:Re:
TitleUnicode:Re:Re:
Artist:ASIAN KUNG-FU GENERATION
ArtistUnicode:ASIAN KUNG-FU GENERATION
Creator:TouchxMe
Version:Normal
Source:Boku dake ga inai machi
Tags:Erased op tv size asian kungfu generation Boku dake ga inai machi rere re:re: rere: touchxme 僕だけがいない街
BeatmapID:921272
BeatmapSetID:426704

[Difficulty]
HPDrainRate:4
CircleSize:3
OverallDifficulty:4
ApproachRate:5
SliderMultiplier:1.1
SliderTickRate:1

[Events]
//Background and Video events
Video,-637,"Boku Dake ga Inai Machi OP - Opening -Re(no audio)1.avi"
0,0,"Erasedtr.jpg",0,0
//Break Periods
//Storyboard Layer 0 (Background)
//Storyboard Layer 1 (Fail)
//Storyboard Layer 2 (Pass)
//Storyboard Layer 3 (Foreground)
//Storyboard Sound Samples

[TimingPoints]
166,387.096774193548,4,1,0,60,1,0
12940,-100,4,1,0,50,0,0
37714,-100,4,1,0,40,0,1
50101,-100,4,1,0,20,0,0
62488,-100,4,1,0,40,0,0
85907,-100,4,1,0,50,0,0
89391,-100,4,2,0,20,0,0

[HitObjects]
256,120,165,5,0,3:3:0:0:
176,216,553,6,0,B|176:312|176:312|189:315,1,110
312,312,1327,2,0,B|325:308|325:308|325:212,1,110
384,104,2101,6,0,B|329:63|257:109,1,110,0|0,3:0|3:0,3:0:0:0:
176,152,2875,2,0,P|115:159|56:134,1,110,0|0,3:0|3:0,3:0:0:0:
56,264,3649,5,0,0:0:0:0:
168,304,4036,2,0,P|224:288|279:305,1,110
392,304,4811,1,0,0:0:0:0:
392,184,5198,2,0,P|416:136|384:88,1,110,0|0,3:0|3:0,3:0:0:0:
272,88,5972,2,0,P|216:72|144:96,1,110,0|0,3:0|3:0,3:0:0:0:
216,192,6746,5,0,0:0:0:0:
96,200,7133,2,0,P|72:256|88:312,1,110
192,344,7907,1,0,0:0:0:0:
192,224,8294,2,0,B|280:304|336:248|336:248|392:192|480:280,1,330
480,160,9843,5,0,0:0:0:0:
360,144,10230,2,0,P|392:80|432:48,2,110
248,192,11391,5,0,3:3:0:0:
248,312,11778,1,0,0:0:0:0:
128,312,12165,1,0,0:0:0:0:
128,192,12553,1,0,0:0:0:0:
112,72,12940,6,0,B|184:48|184:48|232:80,1,110
328,48,13714,1,0,0:0:0:0:
432,112,14101,1,0,3:3:0:0:
376,224,14488,2,0,P|328:200|280:224,1,110
336,328,15262,1,0,0:0:0:0:
216,312,15649,1,0,3:3:0:0:
216,192,16036,5,0,0:0:0:0:
328,240,16423,2,0,P|344:184|320:128,1,110
224,200,17198,1,0,0:0:0:0:
224,200,17391,1,0,0:0:0:0:
224,200,17585,2,4,L|168:152,2,55
200,80,18359,1,12,0:0:0:0:
320,80,18746,1,0,3:3:0:0:
296,200,19133,6,0,P|328:248|384:272,1,110
472,192,19907,1,0,0:0:0:0:
472,192,20101,2,2,L|416:192,1,55
296,200,20682,1,0,0:0:0:0:
296,72,21069,1,0,0:0:0:0:
176,72,21456,1,0,0:0:0:0:
176,72,21649,2,2,L|176:136,1,55
112,232,22230,5,0,0:0:0:0:
224,272,22617,2,0,P|288:264|352:280,1,110
400,168,23391,1,0,0:0:0:0:
400,168,23584,1,0,0:0:0:0:
400,168,23778,1,0,0:0:0:0:
280,136,24165,2,0,B|326:235,1,110
256,336,24940,1,6,0:0:0:0:
209,220,25327,6,0,L|289:124,1,110
368,64,26101,1,0,0:0:0:0:
368,64,26294,2,6,L|368:144,1,55
323,231,26875,2,0,P|243:231|219:191,1,110
144,136,27649,1,0,0:0:0:0:
144,136,27843,2,6,L|208:136,1,55
320,136,28423,5,0,0:0:0:0:
320,256,28811,1,0,0:0:0:0:
208,304,29198,1,0,0:0:0:0:
160,192,29585,6,0,L|216:160,1,55
264,136,29972,2,0,L|304:200,2,55
360,64,30746,1,0,0:0:0:0:
472,104,31133,1,0,3:3:0:0:
376,176,31520,6,0,P|432:168|488:184,1,110
424,288,32294,1,0,0:0:0:0:
304,280,32682,2,0,P|312:224|288:176,1,110
217,80,33456,2,0,P|152:56|104:64,1,110
144,176,34230,1,0,3:3:0:0:
72,272,34617,2,0,P|121:294|176:291,1,110
296,272,35391,1,0,0:0:0:0:
416,256,35778,2,0,L|416:192,2,55
320,174,36553,2,0,P|304:102|320:46,2,110
424,112,37714,5,6,0:0:0:0:
311,68,38101,2,0,L|215:4,1,110,0|0,3:3|0:0,0:0:0:0:
124,81,38875,2,0,L|228:153,1,110,0|0,3:3|0:0,0:0:0:0:
322,89,39649,2,0,P|370:65|434:97,1,110,0|0,3:3|0:0,0:0:0:0:
424,202,40423,6,0,L|352:202,1,55
308,197,40811,1,0,0:0:0:0:
187,195,41198,6,0,L|186:61,1,110
296,34,41972,1,0,0:0:0:0:
295,154,42359,2,0,P|367:162|407:146,1,110
399,270,43133,2,0,P|327:262|287:278,1,110
293,153,43907,5,0,0:0:0:0:
294,273,44294,2,0,P|241:293|193:261,1,110,0|0,3:3|0:0,0:0:0:0:
199,146,45069,2,0,P|246:121|295:141,1,110,0|0,3:3|0:0,0:0:0:0:
260,257,45843,6,0,L|316:257,1,55
400,171,46423,2,0,P|384:131|352:123,1,55
273,60,47004,2,0,B|217:36|217:36|161:68,1,110
120,168,47778,2,0,B|176:192|176:192|232:160,1,110
316,97,48552,2,0,L|204:97,1,110
88,120,49327,2,0,P|56:120|32:120,2,55
192,64,50101,5,0,0:0:0:0:
192,64,50294,2,0,L|248:64,1,55
272,184,50875,1,0,0:0:0:0:
272,184,51069,2,8,L|192:184,1,55,0|0,3:3|3:3,0:0:0:0:
120,120,51649,1,0,0:0:0:0:
120,120,51843,2,0,L|184:72,1,55
272,40,52423,5,0,0:0:0:0:
272,40,52617,2,8,L|320:96,1,55,0|0,3:3|3:3,0:0:0:0:
384,176,53198,1,0,0:0:0:0:
384,176,53391,2,0,P|368:216|336:232,1,55
248,264,53972,5,0,0:0:0:0:
176,168,54359,2,6,P|96:186|88:224,1,110
96,264,54940,1,4,0:0:0:0:
144,304,55133,2,6,P|224:286|232:248,1,110
256,152,55907,5,0,3:3:0:0:
144,120,56294,2,0,P|88:136|32:104,1,110
45,237,57069,2,0,P|86:216|102:216,2,55
140,310,57843,2,0,P|242:322|339:241,1,220
373,141,59004,1,0,0:0:0:0:
272,74,59391,2,0,P|234:50|204:46,2,55
191,164,60165,1,0,0:0:0:0:
70,167,60552,2,0,L|126:215,1,55
161,238,60940,2,0,P|182:84|209:242,1,440
359,264,62875,6,0,L|415:216,2,55
313,303,63456,2,0,L|241:327,1,55
140,331,64036,1,0,0:0:0:0:
67,234,64423,1,0,0:0:0:0:
152,148,64811,2,0,L|152:36,1,110
38,80,65585,5,0,0:0:0:0:
85,191,65972,1,0,0:0:0:0:
181,117,66359,1,0,0:0:0:0:
285,56,66746,5,0,0:0:0:0:
285,56,66940,2,0,L|312:112,1,55
366,211,67520,1,0,0:0:0:0:
289,304,67907,1,0,0:0:0:0:
168,294,68294,2,0,P|116:270|95:222,1,110
103,103,69069,2,0,P|154:118|175:166,1,110
161,287,69843,6,0,B|245:210|245:210|281:303|281:303|361:223|361:223|417:335|417:335,1,440
448,209,71778,5,4,0:0:0:0:
379,109,72165,1,0,0:0:0:0:
256,96,72552,1,0,0:0:0:0:
136,112,72940,1,0,0:0:0:0:
168,232,73327,6,0,P|224:256|288:272,1,110
259,140,74101,1,0,0:0:0:0:
360,72,74488,1,0,0:0:0:0:
232,32,74875,5,0,0:0:0:0:
260,149,75262,2,0,L|324:109,1,55
358,88,75649,1,0,0:0:0:0:
458,155,76036,1,0,0:0:0:0:
358,88,76423,2,0,L|294:56,1,55
249,48,76811,1,0,0:0:0:0:
190,63,77004,2,0,P|150:79|134:111,1,55
81,191,77585,5,0,0:0:0:0:
168,274,77972,2,0,L|136:210,1,55
201,206,78359,2,0,L|233:270,1,55
283,236,78746,1,0,0:0:0:0:
395,190,79133,1,0,0:0:0:0:
297,118,79520,6,0,L|265:62,1,55
216,104,79907,2,0,L|248:160,1,55
192,184,80294,1,0,0:0:0:0:
72,216,80682,1,0,0:0:0:0:
192,184,81069,5,0,0:0:0:0:
216,64,81456,2,0,P|279:51|336:75,1,110
376,176,82230,1,0,0:0:0:0:
320,280,82617,2,0,L|200:312,1,110
104,264,83391,2,0,L|24:171,1,110
72,66,84165,2,0,P|141:39|182:51,1,110
294,56,84940,1,0,0:0:0:0:
336,168,85327,6,0,L|273:204,1,55
233,221,85714,1,0,0:0:0:0:
172,224,85907,2,0,L|131:157,2,55
150,280,86488,2,0,L|184:335,2,55
92,296,87069,1,0,0:0:0:0:
256,192,87262,12,0,89391,2:2:0:0:
