osu file format v14

[General]
AudioFilename: audio.mp3
AudioLeadIn: 0
PreviewTime: 34211
Countdown: 0
SampleSet: Normal
StackLeniency: 0.7
Mode: 0
LetterboxInBreaks: 0
WidescreenStoryboard: 0

[Editor]
DistanceSpacing: 1.4
BeatDivisor: 4
GridSize: 8
TimelineZoom: 1.6

[Metadata]
Title:Re:Re:
TitleUnicode:Re:Re:
Artist:ASIAN KUNG-FU GENERATION
ArtistUnicode:ASIAN KUNG-FU GENERATION
Creator:TouchxMe
Version:Hard
Source:Boku dake ga inai machi
Tags:Erased op tv size asian kungfu generation Boku dake ga inai machi rere re:re: rere: touchxme 僕だけがいない街
BeatmapID:921270
BeatmapSetID:426704

[Difficulty]
HPDrainRate:5
CircleSize:4
OverallDifficulty:6.5
ApproachRate:8
SliderMultiplier:1.7
SliderTickRate:1

[Events]
//Background and Video events
Video,-637,"Boku Dake ga Inai Machi OP - Opening -Re(no audio)1.avi"
0,0,"Erasedtr.jpg",0,0
//Break Periods
//Storyboard Layer 0 (Background)
//Storyboard Layer 1 (Fail)
//Storyboard Layer 2 (Pass)
//Storyboard Layer 3 (Foreground)
//Storyboard Sound Samples

[TimingPoints]
166,387.096774193548,4,1,0,60,1,0
12940,-100,4,1,0,50,0,0
37714,-100,4,1,0,40,0,1
50101,-100,4,1,0,20,0,0
62488,-100,4,1,0,40,0,0
85520,-100,4,1,0,50,0,0
89391,-100,4,2,0,20,0,0

[HitObjects]
128,112,165,5,0,3:3:0:0:
128,240,553,6,0,L|200:192,1,85
264,272,940,2,0,L|344:216,1,85
392,128,1327,5,0,0:0:0:0:
304,56,1521,1,0,0:0:0:0:
280,56,1618,1,0,0:0:0:0:
256,56,1714,1,0,0:0:0:0:
160,112,1907,2,0,P|125:153|148:204,1,85
160,288,2295,6,0,P|184:336|240:336,1,85
368,184,2682,2,0,P|352:128|304:120,1,85
224,96,3069,1,0,0:0:0:0:
224,96,3166,1,0,0:0:0:0:
224,96,3263,2,0,P|272:176|272:176,1,85
416,256,3650,6,0,L|344:312,1,85
216,312,4037,2,0,L|144:240,1,85
80,152,4424,2,0,P|96:112|136:88,2,85
272,114,5005,6,0,P|287:154|282:201,1,85
160,168,5392,1,0,0:0:0:0:
160,168,5489,1,0,0:0:0:0:
160,168,5585,1,0,0:0:0:0:
248,80,5779,2,0,P|281:122|330:135,1,85
280,240,6166,5,0,0:0:0:0:
280,240,6263,1,0,0:0:0:0:
280,240,6360,1,0,0:0:0:0:
175,287,6553,2,0,P|135:279|106:228,1,85
108,138,6940,2,0,P|134:105|175:97,1,85
315,88,7327,6,0,L|387:144,1,85
394,225,7715,1,0,0:0:0:0:
378,241,7811,1,0,0:0:0:0:
362,257,7908,1,0,0:0:0:0:
261,293,8102,2,0,B|210:316|155:286,1,85
95,225,8489,5,0,0:0:0:0:
87,193,8586,1,0,0:0:0:0:
87,161,8682,1,0,0:0:0:0:
185,96,8875,5,0,0:0:0:0:
351,78,9069,2,0,P|329:125|342:163,1,85
255,194,9456,2,0,P|238:232|200:246,1,85
376,256,9843,5,0,0:0:0:0:
256,304,10036,1,0,0:0:0:0:
130,250,10230,2,0,P|122:189|146:163,1,85
224,87,10617,2,0,P|284:77|311:100,1,85
252,221,11004,2,0,B|228:261|228:261|276:317,1,85
369,247,11391,1,0,0:0:0:0:
280,184,12553,5,0,0:0:0:0:
144,136,12747,2,0,P|136:176|144:232,2,85
240,64,13327,2,0,P|320:40|384:96,1,170
296,136,13908,1,0,0:0:0:0:
288,160,14005,1,0,0:0:0:0:
280,184,14101,5,0,0:0:0:0:
343,294,14294,1,0,0:0:0:0:
216,294,14488,1,0,0:0:0:0:
280,184,14682,1,0,0:0:0:0:
128,184,14875,2,0,P|96:128|144:40,1,170
288,40,15456,1,0,0:0:0:0:
328,40,15553,1,0,0:0:0:0:
360,48,15650,2,0,P|400:80|392:112,1,85
208,208,16037,6,0,P|240:236|292:230,1,85
376,256,16424,2,0,P|405:227|360:120,1,170
192,120,17005,1,0,0:0:0:0:
320,120,17198,1,0,0:0:0:0:
208,256,17392,1,0,0:0:0:0:
360,248,17586,2,0,P|388:218|395:175,1,85
184,163,17972,2,0,P|190:121|219:90,1,85
284,170,18360,1,0,0:0:0:0:
216,280,18553,5,0,0:0:0:0:
216,280,18650,1,0,0:0:0:0:
216,280,18747,2,0,L|136:232,1,85
49,231,19134,2,0,P|69:171|106:152,1,85
232,120,19521,2,0,P|200:192|216:232,1,85
248,288,19907,5,0,0:0:0:0:
352,264,20102,1,8,0:0:0:0:
328,112,20295,1,8,0:0:0:0:
352,264,20488,1,0,0:0:0:0:
224,160,20683,2,0,L|136:96,1,85
72,176,21069,2,0,L|168:248,1,85
312,304,21456,1,0,0:0:0:0:
267,173,21650,5,8,0:0:0:0:
267,173,21747,1,8,0:0:0:0:
267,173,21843,1,8,0:0:0:0:
377,207,22036,2,0,P|384:163|373:122,1,85
171,116,22423,2,0,P|155:156|159:198,1,85
238,276,22811,2,0,P|277:260|316:273,1,85
339,159,23198,1,0,0:0:0:0:
263,72,23391,6,0,B|231:40|231:40|191:72,1,85
123,144,23778,1,0,0:0:0:0:
123,144,23875,1,0,0:0:0:0:
123,144,23972,2,0,P|107:186|121:236,1,85
236,268,24359,1,0,0:0:0:0:
324,176,24552,1,0,0:0:0:0:
228,63,24746,2,8,P|188:82|158:115,1,85
248,160,25133,1,0,0:0:0:0:
216,248,25327,6,0,P|248:264|296:232,1,85
248,160,25714,2,0,L|248:280,1,85
248,336,26101,1,0,0:0:0:0:
96,200,26294,2,8,P|86:242|109:286,2,85,8|8|0,0:0|0:0|0:0,0:0:0:0:
136,112,26875,2,0,P|176:80|216:72,1,85
312,48,27262,2,0,P|384:64|392:160,1,170
304,184,27843,2,8,P|256:192|216:184,2,85,8|8|0,0:0|0:0|0:0,0:0:0:0:
312,48,28423,6,0,P|262:34|146:109,1,170
112,184,29004,1,0,0:0:0:0:
208,248,29198,2,0,L|314:215,1,85
416,216,29585,5,0,0:0:0:0:
312,288,29779,2,0,L|221:316,1,85
202,178,30165,1,4,0:0:0:0:
202,178,30262,1,4,0:0:0:0:
202,178,30359,2,4,P|130:186|130:202,1,85
239,294,30746,1,0,0:0:0:0:
273,180,30940,2,4,P|327:166|344:185,1,85,12|12,0:0|0:0,0:0:0:0:
197,353,31327,6,0,P|251:359|297:344,1,85
283,241,31714,2,0,P|241:248|199:242,1,85
236,131,32101,2,0,P|207:90|155:68,1,85
115,198,32488,2,8,P|120:256|133:294,1,85
246,217,32875,5,0,0:0:0:0:
262,193,32972,1,0,0:0:0:0:
278,161,33069,1,0,0:0:0:0:
368,136,33262,2,0,P|408:192|391:240,1,85
320,304,33649,2,0,P|288:320|240:304,1,85
176,208,34036,1,8,0:0:0:0:
160,184,34133,1,8,0:0:0:0:
144,160,34230,1,8,0:0:0:0:
232,72,34423,6,0,P|296:80|320:112,1,85
344,192,34811,1,0,0:0:0:0:
256,272,35005,1,0,0:0:0:0:
160,224,35198,1,0,0:0:0:0:
144,128,35392,1,0,0:0:0:0:
232,72,35585,1,0,0:0:0:0:
296,144,35778,2,0,L|296:248,1,85
200,272,36165,2,0,P|160:288|120:272,1,85
103,252,36456,5,8,0:0:0:0:
111,220,36552,1,8,0:0:0:0:
119,188,36649,1,8,0:0:0:0:
127,164,36746,1,8,0:0:0:0:
135,140,36843,1,8,0:0:0:0:
143,116,36939,1,8,0:0:0:0:
151,92,37036,1,8,0:0:0:0:
159,68,37133,2,8,P|215:84|247:108,1,85
352,240,37520,6,4,P|315:258|317:324,2,85,4|4|4,2:0|2:0|2:0,2:0:0:0:
176,328,38101,1,0,0:0:0:0:
224,240,38295,1,0,0:0:0:0:
240,216,38391,1,0,0:0:0:0:
256,200,38488,1,0,0:0:0:0:
393,151,38682,2,0,P|370:95|328:68,1,85
184,72,39069,6,0,P|135:124|139:157,1,85
128,264,39456,2,0,P|136:304|200:336,1,85
264,240,39843,1,0,0:0:0:0:
256,336,40036,2,4,B|281:285|357:311,1,85
424,152,40424,6,4,P|387:178|344:224,2,85,4|4|4,2:0|2:0|2:0,2:0:0:0:
312,80,41004,2,6,B|272:104|272:104|224:64,1,85
144,152,41391,2,0,L|200:216,1,85
312,264,41778,5,6,0:0:0:0:
336,240,41875,1,0,0:0:0:0:
352,224,41972,1,6,0:0:0:0:
343,119,42165,2,0,P|300:101|252:124,1,85
115,101,42553,2,0,P|153:119|194:108,1,85
248,256,42940,2,8,B|276:285|276:285|249:324,1,85
144,200,43327,5,6,0:0:0:0:
160,184,43423,1,4,0:0:0:0:
176,168,43520,1,6,0:0:0:0:
248,104,43714,2,0,P|296:112|304:144,1,85
176,224,44101,1,6,0:0:0:0:
181,100,44294,1,6,0:0:0:0:
176,224,44488,1,0,0:0:0:0:
271,197,44682,6,0,L|260:299,2,85,0|6|6,0:0|0:0|0:0,0:0:0:0:
151,122,45262,1,0,0:0:0:0:
264,56,45456,2,0,P|307:76|332:108,2,85
184,120,46036,6,0,L|248:176,1,85
224,272,46423,2,0,L|152:200,1,85
96,104,46811,2,0,P|160:72|176:88,1,85
272,80,47198,6,0,L|344:144,1,85
284,247,47585,1,0,0:0:0:0:
176,264,47778,2,0,P|128:216|168:120,1,170
257,88,48359,2,0,L|345:88,1,85
352,224,48746,2,0,P|344:272|288:288,1,85
168,288,49133,2,0,P|160:240|168:192,2,85
240,240,49714,2,0,P|240:176|224:128,1,85
96,128,50101,5,0,0:0:0:0:
224,88,50294,1,0,0:0:0:0:
168,232,50488,1,0,0:0:0:0:
319,105,50682,1,0,0:0:0:0:
266,265,50875,1,0,0:0:0:0:
128,216,51069,6,0,P|104:160|120:112,1,85
224,160,51456,1,0,0:0:0:0:
392,160,51649,1,0,0:0:0:0:
256,264,51843,1,0,0:0:0:0:
308,104,52036,1,0,0:0:0:0:
360,256,52230,1,0,0:0:0:0:
224,160,52423,1,0,0:0:0:0:
392,160,52617,6,0,P|400:200|384:248,1,85
264,264,53004,2,0,P|208:256|176:232,1,85
144,128,53391,2,0,P|160:80|208:64,1,85
288,128,53778,2,0,L|384:184,1,85
432,264,54165,2,0,P|464:232|472:184,1,85
361,170,54552,1,0,0:0:0:0:
288,80,54746,6,0,L|376:80,2,85
216,48,55327,2,0,P|184:40|128:56,1,85
80,152,55714,2,0,P|88:208|128:248,1,85
192,304,56101,2,0,L|280:256,1,85
240,168,56488,5,0,0:0:0:0:
173,112,56682,1,0,0:0:0:0:
89,111,56875,2,0,L|90:205,1,85
162,243,57262,1,0,0:0:0:0:
249,242,57456,1,0,0:0:0:0:
316,190,57649,2,0,P|332:142|308:110,1,85
156,91,58036,6,0,P|156:164|186:179,1,85
219,248,58423,2,0,P|259:264|299:240,1,85
256,80,58811,2,0,L|256:176,1,85
115,215,59198,2,0,P|135:259|185:288,1,85
232,176,59585,6,0,L|312:104,1,85
408,200,59972,2,0,P|408:256|376:280,1,85
248,184,60359,1,0,0:0:0:0:
376,160,60552,1,0,0:0:0:0:
312,304,60746,1,0,0:0:0:0:
152,224,60940,2,0,P|167:177|217:165,1,85
320,136,61327,2,0,P|356:116|365:75,1,85
216,48,61714,2,0,P|175:53|152:88,1,85
216,200,62101,2,0,L|304:200,1,85
192,304,62488,6,0,P|256:64|304:312,1,680
176,152,64423,5,8,0:0:0:0:
168,256,64617,2,8,L|208:272,2,42.5
120,160,65004,2,0,P|176:152|208:168,1,85
312,224,65391,6,0,L|280:264,2,42.5,8|8|8,0:0|0:0|0:0,0:0:0:0:
271,121,65778,2,0,P|223:137|191:185,1,85
216,320,66165,6,8,P|229:340|264:344,2,42.5
285,257,66552,1,4,0:0:0:0:
344,168,66746,1,4,0:0:0:0:
312,64,66940,1,4,0:0:0:0:
208,64,67133,2,0,B|112:128|216:192|216:192|112:256|207:323,1,340
336,256,68101,5,4,0:0:0:0:
336,256,68294,2,4,P|384:184|320:128,1,170
152,136,68875,6,2,L|72:192,1,85
232,264,69262,1,4,0:0:0:0:
232,264,69359,1,4,0:0:0:0:
232,264,69455,1,4,0:0:0:0:
336,224,69649,2,2,L|408:168,1,85
288,96,70036,5,4,0:0:0:0:
288,96,70133,1,4,0:0:0:0:
288,96,70230,1,4,0:0:0:0:
176,96,70423,2,2,P|120:120|120:160,1,85
208,208,70811,1,0,0:0:0:0:
208,208,70907,1,0,0:0:0:0:
208,208,71004,1,0,0:0:0:0:
299,83,71198,2,0,P|331:99|347:155,1,85
311,256,71585,2,0,P|265:268|228:224,1,85
293,83,71972,6,8,P|213:67|189:91,1,85
152,168,72359,2,0,P|168:208|144:256,1,85
344,240,72746,2,8,P|328:199|352:152,1,85
271,64,73133,2,0,P|231:48|191:72,1,85
153,158,73520,6,8,L|97:158,4,42.5
248,200,74101,5,8,0:0:0:0:
264,224,74198,1,8,0:0:0:0:
280,248,74295,1,8,0:0:0:0:
296,272,74391,1,8,0:0:0:0:
312,288,74488,2,0,P|336:296|360:296,2,42.5
392,208,74875,6,0,P|392:120|328:64,1,170
208,152,75456,1,0,0:0:0:0:
312,248,75649,1,0,0:0:0:0:
168,304,75843,1,0,0:0:0:0:
56,192,76037,2,0,P|72:152|136:136,1,85
288,80,76423,6,0,P|328:88|384:72,1,85
344,200,76811,1,0,0:0:0:0:
240,208,77004,1,0,0:0:0:0:
160,152,77198,1,0,0:0:0:0:
144,64,77392,1,0,0:0:0:0:
240,64,77585,2,0,P|288:64|320:96,1,85
312,232,77972,6,0,P|263:233|227:199,1,85
152,160,78359,2,0,P|185:126|248:120,1,85
288,264,78746,2,0,P|361:179|344:105,1,170
256,128,79327,1,0,0:0:0:0:
192,72,79520,2,0,P|162:55|116:68,1,85
80,160,79907,1,0,0:0:0:0:
144,232,80101,2,0,P|168:264|224:272,1,85
328,200,80488,6,0,P|352:248|336:304,1,85
256,280,80875,2,0,P|216:288|168:280,1,85
208,176,81262,1,0,0:0:0:0:
208,176,81456,2,0,P|240:112|168:40,1,170
96,144,82036,5,0,0:0:0:0:
96,144,82230,2,0,P|94:230|192:262,1,170
232,208,82810,5,0,0:0:0:0:
312,208,83004,1,0,0:0:0:0:
312,128,83197,1,0,0:0:0:0:
232,128,83391,1,0,0:0:0:0:
232,208,83585,2,0,L|232:304,1,85
80,216,84165,6,0,P|64:132|143:48,3,170
168,184,85520,5,0,0:0:0:0:
168,184,85714,2,0,L|216:264,1,85
280,232,86101,2,0,L|232:152,1,85
296,120,86488,2,0,L|352:208,1,85
416,264,86875,2,0,P|448:218|441:173,1,85
376,96,87262,1,0,0:0:0:0:
256,192,87359,12,0,89391,2:2:0:0:
