osu file format v14

[General]
AudioFilename: audio.mp3
AudioLeadIn: 0
PreviewTime: 34211
Countdown: 0
SampleSet: Normal
StackLeniency: 0.7
Mode: 0
LetterboxInBreaks: 0
WidescreenStoryboard: 0

[Editor]
DistanceSpacing: 1.4
BeatDivisor: 4
GridSize: 8
TimelineZoom: 1

[Metadata]
Title:Re:Re:
TitleUnicode:Re:Re:
Artist:ASIAN KUNG-FU GENERATION
ArtistUnicode:ASIAN KUNG-FU GENERATION
Creator:TouchxMe
Version:Erased
Source:Boku dake ga inai machi
Tags:Erased op tv size asian kungfu generation Boku dake ga inai machi rere re:re: rere: touchxme 僕だけがいない街
BeatmapID:921271
BeatmapSetID:426704

[Difficulty]
HPDrainRate:6
CircleSize:4
OverallDifficulty:8
ApproachRate:9
SliderMultiplier:1.9
SliderTickRate:1

[Events]
//Background and Video events
Video,-635,"Boku Dake ga Inai Machi OP - Opening -Re(no audio)1.avi"
0,0,"Erasedtr.jpg",0,0
//Break Periods
//Storyboard Layer 0 (Background)
//Storyboard Layer 1 (Fail)
//Storyboard Layer 2 (Pass)
//Storyboard Layer 3 (Foreground)
//Storyboard Sound Samples

[TimingPoints]
166,387.096774193548,4,1,0,60,1,0
11391,-100,4,2,0,20,0,0
12940,-100,4,1,0,50,0,0
37714,-100,4,1,0,50,0,1
50101,-100,4,1,0,20,0,0
62488,-100,4,1,0,40,0,0
85520,-100,4,1,0,50,0,0
89391,-100,4,2,0,20,0,0

[HitObjects]
352,80,166,5,0,3:3:0:0:
392,184,553,6,0,P|400:248|384:272,1,95
176,176,940,2,0,P|168:128|192:88,1,95
384,160,1327,1,0,0:0:0:0:
280,296,1520,5,0,0:0:0:0:
272,304,1617,1,0,0:0:0:0:
264,312,1714,1,0,0:0:0:0:
400,224,1907,1,0,0:0:0:0:
232,168,2101,2,0,P|267:143|317:148,1,95
340,251,2488,2,0,P|301:276|255:271,1,95
128,120,2875,2,0,P|104:168|128:208,1,95
256,272,3262,2,0,P|306:265|352:233,1,95
432,144,3649,5,0,0:0:0:0:
304,88,3843,1,0,0:0:0:0:
176,98,4036,2,0,P|137:122|128:168,1,95
152,304,4424,1,0,0:0:0:0:
304,288,4617,2,0,P|354:265|384:216,1,95
272,168,5004,1,0,0:0:0:0:
304,56,5198,6,0,P|256:48|200:80,2,95
408,128,5778,1,0,0:0:0:0:
424,152,5875,1,0,0:0:0:0:
424,184,5972,1,0,0:0:0:0:
320,288,6165,5,12,0:0:0:0:
288,301,6262,1,8,0:0:0:0:
250,312,6359,1,8,0:0:0:0:
214,316,6456,1,8,0:0:0:0:
182,312,6553,1,8,0:0:0:0:
232,192,6746,6,0,L|264:96,1,95
176,272,7133,1,4,0:0:0:0:
136,80,7327,1,0,0:0:0:0:
376,80,7520,1,0,0:0:0:0:
320,272,7714,1,0,0:0:0:0:
120,112,7907,1,4,0:0:0:0:
368,48,8101,1,0,0:0:0:0:
312,288,8295,6,0,B|176:288,1,95
152,128,8682,1,0,0:0:0:0:
152,128,8778,1,0,0:0:0:0:
152,128,8875,1,0,0:0:0:0:
192,288,9069,2,0,L|264:224,1,95
352,152,9456,1,0,0:0:0:0:
328,120,9553,1,0,0:0:0:0:
296,104,9649,1,0,0:0:0:0:
128,200,9843,6,0,P|132:241|176:271,1,95
360,144,10230,2,0,P|336:96|271:80,1,95
128,168,10617,1,0,0:0:0:0:
392,112,10811,1,0,0:0:0:0:
208,296,11004,1,0,0:0:0:0:
232,56,11198,1,0,0:0:0:0:
376,240,11391,5,0,0:0:0:0:
240,232,11585,2,0,L|184:152,1,95
48,96,11972,1,0,0:0:0:0:
96,240,12165,2,0,L|150:317,1,95
280,248,12553,5,0,2:0:0:0:
336,96,12746,1,8,0:0:0:0:
200,184,12940,1,0,0:0:0:0:
184,168,13036,1,0,0:0:0:0:
168,152,13133,1,0,0:0:0:0:
48,104,13327,1,0,0:0:0:0:
168,280,13520,1,0,0:0:0:0:
352,88,13714,5,0,0:0:0:0:
208,112,13907,2,8,P|160:136|152:184,1,95
176,256,14295,2,0,P|224:232|232:184,2,95
256,88,14875,1,0,0:0:0:0:
336,184,15069,2,0,L|404:295,1,95
128,152,15456,1,8,0:0:0:0:
368,128,15649,6,8,L|264:56,1,95
200,248,16036,1,0,0:0:0:0:
400,192,16230,2,0,L|400:144,2,47.5
160,232,16617,1,0,0:0:0:0:
280,80,16811,2,0,L|195:36,1,95
104,208,17198,1,0,0:0:0:0:
224,320,17391,2,0,L|304:320,2,47.5
152,192,17778,1,0,0:0:0:0:
368,160,17972,5,0,0:0:0:0:
144,176,18165,1,0,0:0:0:0:
272,72,18359,1,0,0:0:0:0:
280,280,18553,1,8,0:0:0:0:
159,93,18746,2,0,P|199:69|245:58,1,95,8|0,0:0|0:0,0:0:0:0:
368,128,19133,5,0,0:0:0:0:
136,232,19327,1,0,0:0:0:0:
304,240,19520,2,0,P|260:221|224:190,1,95
344,112,19907,1,0,0:0:0:0:
152,96,20101,1,8,0:0:0:0:
152,96,20295,2,12,P|104:136|96:192,1,95
182,287,20682,5,0,0:0:0:0:
200,152,20875,2,0,L|288:192,1,95
88,288,21262,2,0,L|195:287,1,95
280,280,21649,1,8,0:0:0:0:
352,208,21843,5,8,0:0:0:0:
344,112,22036,1,8,0:0:0:0:
240,72,22230,2,0,L|128:72,2,95
344,112,22811,1,0,0:0:0:0:
384,216,23004,1,0,0:0:0:0:
336,312,23198,1,0,0:0:0:0:
248,296,23391,6,0,L|160:224,1,95
64,144,23778,1,0,0:0:0:0:
208,56,23972,1,0,0:0:0:0:
312,64,24165,2,0,B|296:136|248:168|168:152,1,190
304,280,24746,5,14,0:0:0:0:
304,280,24843,1,14,0:0:0:0:
304,280,24940,1,14,0:0:0:0:
168,152,25133,1,0,0:0:0:0:
304,72,25327,2,0,P|368:88|400:112,1,95
160,152,25714,1,0,0:0:0:0:
304,208,25907,1,0,0:0:0:0:
192,304,26101,1,0,0:0:0:0:
240,184,26295,5,14,0:0:0:0:
240,184,26391,1,14,0:0:0:0:
240,184,26488,1,14,0:0:0:0:
304,80,26682,1,0,0:0:0:0:
448,96,26875,1,0,0:0:0:0:
344,272,27069,1,0,0:0:0:0:
232,152,27262,1,0,0:0:0:0:
400,136,27456,1,0,0:0:0:0:
304,296,27649,1,0,0:0:0:0:
448,256,27843,5,14,0:0:0:0:
448,256,27940,1,14,0:0:0:0:
448,256,28036,1,14,0:0:0:0:
456,136,28230,2,0,B|416:64|368:64,1,95
240,72,28617,2,0,P|184:128|176:168,1,95
176,240,29004,2,0,P|184:280|248:344,2,95
176,240,29585,5,0,0:0:0:0:
280,152,29778,1,0,0:0:0:0:
280,152,29875,1,0,0:0:0:0:
280,152,29972,1,0,0:0:0:0:
96,88,30165,1,0,0:0:0:0:
200,272,30359,1,0,0:0:0:0:
350,126,30553,1,0,0:0:0:0:
356,280,30746,6,0,P|396:176|332:120,1,190
256,192,31327,5,0,0:0:0:0:
256,192,31424,1,0,0:0:0:0:
256,192,31520,1,0,0:0:0:0:
120,88,31714,1,0,0:0:0:0:
184,240,31907,1,0,0:0:0:0:
368,88,32101,5,0,0:0:0:0:
248,224,32295,1,0,0:0:0:0:
96,104,32488,2,8,B|72:168|160:208,1,95
328,248,32875,5,0,0:0:0:0:
328,248,32972,1,0,0:0:0:0:
328,248,33069,1,0,0:0:0:0:
216,80,33262,1,0,0:0:0:0:
368,152,33456,1,0,0:0:0:0:
168,232,33649,1,0,0:0:0:0:
216,80,33843,1,0,0:0:0:0:
336,296,34036,6,8,P|272:312|224:272,1,95
120,176,34424,1,0,0:0:0:0:
176,80,34617,1,0,0:0:0:0:
280,80,34811,1,0,0:0:0:0:
344,176,35004,1,0,0:0:0:0:
288,264,35198,1,0,0:0:0:0:
176,264,35391,1,0,0:0:0:0:
56,224,35585,2,0,P|40:184|56:128,2,95
192,256,36165,6,8,L|240:288,3,47.5
232,192,36553,2,8,L|276:220,3,47.5
272,128,36940,2,8,L|336:168,3,47.5
312,64,37327,2,8,L|368:96,3,47.5
344,247,37714,6,0,P|392:167|352:87,1,190,0|0,2:0|2:0,2:0:0:0:
112,184,38295,5,0,0:0:0:0:
368,144,38488,1,0,3:0:0:0:
168,304,38682,1,0,3:0:0:0:
232,64,38875,1,0,3:0:0:0:
336,280,39069,1,0,3:0:0:0:
168,304,39262,6,0,P|114:285|84:238,2,95
328,280,39843,1,0,0:0:0:0:
353,249,39940,1,0,0:0:0:0:
379,218,40036,1,0,0:0:0:0:
208,232,40230,2,0,L|152:232,2,47.5
240,112,40617,6,0,L|272:16,2,95
320,216,41198,1,0,0:0:0:0:
432,128,41391,2,0,P|456:160|424:216,1,95
280,168,41778,2,0,P|235:146|188:173,1,95
192,320,42165,2,0,P|240:336|288:304,1,95
392,192,42553,5,0,0:0:0:0:
392,192,42649,1,0,0:0:0:0:
392,192,42746,2,0,L|312:112,1,95
240,64,43133,2,10,P|136:48|64:96,1,190
48,248,43714,1,0,0:0:0:0:
152,168,43907,1,0,0:0:0:0:
272,240,44101,37,0,0:0:0:0:
376,160,44295,2,0,P|416:232|360:328,1,190
120,208,44875,2,0,P|152:280|176:280,1,95
224,120,45262,2,0,L|224:48,1,47.5
216,32,45456,2,0,B|184:88|216:144|216:144|248:200|184:232,1,190
296,88,46036,1,0,0:0:0:0:
392,48,46230,6,0,B|432:80|392:136,1,95
120,160,46617,2,0,P|104:208|128:240,1,95
392,256,47004,2,0,P|416:304|384:336,1,95
368,336,47295,1,0,0:0:0:0:
344,336,47391,2,0,P|278:333|236:305,1,95
136,288,47778,6,0,P|120:240|56:224,1,95
336,96,48165,2,0,P|352:160|400:176,1,95
128,96,48553,2,0,P|176:80|208:16,1,95
376,272,48940,2,0,P|312:288|296:336,1,95
168,112,49327,5,0,0:0:0:0:
184,136,49424,1,0,0:0:0:0:
200,160,49520,1,0,0:0:0:0:
216,184,49617,1,0,0:0:0:0:
232,208,49714,1,0,0:0:0:0:
248,232,49811,1,0,0:0:0:0:
264,256,49907,2,4,L|304:312,2,47.5
296,32,50295,5,0,0:0:0:0:
152,136,50488,1,0,0:0:0:0:
312,208,50682,1,0,0:0:0:0:
160,336,50875,1,0,0:0:0:0:
208,224,51069,2,0,L|272:144,1,95,0|0,0:0|0:0,0:0:0:0:
304,328,51456,6,0,P|352:304|352:248,2,95
360,104,52036,2,0,L|264:48,1,95
144,112,52424,1,0,0:0:0:0:
368,192,52617,1,0,0:0:0:0:
200,320,52811,1,0,0:0:0:0:
144,112,53004,1,0,0:0:0:0:
312,280,53198,1,0,0:0:0:0:
384,96,53391,6,0,L|272:96,1,95
168,184,53778,2,0,L|272:184,1,95
384,280,54165,2,0,L|248:280,1,95
128,248,54553,6,0,P|112:200|152:152,1,95
224,128,54940,2,4,P|240:96|216:40,2,95
227,207,55520,2,4,P|243:231|200:320,1,95
235,293,55811,1,4,0:0:0:0:
235,293,55907,5,4,0:0:0:0:
160,112,56101,2,4,P|168:48|224:40,1,95
312,144,56488,2,0,P|352:96|344:40,2,95
240,296,57069,1,0,0:0:0:0:
161,160,57262,5,0,0:0:0:0:
256,160,57456,2,0,L|144:160,1,95
96,256,57843,2,0,L|216:256,1,95
360,232,58230,2,0,P|408:160|328:80,1,190
144,248,58811,1,4,0:0:0:0:
144,248,58907,1,4,0:0:0:0:
144,248,59004,1,4,0:0:0:0:
88,136,59198,5,0,0:0:0:0:
336,120,59391,1,0,0:0:0:0:
144,256,59585,1,0,0:0:0:0:
208,64,59778,1,0,0:0:0:0:
304,248,59972,1,0,0:0:0:0:
104,120,60165,1,0,0:0:0:0:
336,80,60359,1,0,0:0:0:0:
232,272,60553,1,0,0:0:0:0:
200,88,60746,1,0,0:0:0:0:
192,280,60940,6,0,P|256:72|312:288,1,570
256,192,62295,5,0,0:0:0:0:
256,192,62488,1,0,0:0:0:0:
256,192,62682,1,0,0:0:0:0:
48,128,62875,2,0,P|56:72|96:32,1,95
296,56,63262,1,0,0:0:0:0:
232,264,63456,1,0,0:0:0:0:
384,112,63649,1,0,0:0:0:0:
328,328,63843,1,0,0:0:0:0:
472,160,64036,1,0,0:0:0:0:
432,376,64230,1,0,0:0:0:0:
408,160,64424,6,0,P|352:144|304:160,2,95
176,176,65004,1,8,0:0:0:0:
200,144,65101,1,8,0:0:0:0:
224,112,65198,1,8,0:0:0:0:
408,160,65391,1,8,0:0:0:0:
272,344,65585,1,8,0:0:0:0:
112,272,65972,2,8,P|80:184|144:96,1,190
256,208,66553,5,8,0:0:0:0:
256,208,66649,1,8,0:0:0:0:
256,208,66746,1,8,0:0:0:0:
200,280,66940,2,0,P|256:296|320:272,1,95
224,128,67327,1,8,0:0:0:0:
232,120,67424,1,8,0:0:0:0:
240,112,67520,2,8,L|240:208,1,95,8|0,0:0|0:0,0:0:0:0:
196,56,67907,2,0,P|244:40|292:64,1,95
144,232,68295,5,0,0:0:0:0:
352,232,68488,1,0,0:0:0:0:
256,120,68682,1,0,0:0:0:0:
96,232,68875,6,0,P|104:288|144:304,1,95
192,136,69262,1,14,0:0:0:0:
192,136,69359,1,14,0:0:0:0:
192,136,69456,1,14,0:0:0:0:
288,296,69649,6,0,P|336:264|328:216,1,95
152,288,70036,1,14,0:0:0:0:
152,288,70133,1,14,0:0:0:0:
152,288,70230,1,14,0:0:0:0:
144,152,70424,6,0,P|160:96|208:88,1,95
328,144,70811,1,14,0:0:0:0:
328,144,70907,1,14,0:0:0:0:
328,144,71004,1,14,0:0:0:0:
384,248,71198,6,0,P|368:296|320:304,1,95
312,312,71488,1,0,3:3:0:0:
288,312,71585,1,0,3:3:0:0:
192,312,71778,2,0,P|192:168|256:128,1,190
128,272,72359,6,6,P|176:248|192:184,1,95
344,96,72746,2,0,P|312:56|256:56,1,95
128,152,73133,2,6,L|128:248,1,95
256,344,73520,2,0,P|306:339|402:238,1,190
376,160,74101,5,8,0:0:0:0:
368,144,74198,1,8,0:0:0:0:
360,128,74295,1,8,0:0:0:0:
349,111,74391,1,8,0:0:0:0:
338,96,74488,1,8,0:0:0:0:
326,84,74585,1,8,0:0:0:0:
310,72,74682,1,8,0:0:0:0:
295,63,74778,1,8,0:0:0:0:
281,54,74875,6,0,P|233:65|195:98,1,95
176,216,75262,2,0,L|176:312,1,95
312,312,75649,2,0,L|384:312,2,47.5
184,176,76036,5,0,0:0:0:0:
344,96,76230,2,0,P|378:137|350:193,1,95
208,312,76617,2,8,P|256:328|304:296,2,95
128,264,77198,1,8,0:0:0:0:
344,240,77391,5,0,0:0:0:0:
120,160,77585,1,0,0:0:0:0:
304,72,77778,1,0,0:0:0:0:
296,288,77972,2,0,L|176:288,1,95,0|8,0:0|0:0,0:0:0:0:
120,160,78359,5,8,0:0:0:0:
368,136,78553,1,8,0:0:0:0:
208,288,78746,1,8,0:0:0:0:
240,72,78940,1,0,0:0:0:0:
336,256,79133,1,0,0:0:0:0:
120,240,79327,1,0,0:0:0:0:
276,313,79520,2,0,P|355:262|392:176,1,190,0|0,1:0|1:0,1:0:0:0:
240,72,80101,1,0,0:0:0:0:
304,248,80295,5,0,0:0:0:0:
240,72,80488,1,0,0:0:0:0:
96,232,80682,2,0,P|80:184|112:136,1,95
360,184,81069,1,0,0:0:0:0:
184,296,81262,1,0,0:0:0:0:
112,136,81456,2,0,L|200:64,1,95
384,144,81843,2,0,P|400:192|376:240,1,95
136,264,82230,2,0,P|120:216|144:160,1,95
344,112,82617,5,0,0:0:0:0:
136,264,82811,1,0,0:0:0:0:
224,72,83004,1,0,0:0:0:0:
336,256,83198,1,0,0:0:0:0:
120,192,83391,2,0,P|136:133|175:120,2,95
176,264,83972,1,0,0:0:0:0:
240,80,84165,5,0,0:0:0:0:
176,264,84359,1,0,0:0:0:0:
336,120,84553,1,0,0:0:0:0:
120,152,84746,1,0,0:0:0:0:
328,264,84940,2,0,P|367:242|368:196,1,95
216,120,85327,1,0,0:0:0:0:
96,264,85520,6,0,L|96:160,1,95
344,280,85907,1,0,0:0:0:0:
128,80,86101,1,0,0:0:0:0:
200,328,86295,1,0,0:0:0:0:
256,48,86488,1,0,0:0:0:0:
368,304,86682,1,0,0:0:0:0:
80,152,86875,2,0,P|64:208|96:240,2,95,0|0|4,0:0|0:0|0:0,0:0:0:0:
256,192,87359,12,0,89391,2:2:0:0:
