osu file format v14

[General]
AudioFilename: Erased OP song.mp3
AudioLeadIn: 0
PreviewTime: 37307
Countdown: 0
SampleSet: Normal
StackLeniency: 0.5
Mode: 0
LetterboxInBreaks: 0
WidescreenStoryboard: 1

[Editor]
DistanceSpacing: 1.4
BeatDivisor: 4
GridSize: 8
TimelineZoom: 1.6

[Metadata]
Title:Re:Re: (TV Size)
TitleUnicode:Re:Re: (TV Size)
Artist:ASIAN KUNG-FU GENERATION
ArtistUnicode:アジアン・カンフー・ジェネレーション
Creator:Nzrazor
Version:Normal
Source:僕だけがいない街
Tags:Erased Boku dake ga inai machi OP TV Size ソルファ Sol-fa rere Supreme
BeatmapID:911224
BeatmapSetID:421268

[Difficulty]
HPDrainRate:4
CircleSize:3.8
OverallDifficulty:4
ApproachRate:4
SliderMultiplier:1.1
SliderTickRate:1

[Events]
//Background and Video events
0,0,"boku-dake-ga-inai-machi.jpg",0,0
Video,0,"Erased OP Vid.avi"
//Break Periods
//Storyboard Layer 0 (Background)
//Storyboard Layer 1 (Fail)
//Storyboard Layer 2 (Pass)
//Storyboard Layer 3 (Foreground)
//Storyboard Sound Samples

[TimingPoints]
533,387.096774193548,4,1,0,60,1,0
37694,-100,4,1,0,60,0,1
49694,-100,4,1,0,60,0,0

[HitObjects]
152,128,533,6,0,P|224:80|264:64,1,110
320,56,1113,1,0,0:0:0:0:
384,96,1307,2,0,P|391:142|376:208,1,110
336,264,1887,1,0,0:0:0:0:
264,296,2081,6,0,P|304:336|368:336,1,110
424,304,2662,1,0,0:0:0:0:
448,232,2855,1,0,0:0:0:0:
392,88,3242,1,0,0:0:0:0:
240,48,3629,6,0,P|176:88|144:128,1,110
136,192,4210,1,0,0:0:0:0:
184,256,4404,2,0,P|264:256|304:240,1,110
352,200,4984,1,0,0:0:0:0:
400,136,5178,6,0,P|352:80|312:56,1,110
248,32,5758,1,0,0:0:0:0:
176,56,5952,1,0,0:0:0:0:
72,168,6339,1,0,0:0:0:0:
144,304,6726,6,0,P|208:248|216:208,1,110
232,152,7307,1,0,0:0:0:0:
200,80,7500,2,0,P|256:80|304:120,1,110
344,168,8081,1,0,0:0:0:0:
376,240,8275,6,0,P|328:296|280:312,1,110
216,312,8855,1,0,0:0:0:0:
144,288,9049,1,0,0:0:0:0:
96,144,9436,1,0,0:0:0:0:
240,192,9823,6,0,P|256:144|240:88,1,110
192,32,10404,1,0,0:0:0:0:
120,48,10597,2,0,L|64:80,1,55
25,137,10984,2,0,L|81:169,1,55
138,205,11371,2,0,B|166:223|166:223|178:277|231:284,1,110
364,301,12145,2,0,P|412:275|438:227,1,110
361,216,12726,1,0,0:0:0:0:
352,139,12920,6,0,P|328:91|272:51,1,110
209,60,13500,1,0,0:0:0:0:
137,89,13694,2,0,P|153:193|161:217,1,110
212,247,14275,5,0,0:0:0:0:
277,286,14468,2,0,P|237:318|173:310,1,110
112,278,15049,1,0,0:0:0:0:
62,219,15242,2,0,P|46:163|62:107,1,110
116,63,15823,5,0,0:0:0:0:
192,57,16016,2,0,L|256:81,1,55
313,110,16404,1,0,0:0:0:0:
383,139,16597,1,0,0:0:0:0:
435,195,16791,2,0,P|411:283|387:307,1,110
340,344,17371,5,0,0:0:0:0:
270,310,17565,2,0,L|214:278,1,55
164,232,17952,1,0,0:0:0:0:
80,104,18339,1,0,0:0:0:0:
80,104,18920,1,0,0:0:0:0:
152,72,19113,6,0,P|216:48|264:48,1,110
336,56,19694,1,0,0:0:0:0:
400,104,19887,2,0,P|436:144|454:196,1,110
464,272,20468,5,0,0:0:0:0:
431,341,20662,2,0,P|399:317|383:237,1,110
384,176,21242,1,0,0:0:0:0:
432,112,21436,2,0,P|384:96|320:128,1,110
272,168,22016,1,0,0:0:0:0:
208,216,22210,6,0,L|128:224,1,55
96,168,22597,2,0,L|64:112,1,55
104,56,22984,2,0,P|168:32|224:32,1,110
288,40,23565,5,0,0:0:0:0:
288,120,23758,2,0,L|358:153,1,55
408,176,24145,1,0,0:0:0:0:
384,24,24533,1,0,0:0:0:0:
384,24,25113,1,0,0:0:0:0:
304,24,25307,6,0,P|227:29|176:48,1,110
128,72,25887,1,0,0:0:0:0:
104,144,26081,2,0,P|128:200|160:240,1,110
232,272,26662,5,0,0:0:0:0:
240,192,26855,2,0,P|264:136|304:96,1,110
360,48,27436,1,0,0:0:0:0:
432,24,27629,2,0,P|432:112|424:144,1,110
416,208,28210,1,0,0:0:0:0:
376,272,28404,6,0,L|312:248,1,55
280,192,28791,2,0,L|256:120,1,55
296,72,29178,2,0,P|216:80|192:112,1,110
152,160,29758,6,0,L|112:224,1,55
96,280,30145,1,0,0:0:0:0:
176,296,30339,1,0,0:0:0:0:
312,224,30726,1,0,0:0:0:0:
312,224,31307,1,0,0:0:0:0:
388,235,31500,6,0,P|404:195|396:123,1,110
376,56,32081,1,0,0:0:0:0:
304,32,32275,2,0,P|232:56|200:88,1,110
160,136,32855,5,0,0:0:0:0:
240,152,33049,2,0,P|200:200|144:216,1,110
80,232,33629,1,0,0:0:0:0:
16,272,33823,2,0,P|64:304|136:288,1,110
184,272,34404,5,0,0:0:0:0:
256,240,34597,2,0,P|304:192|320:144,1,110
392,128,35178,2,0,P|344:80|288:80,1,110
224,72,35758,2,0,L|232:136,1,55
240,200,36145,6,0,P|240:264|208:312,1,110
145,318,36726,2,0,L|89:286,1,55
40,238,37113,1,0,0:0:0:0:
32,161,37307,1,0,0:0:0:0:
136,48,37694,1,0,0:0:0:0:
288,64,38081,6,0,L|352:104,1,55
392,144,38468,1,0,0:0:0:0:
464,280,38855,2,0,P|440:312|352:344,1,110
304,336,39436,1,0,0:0:0:0:
240,296,39629,2,0,L|200:240,1,55
144,112,40210,6,0,L|208:152,1,55
256,176,40597,1,0,0:0:0:0:
320,216,40791,2,0,P|384:296|408:304,1,110
407,223,41371,1,0,0:0:0:0:
473,262,41565,2,0,P|481:190|465:142,1,110
456,88,42145,5,0,0:0:0:0:
384,112,42339,1,0,0:0:0:0:
248,192,42726,1,0,0:0:0:0:
200,48,43113,1,0,0:0:0:0:
120,184,43500,1,0,0:0:0:0:
144,336,43887,2,0,P|88:304|48:144,1,220
144,48,45049,5,0,0:0:0:0:
224,40,45242,1,0,0:0:0:0:
304,56,45436,2,0,P|352:80|400:128,1,110
424,184,46016,2,0,P|360:216|304:216,1,110
248,200,46597,1,0,0:0:0:0:
168,72,46984,6,0,P|119:110|95:157,1,110
56,296,47758,2,0,P|144:288|176:272,1,110
288,192,48533,1,0,0:0:0:0:
288,192,48920,1,0,0:0:0:0:
429,130,49307,2,0,P|389:82|341:58,1,110
272,56,49887,5,0,0:0:0:0:
200,80,50081,2,0,P|144:120|120:160,1,110
111,305,50855,1,0,0:0:0:0:
111,305,51436,1,0,0:0:0:0:
176,344,51629,6,0,B|232:344|248:344|248:344|288:312,1,110
384,216,52404,1,0,0:0:0:0:
384,216,52984,1,0,0:0:0:0:
440,160,53178,6,0,P|384:136|320:160,1,110
208,224,53952,2,0,B|176:264|192:304|192:304|208:328,1,110
280,352,54533,5,0,0:0:0:0:
344,309,54726,2,0,L|368:237,1,55
375,180,55113,1,0,0:0:0:0:
256,104,55500,1,0,0:0:0:0:
256,104,56081,1,0,0:0:0:0:
176,104,56274,6,0,P|200:160|240:184,1,110
392,216,57049,1,0,0:0:0:0:
392,216,57629,1,0,0:0:0:0:
464,248,57823,6,0,P|464:192|416:144,1,110
288,96,58597,1,0,0:0:0:0:
288,96,59178,1,0,0:0:0:0:
218,128,59371,6,0,P|265:187|304:209,1,110
428,284,60145,1,0,0:0:0:0:
428,284,60532,1,0,0:0:0:0:
282,334,60920,6,0,P|194:310|178:294,1,110
147,230,61500,1,0,0:0:0:0:
148,152,61694,2,0,P|84:184|68:224,1,110
74,293,62275,1,0,0:0:0:0:
135,338,62468,6,0,P|199:322|247:274,1,110
327,174,63242,2,0,P|375:126|415:110,1,110
467,254,64016,2,0,B|465:317|465:317|416:349,1,110
271,355,64791,2,0,P|199:339|151:307,1,110
79,195,65565,2,0,P|47:131|56:81,1,110
201,127,66339,2,0,P|265:159|289:191,1,110
218,222,66920,5,0,0:0:0:0:
153,264,67113,2,0,P|201:296|273:296,1,110
329,296,67694,1,0,0:0:0:0:
393,337,67887,2,0,P|405:285|371:232,1,110
324,182,68468,1,0,0:0:0:0:
264,133,68662,2,0,P|204:156|152:197,1,110
24,239,69436,6,0,P|48:287|104:327,1,110
244,334,70210,2,0,P|295:305|338:254,1,110
444,165,70984,2,0,P|397:130|339:116,1,110
194,113,71758,2,0,P|138:129|90:177,1,110
151,307,72533,2,0,P|215:307|271:267,1,110
256,192,73307,12,0,74855,0:0:0:0:
254,285,75242,6,0,P|174:317|134:325,1,110
73,189,76016,2,0,P|99:116|247:62,1,220
373,87,77178,1,0,0:0:0:0:
373,87,77565,1,0,0:0:0:0:
383,240,77952,6,0,P|351:272|319:288,2,55
449,200,78533,2,0,P|386:167|331:189,1,110
280,205,79113,2,0,P|188:224|79:154,1,220
227,103,80275,1,0,0:0:0:0:
227,103,80662,1,0,0:0:0:0:
292,242,81049,6,0,L|324:290,2,55
257,173,81629,2,0,P|305:137|353:121,1,110
428,133,82210,2,0,P|412:261|373:343,1,220
242,261,83371,1,0,0:0:0:0:
242,261,83758,1,0,0:0:0:0:
276,111,84145,6,0,L|353:115,2,55
221,165,84726,2,0,P|197:117|211:60,1,110
273,22,85307,1,0,0:0:0:0:
418,71,85694,5,0,0:0:0:0:
432,224,86081,1,0,0:0:0:0:
303,138,86468,1,0,0:0:0:0:
186,238,86855,1,0,0:0:0:0:
323,271,87242,2,0,P|161:304|56:184,1,330
