osu file format v14

[General]
AudioFilename: Asian Kung-Fu Generation - ReRe.mp3
AudioLeadIn: 0
PreviewTime: 37008
Countdown: 0
SampleSet: Soft
StackLeniency: 0.6
Mode: 0
LetterboxInBreaks: 0
WidescreenStoryboard: 0

[Editor]
Bookmarks: 65557,68654,71750
DistanceSpacing: 1.3
BeatDivisor: 4
GridSize: 4
TimelineZoom: 1.7

[Metadata]
Title:Re:Re:
TitleUnicode:Re:Re:
Artist:ASIAN KUNG-FU GENERATION
ArtistUnicode:ASIAN KUNG-FU GENERATION
Creator:Haya
Version:Insane
Source:僕だけがいない街
Tags:Boku dake ga inai machi AKFG ReRe Erased Opening TV Size [Epicz]
BeatmapID:921857
BeatmapSetID:426992

[Difficulty]
HPDrainRate:7
CircleSize:4
OverallDifficulty:8
ApproachRate:9
SliderMultiplier:1.8
SliderTickRate:1

[Events]
//Background and Video events
Video,-275,"BokuDakeOP.avi"
0,0,"BokuDakeGaInaiMachi - Hinazuki Kayo BG.png",0,0
//Break Periods
//Storyboard Layer 0 (Background)
//Storyboard Layer 1 (Fail)
//Storyboard Layer 2 (Pass)
//Storyboard Layer 3 (Foreground)
//Storyboard Sound Samples

[TimingPoints]
530,387.096774193548,4,2,4,50,1,0
11368,-100,4,2,4,50,0,0
12917,-100,4,2,4,50,0,0
36142,-100,4,1,1,50,0,0
37691,-80,4,1,1,60,0,1
43788,-80,4,1,1,60,0,0
43884,-80,4,1,1,60,0,1
50078,-100,4,2,1,30,0,0
62465,-100,4,2,1,40,0,0
73304,-100,4,1,1,30,0,0
73691,-100,4,1,1,35,0,0
74078,-100,4,1,1,40,0,0
74465,-100,4,1,1,45,0,0
74852,-100,4,1,1,50,0,0
87239,-100,4,2,1,30,0,0
87626,-100,4,2,1,25,0,0
88013,-100,4,2,1,20,0,0
88400,-100,4,2,1,15,0,0
88788,-100,4,2,1,10,0,0
89078,-100,4,2,2,5,0,0

[Colours]
Combo1 : 205,156,90
Combo2 : 208,144,109
Combo3 : 150,100,54

[HitObjects]
64,312,530,6,0,P|95:275|115:223,1,90,4|0,0:0|0:0,0:0:0:0:
160,128,917,2,0,L|256:100,1,90,8|0,0:0|0:0,0:0:0:0:
360,80,1304,1,0,0:0:0:0:
436,192,1497,1,0,0:0:0:0:
304,164,1691,1,8,0:0:0:0:
380,276,1884,1,0,0:0:0:0:
360,80,2078,6,0,P|318:48|270:34,1,90
80,116,2465,2,0,P|122:148|170:162,1,90,8|0,0:0|0:0,0:0:0:0:
372,196,2852,2,0,L|406:281,1,90
198,347,3239,2,0,L|164:262,1,90,8|0,0:0|0:0,0:0:0:0:
100,164,3626,6,0,P|141:133|166:98,1,90
268,44,4013,2,0,L|332:108,1,90,8|0,0:0|0:0,0:0:0:0:
452,244,4400,1,0,0:0:0:0:
329,185,4594,1,0,0:0:0:0:
418,316,4788,1,8,0:0:0:0:
486,174,4981,1,0,0:0:0:0:
300,292,5175,6,0,L|201:348,1,90
72,272,5562,2,0,L|171:216,1,90,8|0,0:0|0:0,0:0:0:0:
256,180,5949,1,0,0:0:0:0:
284,52,6142,1,0,0:0:0:0:
340,216,6336,1,8,0:0:0:0:
368,88,6529,1,0,0:0:0:0:
464,180,6723,6,0,P|462:224|447:267,1,90
370,355,7110,2,0,P|318:339|273:340,1,90,8|0,0:0|0:0,0:0:0:0:
165,338,7497,1,0,0:0:0:0:
53,184,7691,1,0,0:0:0:0:
233,243,7884,1,8,0:0:0:0:
53,301,8078,1,0,0:0:0:0:
165,148,8271,6,0,L|244:88,1,90
443,85,8659,2,0,L|371:139,1,90,8|0,0:0|0:0,0:0:0:0:
233,243,9046,2,0,P|266:278|308:291,1,90
258,93,9433,2,0,P|224:55|181:42,1,90,8|0,0:0|0:0,0:0:0:0:
26,200,9820,5,0,0:0:0:0:
188,44,10013,1,8,0:0:0:0:
241,260,10207,1,8,0:0:0:0:
249,274,10304,1,8,0:0:0:0:
257,288,10400,1,8,0:0:0:0:
440,304,10594,2,0,P|456:256|488:212,1,90,8|0,0:0|0:0,0:0:0:0:
491,202,10884,1,8,0:0:0:0:
501,178,10981,2,0,P|480:128|453:98,1,90,8|0,0:0|0:0,0:0:0:0:
432,93,11271,1,8,0:0:0:0:
406,89,11368,6,0,L|314:76,1,90,2|2,0:0|0:0,0:0:0:0:
76,216,11755,2,0,L|168:229,1,90,2|2,0:0|0:0,0:0:0:0:
283,247,12142,1,2,0:0:0:0:
384,188,12336,1,2,0:0:0:0:
283,130,12529,1,2,0:0:0:0:
184,188,12723,1,2,0:0:0:0:
384,188,12917,6,0,P|416:224|436:275,1,90,4|0,0:0|0:0,0:0:0:0:
331,320,13304,2,0,P|299:284|279:233,1,90,8|0,0:0|0:0,0:0:0:0:
225,139,13691,2,0,L|267:44,2,90,0|0|8,0:0|0:0|0:0,0:0:0:0:
45,197,14271,1,0,0:0:0:0:
45,80,14465,5,0,0:0:0:0:
157,44,14659,1,0,0:0:0:0:
225,139,14852,2,0,P|263:184|298:198,1,90,8|0,0:0|0:0,0:0:0:0:
384,126,15239,2,0,P|404:165|406:210,2,90,0|0|8,0:0|0:0|0:0,0:0:0:0:
157,44,15820,1,0,0:0:0:0:
68,120,16013,6,0,L|36:216,1,90
76,328,16400,2,0,L|108:232,1,90,8|0,0:0|0:0,0:0:0:0:
141,119,16788,1,0,0:0:0:0:
190,237,16981,1,0,0:0:0:0:
141,119,17175,6,0,P|176:88|204:40,1,90,8|0,0:0|0:0,0:0:0:0:
376,128,17562,2,0,P|386:174|413:222,1,90
250,328,17949,2,0,P|205:313|150:313,1,90,8|0,0:0|0:0,0:0:0:0:
56,192,18336,1,0,0:0:0:0:
95,44,18529,1,0,0:0:0:0:
203,152,18723,1,8,0:0:0:0:
40,224,18917,1,0,0:0:0:0:
220,120,19110,6,0,L|300:60,1,90,4|0,0:0|0:0,0:0:0:0:
404,162,19497,2,0,L|332:216,1,90,8|0,0:0|0:0,0:0:0:0:
392,350,19884,2,0,L|464:296,2,90,0|0|8,0:0|0:0|0:0,0:0:0:0:
256,368,20465,1,0,0:0:0:0:
120,350,20659,6,0,L|48:296,1,90
89,61,21046,2,0,L|108:150,1,90,8|0,0:0|0:0,0:0:0:0:
256,252,21433,2,0,L|256:156,1,90
422,61,21820,2,0,L|404:150,1,90,8|0,0:0|0:0,0:0:0:0:
256,252,22207,5,0,0:0:0:0:
276,100,22400,1,0,0:0:0:0:
124,68,22594,2,0,P|69:88|40:116,1,90,8|0,0:0|0:0,0:0:0:0:
48,240,22981,2,0,B|72:291|72:291|133:280|203:319,1,180,0|8,0:0|0:0,0:0:0:0:
300,356,23562,1,0,0:0:0:0:
392,284,23755,6,0,L|359:193,1,90
268,220,24142,2,0,L|237:135,1,90,8|0,0:0|0:0,0:0:0:0:
144,156,24529,2,0,L|111:65,2,90,0|0|8,0:0|0:0|0:0,0:0:0:0:
216,344,25110,1,0,0:0:0:0:
343,293,25304,6,0,P|372:258|388:217,1,90,4|0,0:0|0:0,0:0:0:0:
124,216,25691,2,0,P|139:259|168:293,1,90,8|0,0:0|0:0,0:0:0:0:
300,66,26078,2,0,P|255:58|204:68,1,90
68,148,26465,1,8,0:0:0:0:
216,216,26659,1,0,0:0:0:0:
300,66,26852,6,0,L|406:50,1,90
472,280,27239,2,0,L|383:293,1,90,8|0,0:0|0:0,0:0:0:0:
200,324,27626,1,0,0:0:0:0:
126,154,27820,1,0,0:0:0:0:
274,266,28013,1,8,0:0:0:0:
91,235,28207,1,0,0:0:0:0:
310,180,28400,6,0,P|364:192|412:188,1,90
512,56,28788,2,0,P|458:44|410:48,1,90,8|0,0:0|0:0,0:0:0:0:
256,92,29175,1,0,0:0:0:0:
256,108,29562,5,8,0:0:0:0:
176,192,29755,1,0,0:0:0:0:
256,276,29949,1,0,0:0:0:0:
336,192,30142,1,0,0:0:0:0:
176,192,30336,2,0,B|83:197|119:85|19:93,2,180,8|0|8,0:0|0:0|0:0,0:0:0:0:
336,192,31304,1,0,0:0:0:0:
436,336,31497,5,4,0:0:0:0:
420,172,31691,1,0,0:0:0:0:
352,360,31884,2,0,B|284:361|252:312|252:312|189:323,1,180,8|0,0:0|0:0,0:0:0:0:
77,248,32465,1,0,0:0:0:0:
212,228,32659,2,0,L|308:208,1,90,8|0,0:0|0:0,0:0:0:0:
348,56,33046,6,0,P|297:74|272:103,1,90
327,339,33433,2,0,P|337:286|324:250,1,90,8|0,0:0|0:0,0:0:0:0:
92,180,33820,2,0,P|133:214|170:221,1,90
325,253,34207,1,8,0:0:0:0:
274,100,34400,1,0,0:0:0:0:
167,221,34594,6,0,L|108:304,1,90
256,384,34981,2,0,L|277:284,1,90,8|0,0:0|0:0,0:0:0:0:
360,104,35368,2,0,L|379:203,1,90
167,221,35755,2,0,L|119:133,1,90,8|0,0:0|0:0,0:0:0:0:
376,15,36142,6,0,L|359:103,1,90,8|0,0:0|0:0,0:0:0:0:
276,264,36529,1,8,0:0:0:0:
272,277,36626,1,8,0:0:0:0:
269,291,36723,1,8,0:0:0:0:
76,328,36917,1,8,0:0:0:0:
130,149,37110,1,0,0:0:0:0:
148,106,37207,1,8,0:0:0:0:
179,72,37304,1,8,0:0:0:0:
217,48,37400,1,0,0:0:0:0:
260,33,37497,1,8,0:0:0:0:
306,34,37594,1,8,0:0:0:0:
350,46,37691,6,0,P|404:68|444:104,1,112.5,4|0,0:0|0:0,0:0:0:0:
376,288,38078,2,0,P|346:338|305:373,2,112.5,8|0|0,0:0|0:0|0:0,0:0:0:0:
443,103,38659,1,0,0:0:0:0:
208,183,38852,1,8,0:0:0:0:
349,21,39046,1,0,0:0:0:0:
419,224,39239,5,0,0:0:0:0:
232,62,39433,1,0,0:0:0:0:
302,264,39626,2,0,B|326:304|326:304|362:312|392:345,2,112.5,8|0|0,0:0|0:0|0:0,0:0:0:0:
232,62,40207,1,0,0:0:0:0:
45,22,40400,1,8,0:0:0:0:
5,209,40594,1,0,0:0:0:0:
192,248,40788,6,0,B|276:273|276:273|294:354|374:355,1,225,0|8,0:0|0:0,0:0:0:0:
496,208,41368,1,0,0:0:0:0:
460,16,41562,2,0,P|399:33|364:69,1,112.5
284,188,41949,1,8,0:0:0:0:
321,328,42142,1,0,0:0:0:0:
147,141,42336,5,0,0:0:0:0:
184,282,42529,1,0,0:0:0:0:
321,328,42723,2,0,P|388:316|440:276,1,112.5,8|0,0:0|0:0,0:0:0:0:
448,128,43110,2,0,P|381:140|329:180,1,112.5
424,292,43497,1,8,0:0:0:0:
448,128,43691,1,0,0:0:0:0:
296,60,43884,6,0,P|232:56|173:70,1,112.5,4|0,0:0|0:0,0:0:0:0:
236,321,44271,2,0,P|300:325|359:311,1,112.5,8|0,0:0|0:0,0:0:0:0:
341,137,44659,1,0,0:0:0:0:
64,59,44852,1,0,0:0:0:0:
169,201,45046,1,8,0:0:0:0:
230,1,45239,1,0,0:0:0:0:
58,208,45433,6,0,L|76:328,1,112.5
216,280,45820,2,0,L|296:368,1,112.5,8|0,0:0|0:0,0:0:0:0:
386,249,46207,2,0,L|501:277,2,112.5,0|0|8,0:0|0:0|0:0,0:0:0:0:
208,212,46788,1,0,0:0:0:0:
316,64,46981,6,0,B|363:25|408:50|408:50|413:26|413:26|468:60|521:40,2,225,0|8|0,0:0|0:0|0:0,0:0:0:0:
136,144,47949,1,0,0:0:0:0:
88,332,48142,2,0,P|156:324|220:348,1,112.5,8|0,0:0|0:0,0:0:0:0:
396,368,48529,5,0,0:0:0:0:
424,172,48723,2,0,P|432:112|452:64,1,112.5,8|8,0:0|0:0,0:0:0:0:
463,48,49013,1,8,0:0:0:0:
475,32,49110,1,8,0:0:0:0:
268,112,49304,1,8,0:0:0:0:
240,133,49400,1,8,0:0:0:0:
214,148,49497,1,8,0:0:0:0:
181,156,49594,1,8,0:0:0:0:
148,157,49691,1,8,0:0:0:0:
2,73,49884,1,0,0:0:0:0:
48,224,50078,6,0,L|80:320,1,90,6|0,0:0|0:0,0:0:0:0:
188,344,50465,2,0,L|156:248,1,90
228,112,50852,2,0,L|260:208,1,90,2|0,0:0|0:0,0:0:0:0:
424,320,51239,2,0,L|392:224,1,90
344,128,51626,5,2,0:0:0:0:
257,41,51820,1,0,0:0:0:0:
293,187,52013,1,0,0:0:0:0:
180,34,52207,1,0,0:0:0:0:
239,243,52400,2,0,P|225:289|192:337,1,90,2|0,0:0|0:0,0:0:0:0:
20,332,52788,2,0,P|34:286|67:238,1,90
152,72,53175,5,2,0:0:0:0:
168,209,53368,1,0,0:0:0:0:
40,155,53562,1,0,0:0:0:0:
198,140,53755,1,0,0:0:0:0:
87,222,53948,1,2,0:0:0:0:
70,84,54142,1,0,0:0:0:0:
198,140,54336,1,0,0:0:0:0:
283,25,54529,1,0,0:0:0:0:
388,80,54723,6,0,P|420:109|441:166,1,90,2|0,0:0|0:0,0:0:0:0:
400,304,55110,2,0,P|368:275|347:218,1,90
328,116,55497,1,2,0:0:0:0:
432,224,55691,1,0,0:0:0:0:
286,189,55884,1,0,0:0:0:0:
264,304,56078,1,0,0:0:0:0:
152,276,56271,6,0,P|109:245|75:208,1,90,2|0,0:0|0:0,0:0:0:0:
42,109,56659,1,0,0:0:0:0:
53,102,57046,2,0,L|147:60,1,90,2|0,0:0|0:0,0:0:0:0:
316,104,57433,2,0,L|222:146,1,90
112,240,57820,6,0,L|140:332,1,90,2|0,0:0|0:0,0:0:0:0:
256,356,58207,1,0,0:0:0:0:
268,359,58594,2,0,P|312:332|363:317,1,90,2|0,0:0|0:0,0:0:0:0:
400,200,58981,2,0,P|433:169|458:132,1,90
284,88,59368,6,0,P|251:119|226:156,1,90,2|0,0:0|0:0,0:0:0:0:
168,276,59755,1,0,0:0:0:0:
159,266,60142,2,0,L|101:197,1,90,2|0,0:0|0:0,0:0:0:0:
204,140,60529,2,0,L|196:50,1,90
313,62,60917,6,0,B|332:112|373:127|373:127|375:147|375:147|410:157|424:191,1,180,2|0,0:0|0:0,0:0:0:0:
428,328,61497,1,0,0:0:0:0:
292,296,61691,2,0,B|247:280|205:303|205:303|159:295|134:234,1,180,2|0,0:0|0:0,0:0:0:0:
88,117,62271,1,0,0:0:0:0:
213,55,62465,6,0,L|304:48,1,90,6|0,0:0|0:0,0:0:0:0:
448,156,62852,2,0,L|357:163,1,90,2|0,0:0|0:0,0:0:0:0:
207,238,63239,2,0,L|298:231,1,90,2|0,0:0|0:0,0:0:0:0:
140,108,63626,2,0,L|50:114,1,90,2|0,0:0|0:0,0:0:0:0:
172,329,64013,6,0,P|217:331|263:317,1,90,2|0,0:0|0:0,0:0:0:0:
292,176,64400,2,0,P|246:173|200:187,1,90,2|0,0:0|0:0,0:0:0:0:
376,248,64788,2,0,P|417:231|454:200,1,90,2|0,0:0|0:0,0:0:0:0:
348,24,65175,2,0,P|304:39|268:71,1,90,2|0,0:0|0:0,0:0:0:0:
160,146,65562,5,14,0:0:0:0:
160,318,65755,1,0,0:0:0:0:
308,232,65949,1,10,0:0:0:0:
142,160,66142,1,0,0:0:0:0:
183,326,66336,1,10,0:0:0:0:
305,207,66529,1,0,0:0:0:0:
260,40,66723,2,0,P|208:30|164:40,1,90,10|0,0:0|0:0,0:0:0:0:
88,120,67110,6,0,B|104:168|76:204|76:204|96:216|96:216|94:253|127:281,1,180,14|10,0:0|0:0,0:0:0:0:
256,356,67691,1,0,0:0:0:0:
390,276,67884,2,0,B|418:253|416:216|416:216|436:204|436:204|408:168|424:120,1,180,14|10,0:0|0:0,0:0:0:0:
256,28,68465,1,0,0:0:0:0:
96,138,68659,5,14,0:0:0:0:
287,219,68852,1,0,0:0:0:0:
127,329,69046,1,10,0:0:0:0:
217,121,69239,1,0,0:0:0:0:
248,312,69433,1,10,0:0:0:0:
57,231,69626,1,0,0:0:0:0:
217,121,69820,1,10,0:0:0:0:
401,180,70014,1,0,0:0:0:0:
248,312,70207,5,10,0:0:0:0:
217,121,70400,1,0,0:0:0:0:
22,160,70594,1,10,0:0:0:0:
163,12,70788,1,0,0:0:0:0:
134,213,70981,1,10,0:0:0:0:
42,36,71175,1,0,0:0:0:0:
212,200,71368,1,10,0:0:0:0:
353,14,71562,1,0,0:0:0:0:
354,248,71755,6,0,L|350:351,1,90,10|0,0:0|0:0,0:0:0:0:
112,284,72142,2,0,L|68:190,1,90,10|0,0:0|0:0,0:0:0:0:
354,248,72529,2,0,L|412:328,1,90,10|0,0:0|0:0,0:0:0:0:
484,64,72917,2,0,L|386:30,1,90,10|0,0:0|0:0,0:0:0:0:
276,40,73304,6,0,L|228:48,3,45,8|0|8|0,0:0|0:0|0:0|0:0,0:0:0:0:
192,72,73691,2,0,L|144:80,3,45,8|8|8|0,0:0|0:0|0:0|0:0,0:0:0:0:
108,104,74078,1,8,1:0:0:0:
76,136,74175,1,0,1:0:0:0:
44,168,74271,1,8,1:0:0:0:
12,200,74368,1,8,1:0:0:0:
52,220,74465,1,8,1:0:0:0:
84,248,74562,1,8,1:0:0:0:
100,292,74659,1,8,1:0:0:0:
96,336,74755,1,0,1:0:0:0:
84,380,74852,6,0,P|133:363|187:365,1,90,12|0,0:0|0:0,0:0:0:0:
344,364,75239,2,0,P|388:360|444:332,1,90,8|0,0:0|0:0,0:0:0:0:
472,192,75626,2,0,P|427:185|388:163,1,90
320,68,76013,1,8,0:0:0:0:
208,104,76207,1,0,0:0:0:0:
272,200,76400,6,0,B|313:251|381:265|381:265|361:320,1,180,0|8,0:0|0:0,0:0:0:0:
256,356,76981,1,0,0:0:0:0:
140,328,77175,1,0,0:0:0:0:
56,212,77368,1,0,0:0:0:0:
156,316,77562,1,8,0:0:0:0:
122,170,77755,1,0,0:0:0:0:
174,305,77949,6,0,L|264:328,1,90
396,248,78336,2,0,L|486:271,2,90,8|0|0,0:0|0:0|0:0,0:0:0:0:
348,141,78917,1,0,0:0:0:0:
309,326,79110,1,8,0:0:0:0:
232,153,79304,1,0,0:0:0:0:
207,267,79497,6,0,P|173:307|125:328,1,90
100,212,79884,2,0,P|47:216|-1:197,1,90,8|0,0:0|0:0,0:0:0:0:
63,97,80271,2,0,P|23:62|2:15,2,90,0|0|8,0:0|0:0|0:0,0:0:0:0:
180,112,80852,1,0,0:0:0:0:
220,280,81046,6,0,P|216:333|234:381,1,90,4|0,0:0|0:0,0:0:0:0:
392,296,81433,2,0,P|395:242|377:194,1,90,8|0,0:0|0:0,0:0:0:0:
276,40,81820,2,0,P|261:91|268:141,1,90
284,280,82207,1,8,0:0:0:0:
461,205,82400,1,0,0:0:0:0:
341,331,82594,5,0,0:0:0:0:
405,155,82788,1,0,0:0:0:0:
284,280,82981,2,0,P|230:267|177:269,1,90,8|0,0:0|0:0,0:0:0:0:
116,180,83368,2,0,P|68:151|32:112,1,90
144,28,83755,2,0,L|244:20,1,90,8|0,0:0|0:0,0:0:0:0:
376,40,84142,6,0,P|378:91|394:138,1,90,4|0,0:0|0:0,0:0:0:0:
464,240,84529,2,0,L|413:334,1,90,8|0,0:0|0:0,0:0:0:0:
280,368,84917,2,0,P|255:319|219:278,1,90
0,124,85304,2,0,P|24:172|60:213,1,90,8|0,0:0|0:0,0:0:0:0:
148,272,85691,5,6,0:0:0:0:
200,152,85884,1,0,0:0:0:0:
364,272,86078,1,10,0:0:0:0:
312,152,86271,1,0,0:0:0:0:
148,272,86465,2,0,P|109:234|94:192,1,90,6|0,0:0|0:0,0:0:0:0:
344,72,86852,2,0,P|383:110|398:152,1,90,10|0,0:0|0:0,0:0:0:0:
256,192,87239,12,0,89175,0:0:0:0:
