osu file format v14

[General]
AudioFilename: Asian Kung-Fu Generation - ReRe.mp3
AudioLeadIn: 0
PreviewTime: 37008
Countdown: 0
SampleSet: Soft
StackLeniency: 0.6
Mode: 0
LetterboxInBreaks: 0
WidescreenStoryboard: 0

[Editor]
DistanceSpacing: 1.3
BeatDivisor: 4
GridSize: 4
TimelineZoom: 1.2

[Metadata]
Title:Re:Re:
TitleUnicode:Re:Re:
Artist:ASIAN KUNG-FU GENERATION
ArtistUnicode:ASIAN KUNG-FU GENERATION
Creator:Haya
Version:Hard
Source:僕だけがいない街
Tags:Boku dake ga inai machi AKFG ReRe Erased Opening TV Size [Epicz]
BeatmapID:921856
BeatmapSetID:426992

[Difficulty]
HPDrainRate:6
CircleSize:4
OverallDifficulty:6
ApproachRate:7
SliderMultiplier:1.7
SliderTickRate:1

[Events]
//Background and Video events
Video,-275,"BokuDakeOP.avi"
0,0,"BokuDakeGaInaiMachi - Hinazuki Kayo BG.png",0,0
//Break Periods
//Storyboard Layer 0 (Background)
//Storyboard Layer 1 (Fail)
//Storyboard Layer 2 (Pass)
//Storyboard Layer 3 (Foreground)
//Storyboard Sound Samples

[TimingPoints]
530,387.096774193548,4,2,4,50,1,0
11368,-100,4,2,4,50,0,0
12917,-100,4,2,4,50,0,0
36142,-100,4,1,1,50,0,0
37691,-100,4,1,1,60,0,1
43788,-100,4,1,1,60,0,0
43884,-100,4,1,1,60,0,1
50078,-100,4,2,1,30,0,0
62465,-100,4,2,1,50,0,0
73304,-100,4,1,1,50,0,0
87239,-100,4,2,1,30,0,0
87626,-100,4,2,1,25,0,0
88013,-100,4,2,1,20,0,0
88400,-100,4,2,1,15,0,0
88788,-100,4,2,1,10,0,0
89078,-100,4,2,2,5,0,0

[Colours]
Combo1 : 205,156,90
Combo2 : 208,144,109
Combo3 : 150,100,54

[HitObjects]
80,292,530,6,0,P|116:312|180:316,1,85,4|0,0:0|0:0,0:0:0:0:
250,256,917,2,0,P|292:261|330:282,1,85,8|0,0:0|0:0,0:0:0:0:
424,344,1304,2,0,P|441:265|388:187,1,170,0|8,0:0|0:0,0:0:0:0:
328,108,1884,1,0,0:0:0:0:
228,64,2078,6,0,L|144:32,1,85
120,140,2465,2,0,L|37:176,1,85,8|0,0:0|0:0,0:0:0:0:
97,270,2852,2,0,L|65:354,1,85
208,360,3239,2,0,L|240:276,1,85,8|0,0:0|0:0,0:0:0:0:
280,180,3626,6,0,B|324:131|335:78|335:78|382:120,1,170,0|8,0:0|0:0,0:0:0:0:
448,204,4207,1,0,0:0:0:0:
396,311,4400,2,0,P|352:332|300:336,1,85
204,308,4788,2,0,P|164:276|120:260,1,85,8|0,0:0|0:0,0:0:0:0:
88,160,5175,6,0,P|130:134|159:99,1,85
202,13,5562,1,8,0:0:0:0:
312,23,5755,1,0,0:0:0:0:
337,130,5949,1,0,0:0:0:0:
243,188,6142,1,0,0:0:0:0:
180,280,6336,2,0,L|118:360,1,85,8|0,0:0|0:0,0:0:0:0:
36,256,6723,6,0,P|64:160|52:68,1,170,0|8,0:0|0:0,0:0:0:0:
148,24,7304,1,0,0:0:0:0:
244,80,7497,2,0,L|328:132,1,85
424,104,7884,2,0,L|448:196,1,85,8|0,0:0|0:0,0:0:0:0:
472,296,8271,5,0,0:0:0:0:
368,332,8465,1,0,0:0:0:0:
256,320,8659,2,0,P|215:273|198:233,1,85,8|0,0:0|0:0,0:0:0:0:
145,128,9046,2,0,P|206:116|248:121,1,85
366,127,9433,2,0,P|346:186|320:220,1,85,8|0,0:0|0:0,0:0:0:0:
256,284,9820,5,0,0:0:0:0:
152,316,10013,1,8,0:0:0:0:
176,208,10207,2,0,L|144:152,2,42.5,8|8|8,0:0|0:0|0:0,0:0:0:0:
256,284,10594,1,8,0:0:0:0:
336,208,10788,2,0,L|368:152,2,42.5,0|8|8,0:0|0:0|0:0,0:0:0:0:
360,316,11175,1,0,0:0:0:0:
372,312,11271,1,8,0:0:0:0:
384,308,11368,6,0,P|425:278|444:236,1,85,6|0,0:0|0:0,0:0:0:0:
392,149,11755,2,0,P|356:172|335:208,1,85,2|0,0:0|0:0,0:0:0:0:
256,284,12142,2,0,P|231:249|225:207,1,85,2|0,0:0|0:0,0:0:0:0:
186,106,12529,2,0,L|142:186,1,85,2|0,0:0|0:0,0:0:0:0:
96,281,12917,5,4,0:0:0:0:
175,357,13110,1,0,0:0:0:0:
256,284,13304,2,0,P|327:226|415:222,2,170,8|0|8,0:0|0:0|0:0,0:0:0:0:
175,357,14271,1,0,0:0:0:0:
140,252,14465,6,0,P|124:204|92:160,1,85
152,36,14852,2,0,P|168:84|200:128,1,85,8|0,0:0|0:0,0:0:0:0:
276,176,15239,2,0,B|309:204|343:202|343:202|363:243|363:243|393:250|416:280,1,170,0|8,0:0|0:0,0:0:0:0:
328,352,15820,1,0,0:0:0:0:
220,344,16013,6,0,P|167:337|132:316,1,85
204,232,16400,2,0,P|171:189|161:149,1,85,8|0,0:0|0:0,0:0:0:0:
271,141,16788,2,0,P|278:88|299:52,1,85
428,40,17175,2,0,P|420:93|400:128,1,85,8|0,0:0|0:0,0:0:0:0:
340,208,17562,5,0,0:0:0:0:
256,280,17755,1,0,0:0:0:0:
172,208,17949,2,0,B|124:164|80:152|80:152|104:88,1,170,8|0,0:0|0:0,0:0:0:0:
208,60,18529,1,0,0:0:0:0:
269,149,18723,1,8,0:0:0:0:
317,50,18917,1,0,0:0:0:0:
380,136,19110,6,0,P|424:160|465:165,1,85
484,272,19497,2,0,P|398:282|318:330,1,170,8|0,0:0|0:0,0:0:0:0:
228,376,20078,1,0,0:0:0:0:
148,300,20271,2,0,L|104:220,1,85,8|0,0:0|0:0,0:0:0:0:
32,140,20659,6,0,L|76:60,1,85
180,36,21046,2,0,B|251:32|296:60|296:60|321:48|361:61,1,170,8|0,0:0|0:0,0:0:0:0:
420,136,21626,1,0,0:0:0:0:
442,243,21820,1,8,0:0:0:0:
334,266,22013,1,0,0:0:0:0:
311,158,22207,6,0,P|292:100|288:56,1,85
199,161,22594,2,0,P|158:206|122:232,1,85,8|0,0:0|0:0,0:0:0:0:
257,256,22981,2,0,P|317:269|357:287,2,85,0|0|8,0:0|0:0|0:0,0:0:0:0:
139,221,23562,1,0,0:0:0:0:
112,116,23755,6,0,L|96:20,1,85
256,80,24142,2,0,L|242:163,1,85,8|0,0:0|0:0,0:0:0:0:
388,242,24529,2,0,L|372:146,1,85
232,244,24917,2,0,L|245:327,1,85,8|0,0:0|0:0,0:0:0:0:
388,242,25304,5,0,0:0:0:0:
465,161,25497,1,0,0:0:0:0:
356,135,25691,2,0,B|315:125|287:140|287:140|247:95|181:101,1,170,8|0,0:0|0:0,0:0:0:0:
92,66,26271,1,0,0:0:0:0:
29,156,26465,1,8,0:0:0:0:
95,244,26658,1,0,0:0:0:0:
200,208,26852,6,0,L|280:164,1,85
374,120,27239,2,0,P|350:204|362:288,1,170,8|0,0:0|0:0,0:0:0:0:
420,380,27820,1,0,0:0:0:0:
472,284,28013,2,0,P|485:230|473:185,1,85,8|0,0:0|0:0,0:0:0:0:
448,96,28400,6,0,L|496:24,2,85,0|0|8,0:0|0:0|0:0,0:0:0:0:
348,148,28981,1,0,0:0:0:0:
284,56,29175,2,0,P|193:50|132:108,1,170,0|8,0:0|0:0,0:0:0:0:
80,192,29755,1,0,0:0:0:0:
136,285,29949,6,0,P|190:307|229:332,1,85
320,284,30336,2,0,P|357:304|396:319,1,85,8|0,0:0|0:0,0:0:0:0:
384,156,30723,2,0,P|346:135|307:120,1,85
164,208,31110,2,0,P|143:244|100:276,1,85,8|0,0:0|0:0,0:0:0:0:
48,164,31497,6,0,L|36:64,1,85
140,32,31884,2,0,B|197:97|258:57|258:57|314:70,1,170,8|0,0:0|0:0,0:0:0:0:
404,92,32465,1,0,0:0:0:0:
320,168,32659,1,8,0:0:0:0:
424,200,32852,1,0,0:0:0:0:
344,276,33046,6,0,P|337:322|322:360,1,85
188,357,33433,2,0,P|173:318|168:276,1,85,8|0,0:0|0:0,0:0:0:0:
156,164,33820,1,0,0:0:0:0:
208,68,34013,1,0,0:0:0:0:
236,176,34207,1,8,0:0:0:0:
284,76,34400,1,0,0:0:0:0:
316,184,34594,6,0,P|255:253|183:235,1,170,0|8,0:0|0:0,0:0:0:0:
132,144,35175,1,0,0:0:0:0:
236,176,35368,2,0,P|224:267|154:292,1,170,0|8,0:0|0:0,0:0:0:0:
56,236,35949,1,0,0:0:0:0:
132,144,36142,6,0,L|192:64,1,85,0|8,0:0|0:0,0:0:0:0:
288,36,36529,1,8,0:0:0:0:
299,33,36626,1,8,0:0:0:0:
311,31,36723,1,8,0:0:0:0:
420,52,36917,2,0,P|416:96|436:156,1,85,0|8,0:0|0:0,0:0:0:0:
420,152,37207,1,8,0:0:0:0:
416,169,37304,1,8,0:0:0:0:
298,240,37497,1,0,0:0:0:0:
160,216,37691,6,0,B|130:146|88:120|88:120|112:62,2,170,4|8|0,0:0|0:0|0:0,0:0:0:0:
144,328,38659,1,0,0:0:0:0:
256,316,38852,1,8,0:0:0:0:
268,204,39046,1,0,0:0:0:0:
160,216,39239,6,0,P|118:216|69:192,1,85
48,92,39626,2,0,P|90:92|139:116,1,85,8|0,0:0|0:0,0:0:0:0:
160,216,40013,1,0,0:0:0:0:
84,296,40207,1,0,0:0:0:0:
180,352,40400,2,0,P|218:345|272:348,1,85,8|0,0:0|0:0,0:0:0:0:
316,248,40788,6,0,P|244:198|207:113,1,170,0|8,0:0|0:0,0:0:0:0:
256,32,41368,1,0,0:0:0:0:
302,125,41562,2,0,P|265:200|196:248,1,170,0|8,0:0|0:0,0:0:0:0:
100,192,42142,1,0,0:0:0:0:
196,136,42336,6,0,L|244:60,1,85
352,72,42723,2,0,L|425:20,1,85,8|0,0:0|0:0,0:0:0:0:
452,128,43110,2,0,L|378:179,1,85
292,244,43497,1,8,0:0:0:0:
388,296,43691,1,0,0:0:0:0:
292,348,43884,6,0,B|225:340|202:293|202:293|144:256,1,170,4|8,0:0|0:0,0:0:0:0:
68,192,44465,1,0,0:0:0:0:
151,123,44659,2,0,B|202:91|202:91|225:44|292:36,1,170,0|8,0:0|0:0,0:0:0:0:
448,88,45239,1,0,0:0:0:0:
376,212,45433,6,0,P|320:228|280:224,1,85
189,195,45820,2,0,P|172:145|136:114,1,85,8|0,0:0|0:0,0:0:0:0:
48,80,46207,1,0,0:0:0:0:
60,188,46400,1,0,0:0:0:0:
150,122,46594,2,0,P|202:94|234:86,1,85,8|0,0:0|0:0,0:0:0:0:
336,104,46981,6,0,B|380:148|420:144|420:144|432:180|432:180|464:204,2,170,4|8|0,0:0|0:0|0:0,0:0:0:0:
228,60,47949,1,0,0:0:0:0:
112,68,48142,2,0,P|92:108|48:144,1,85,8|0,0:0|0:0,0:0:0:0:
63,248,48529,2,0,P|93:277|112:316,1,85,0|8,0:0|0:0,0:0:0:0:
216,352,48917,2,0,L|256:380,2,42.5,8|8|8,0:0|0:0|0:0,0:0:0:0:
176,248,49304,1,0,0:0:0:0:
256,172,49497,2,0,L|304:163,2,42.5,0|0|8,0:0|0:0|0:0,0:0:0:0:
176,248,49884,1,0,0:0:0:0:
284,276,50078,6,0,L|372:304,1,85,6|0,0:0|0:0,0:0:0:0:
452,232,50465,2,0,L|364:204,1,85
300,120,50852,2,0,L|212:148,1,85,2|0,0:0|0:0,0:0:0:0:
148,232,51239,2,0,L|60:204,1,85
44,100,51626,6,0,P|88:96|132:76,1,85,2|0,0:0|0:0,0:0:0:0:
219,145,52013,2,0,P|263:149|307:169,1,85
344,288,52400,2,0,P|300:284|256:264,1,85,2|0,0:0|0:0,0:0:0:0:
376,136,52788,2,0,P|420:140|464:160,1,85
468,264,53175,5,2,0:0:0:0:
388,336,53368,1,0,0:0:0:0:
294,271,53562,2,0,P|252:249|210:243,1,85
108,264,53949,2,0,P|35:209|64:143,1,170,2|0,0:0|0:0,0:0:0:0:
148,68,54529,1,0,0:0:0:0:
268,56,54723,6,0,L|296:136,1,85,2|0,0:0|0:0,0:0:0:0:
404,152,55110,2,0,L|432:232,1,85
348,304,55497,2,0,L|376:384,2,85,2|0|0,0:0|0:0|0:0,0:0:0:0:
268,228,56078,1,0,0:0:0:0:
160,244,56271,6,0,P|114:227|79:203,1,85,2|0,0:0|0:0,0:0:0:0:
96,96,56659,2,0,B|124:56|124:56|188:64|248:40,2,170,0|2|0,0:0|0:0|0:0,0:0:0:0:
36,192,57626,1,0,0:0:0:0:
96,288,57820,6,0,P|130:316|175:341,1,85,2|0,0:0|0:0,0:0:0:0:
276,352,58207,2,0,B|324:372|361:361|361:361|399:344|443:353,2,170,0|2|0,0:0|0:0|0:0,0:0:0:0:
232,248,59175,1,0,0:0:0:0:
201,142,59368,6,0,P|162:159|135:192,1,85,2|0,0:0|0:0,0:0:0:0:
132,304,59755,2,0,P|52:270|23:193,2,170,0|2|0,0:0|0:0|0:0,0:0:0:0:
244,308,60723,1,0,0:0:0:0:
264,200,60917,6,0,P|296:108|364:72,1,170,2|0,0:0|0:0,0:0:0:0:
464,96,61497,1,0,0:0:0:0:
368,152,61691,2,0,P|276:120|240:52,1,170,2|0,0:0|0:0,0:0:0:0:
140,12,62271,1,0,0:0:0:0:
84,108,62465,6,0,L|48:188,1,85,6|0,0:0|0:0,0:0:0:0:
160,188,62852,2,0,L|141:273,1,85,2|0,0:0|0:0,0:0:0:0:
250,250,63239,2,0,L|249:337,1,85,2|0,0:0|0:0,0:0:0:0:
350,291,63626,2,0,L|367:376,1,85,2|0,0:0|0:0,0:0:0:0:
451,272,64013,6,0,P|431:225|394:201,1,85,2|0,0:0|0:0,0:0:0:0:
298,191,64400,2,0,P|258:177|230:146,1,85,2|0,0:0|0:0,0:0:0:0:
242,35,64788,2,0,P|281:48|309:79,1,85,2|0,0:0|0:0,0:0:0:0:
298,191,65175,2,0,P|284:230|253:258,1,85,2|0,0:0|0:0,0:0:0:0:
108,160,65562,6,0,L|62:73,1,85,14|0,0:0|0:0,0:0:0:0:
224,108,65949,2,0,L|212:200,1,85,10|0,0:0|0:0,0:0:0:0:
288,276,66336,2,0,L|300:184,1,85,10|0,0:0|0:0,0:0:0:0:
404,224,66723,2,0,L|443:299,1,85,10|0,0:0|0:0,0:0:0:0:
356,368,67110,6,0,B|294:349|243:351|243:351|210:292,1,170,14|10,0:0|0:0,0:0:0:0:
180,192,67691,1,0,0:0:0:0:
216,81,67884,2,0,B|243:33|243:33|294:35|356:16,1,170,14|10,0:0|0:0,0:0:0:0:
443,84,68465,1,0,0:0:0:0:
412,192,68659,5,14,0:0:0:0:
412,192,68852,1,0,0:0:0:0:
316,248,69046,2,0,L|232:296,1,85,10|0,0:0|0:0,0:0:0:0:
136,264,69433,1,10,0:0:0:0:
136,264,69626,1,0,0:0:0:0:
104,156,69820,2,0,L|129:62,1,85,10|0,0:0|0:0,0:0:0:0:
236,64,70207,6,0,P|240:104|272:144,1,85,10|0,0:0|0:0,0:0:0:0:
376,238,70594,2,0,P|340:222|289:229,1,85,10|0,0:0|0:0,0:0:0:0:
155,273,70981,2,0,P|187:249|206:202,1,85,10|0,0:0|0:0,0:0:0:0:
160,72,71368,2,0,P|127:95|108:143,1,85,10|0,0:0|0:0,0:0:0:0:
205,208,71755,6,0,P|300:199|378:234,1,170,10|10,0:0|0:0,0:0:0:0:
384,336,72336,1,0,0:0:0:0:
288,284,72529,2,0,P|290:186|265:111,1,170,10|10,0:0|0:0,0:0:0:0:
192,36,73110,1,0,0:0:0:0:
116,116,73304,6,0,L|88:216,1,85,12|8,0:0|0:0,0:0:0:0:
112,308,73691,1,8,0:0:0:0:
117,317,73788,1,8,0:0:0:0:
122,326,73884,1,8,0:0:0:0:
228,356,74078,1,8,0:0:0:0:
332,320,74271,1,0,0:0:0:0:
336,310,74368,1,8,0:0:0:0:
340,300,74465,1,0,0:0:0:0:
344,291,74562,1,8,0:0:0:0:
348,281,74659,1,8,0:0:0:0:
368,172,74852,6,0,P|325:169|284:158,1,85,4|0,0:0|0:0,0:0:0:0:
196,92,75239,2,0,P|160:64|116:44,1,85,8|0,0:0|0:0,0:0:0:0:
20,84,75626,2,0,B|59:143|107:156|107:156|124:212,1,170,0|8,0:0|0:0,0:0:0:0:
152,316,76207,1,0,0:0:0:0:
262,315,76400,6,0,P|302:331|348:335,1,85
429,266,76788,2,0,P|419:223|397:183,1,85,8|0,0:0|0:0,0:0:0:0:
344,92,77175,2,0,P|297:134|302:242,1,170,0|8,0:0|0:0,0:0:0:0:
344,336,77755,1,0,0:0:0:0:
232,336,77949,6,0,L|148:328,1,85
32,232,78336,2,0,L|116:240,1,85,8|0,0:0|0:0,0:0:0:0:
248,172,78723,2,0,B|176:168|176:168|157:107|196:72,1,170,0|8,0:0|0:0,0:0:0:0:
288,24,79304,1,0,0:0:0:0:
372,96,79497,6,0,P|398:189|363:258,1,170,0|8,0:0|0:0,0:0:0:0:
266,294,80077,1,0,0:0:0:0:
313,192,80271,2,0,P|406:165|475:200,1,170,0|8,0:0|0:0,0:0:0:0:
500,300,80852,1,0,0:0:0:0:
396,332,81046,6,0,P|357:340|288:337,1,85,4|0,0:0|0:0,0:0:0:0:
200,340,81433,2,0,P|157:340|116:332,1,85,8|0,0:0|0:0,0:0:0:0:
21,270,81820,1,0,0:0:0:0:
27,160,82014,1,0,0:0:0:0:
126,109,82207,1,8,0:0:0:0:
218,169,82400,1,0,0:0:0:0:
212,280,82594,6,0,P|293:250|329:174,1,170,0|8,0:0|0:0,0:0:0:0:
376,76,83175,1,0,0:0:0:0:
276,28,83368,2,0,P|200:63|171:140,1,170,0|8,0:0|0:0,0:0:0:0:
136,244,83949,1,0,0:0:0:0:
184,344,84142,6,0,P|223:367|272:367,1,85,4|0,0:0|0:0,0:0:0:0:
364,328,84529,2,0,L|412:252,1,85,8|0,0:0|0:0,0:0:0:0:
345,164,84917,2,0,L|300:236,1,85
236,144,85304,2,0,L|284:68,1,85,10|2,0:0|0:0,0:0:0:0:
136,68,85691,6,0,P|108:106|100:148,1,85,14|0,0:0|0:0,0:0:0:0:
140,244,86078,1,10,0:0:0:0:
248,228,86271,1,0,0:0:0:0:
340,288,86465,2,0,L|420:336,1,85,14|0,0:0|0:0,0:0:0:0:
404,192,86852,2,0,L|324:144,1,85,10|0,0:0|0:0,0:0:0:0:
256,192,87239,12,0,89175,0:0:0:0:
