osu file format v14

[General]
AudioFilename: audio.mp3
AudioLeadIn: 0
PreviewTime: 67742
Countdown: 0
SampleSet: Soft
StackLeniency: 0.7
Mode: 0
LetterboxInBreaks: 0
WidescreenStoryboard: 1

[Editor]
Bookmarks: 4744,11521,32017,59786,67720,84932,88050
DistanceSpacing: 1.2
BeatDivisor: 3
GridSize: 32
TimelineZoom: 0.9

[Metadata]
Title:Maigoinu to Ame no Beat
TitleUnicode:迷子犬と雨のビート
Artist:ASIAN KUNG-FU GENERATION
ArtistUnicode:ASIAN KUNG-FU GENERATION
Creator:CrystilonZ
Version:Normal
Source:四畳半神話大系
Tags:The Tatami Galaxy Yojouhan Shinwa Taikei A Lost Dog and Beats of the Rain Biito
BeatmapID:1232797
BeatmapSetID:582569

[Difficulty]
HPDrainRate:4
CircleSize:4
OverallDifficulty:4
ApproachRate:4.5
SliderMultiplier:0.96
SliderTickRate:1

[Events]
//Background and Video events
0,0,"AKF.jpg",0,0
Video,-150,"op.avi"
//Break Periods
//Storyboard Layer 0 (Background)
//Storyboard Layer 1 (Fail)
//Storyboard Layer 2 (Pass)
//Storyboard Layer 3 (Foreground)
//Storyboard Sound Samples

[TimingPoints]
304,495.867768595041,4,2,1,40,1,0
16171,-100,4,2,1,32,0,0
32039,-100,4,2,1,40,0,0
67742,-86.9565217391304,4,2,1,50,0,1
83609,-100,4,2,1,50,0,0

[Colours]
Combo1 : 194,171,135
Combo2 : 101,152,122
Combo3 : 120,157,175
Combo4 : 176,134,150

[HitObjects]
77,102,304,5,4,0:0:0:0:
108,177,634,1,0,1:0:0:0:
108,177,799,2,0,P|150:199|216:178,1,96,10|0,0:0|1:0,0:0:0:0:
231,123,1626,5,2,1:2:0:0:
231,123,1791,2,0,P|273:101|339:122,1,96,10|0,0:0|1:0,0:0:0:0:
362,178,2618,1,2,1:2:0:0:
362,178,2783,2,0,L|358:288,1,96,10|0,0:0|1:0,0:0:0:0:
280,283,3609,2,0,L|281:230,1,32,2|8,1:2|0:0,0:0:0:0:
206,230,4105,2,0,L|204:265,1,32,2|0,0:0|1:0,0:0:0:0:
161,369,4766,6,0,P|126:350|66:358,1,96,10|0,0:0|1:0,0:0:0:0:
9,257,5758,2,0,P|36:228|37:166,1,96,10|0,0:0|1:0,0:0:0:0:
1,64,6750,1,8,0:0:0:0:
101,120,7246,6,0,L|168:115,1,64,2|2,1:2|1:2,0:0:0:0:
196,93,7742,2,0,L|263:98,1,64,10|2,0:0|0:0,0:0:0:0:
290,120,8237,5,4,0:0:0:0:
355,79,8568,1,0,1:0:0:0:
355,79,8733,2,0,P|368:124|339:180,1,96,10|0,0:0|1:0,0:0:0:0:
279,197,9559,5,2,1:2:0:0:
279,197,9725,2,0,P|266:242|295:298,1,96,10|0,0:0|1:0,0:0:0:0:
357,321,10551,1,2,1:2:0:0:
357,321,10717,2,0,P|310:365|261:362,1,96,10|0,0:0|1:0,0:0:0:0:
215,324,11543,2,0,L|174:321,1,32,2|8,1:2|0:0,0:0:0:0:
124,370,12039,2,0,L|83:373,1,32,2|0,0:0|1:0,0:0:0:0:
38,270,12700,6,0,P|59:229|43:166,1,96,8|0,0:0|1:0,0:0:0:0:
9,116,13527,2,0,P|7:96|10:76,1,32,2|10,1:2|0:0,0:0:0:0:
59,26,14023,1,2,0:0:0:0:
59,26,14188,2,0,L|143:32,1,64,0|2,1:0|1:2,0:0:0:0:
152,54,14684,2,0,L|236:48,1,64,10|2,0:0|0:0,0:0:0:0:
247,28,15180,2,0,L|371:36,1,96,0|8,1:0|0:0,0:0:0:0:
390,138,16171,6,0,L|294:131,2,96,4|8|0,0:0|0:0|1:0,0:0:0:0:
474,216,17659,1,8,0:0:0:0:
415,315,18155,2,0,B|363:339|321:316|321:316|276:293|230:317,1,192,0|0,1:0|1:0,0:0:0:0:
135,381,19642,1,8,0:0:0:0:
55,297,20138,6,0,B|36:188|36:188|48:123,1,160,0|0,1:0|1:0,0:0:0:0:
57,103,21130,1,0,1:0:0:0:
157,46,21626,1,8,0:0:0:0:
240,125,22122,2,0,B|252:183|252:183|244:230,1,96,0|8,1:0|0:0,0:0:0:0:
165,302,23113,1,0,1:0:0:0:
170,187,23609,1,4,0:3:0:0:
267,248,24105,6,0,L|373:243,2,96,4|8|0,1:3|0:0|1:0,0:0:0:0:
170,187,25593,2,0,L|64:182,2,96,8|0|8,0:0|1:0|0:0,0:0:0:0:
267,126,27080,1,0,1:0:0:0:
170,65,27576,1,8,0:0:0:0:
267,4,28072,6,0,B|326:9|326:9|361:31,1,96,0|8,1:0|0:0,0:0:0:0:
389,103,28899,1,0,1:0:0:0:
389,103,29064,2,0,L|387:209,1,96,0|8,1:0|0:0,0:0:0:0:
296,268,30056,6,0,B|237:263|237:263|202:241,1,96,0|8,1:0|0:0,0:0:0:0:
176,176,30883,1,0,1:0:0:0:
176,176,31048,2,0,L|178:70,1,96,0|8,1:0|0:0,0:0:0:0:
72,27,32039,6,0,L|70:122,1,96,4|8,0:0|0:0,0:0:0:0:
33,232,33031,2,0,P|86:216|142:239,1,96,0|8,0:0|0:0,0:0:0:0:
176,289,33857,1,0,0:0:0:0:
176,289,34023,2,0,P|229:305|285:282,1,96,0|8,1:0|0:0,0:0:0:0:
309,185,35014,1,0,0:0:0:0:
377,277,35510,2,0,L|373:372,2,96,8|0|10,0:0|1:0|0:0,0:0:0:0:
427,172,36998,6,0,P|430:124|417:89,1,64,2|2,0:0|1:2,0:0:0:0:
402,78,37494,2,0,L|316:72,1,64,8|2,0:0|0:0,0:0:0:0:
302,86,37989,2,0,L|206:91,1,96,0|8,1:0|0:0,0:0:0:0:
104,36,38981,1,0,0:0:0:0:
76,147,39477,1,8,0:0:0:0:
48,258,39973,6,0,P|92:247|136:267,1,96,4|8,1:2|0:0,0:0:0:0:
174,334,40799,2,0,L|174:376,1,32,0|0,0:0|0:0,0:0:0:0:
258,286,41461,1,10,0:0:0:0:
329,375,41956,6,0,P|373:386|417:366,2,96,2|8|0,1:2|0:0|0:0,0:0:0:0:
258,286,43444,2,0,B|254:246|254:246|259:207,1,64,10|2,0:0|0:0,0:0:0:0:
277,190,43940,2,0,P|289:149|270:95,1,96,0|8,1:0|0:0,0:0:0:0:
167,54,44932,1,0,0:0:0:0:
67,110,45427,6,0,B|63:150|63:150|68:189,1,64,8|2,0:0|0:0,0:0:0:0:
86,206,45923,2,0,P|98:247|79:301,1,96,0|8,1:0|0:0,0:0:0:0:
17,338,46750,1,8,0:2:0:0:
17,338,46915,2,0,P|51:369|123:359,1,96,2|8,0:0|0:0,0:0:0:0:
172,282,47907,6,0,P|206:251|278:261,1,96,4|8,1:2|0:0,0:0:0:0:
350,311,48899,2,0,B|368:263|368:263|362:196,1,96,0|8,0:0|0:0,0:0:0:0:
298,189,49725,1,0,0:0:0:0:
298,189,49890,2,0,B|280:141|280:141|286:74,1,96,0|8,1:0|0:0,0:0:0:0:
383,38,50882,1,0,0:0:0:0:
272,10,51378,2,0,L|176:16,2,96,8|0|10,0:0|1:0|0:0,0:0:0:0:
336,105,52865,6,0,P|343:143|333:180,1,64,2|2,0:0|1:2,0:0:0:0:
319,201,53361,2,0,P|312:239|322:276,1,64,8|2,0:0|0:0,0:0:0:0:
334,297,53857,2,0,B|284:294|284:294|226:308,1,96,0|8,1:0|0:0,0:0:0:0:
127,335,54849,1,0,0:0:0:0:
15,365,55345,1,8,0:0:0:0:
72,265,55841,6,0,P|92:218|85:173,1,96,0|8,1:0|0:0,0:0:0:0:
20,134,56667,2,0,P|18:112|22:90,1,32,0|0,0:0|0:0,0:0:0:0:
110,31,57328,1,8,0:0:0:0:
198,105,57824,6,0,B|257:111|257:111|298:102,1,96,0|8,1:0|0:0,0:0:0:0:
341,43,58651,1,8,0:0:0:0:
341,43,58816,2,0,P|392:37|438:71,1,96,2|8,0:0|0:0,0:0:0:0:
456,171,59808,5,4,1:2:0:0:
387,263,60303,2,0,L|320:266,1,64,10|0,0:0|0:0,0:0:0:0:
284,267,60799,1,0,1:0:0:0:
230,165,61295,2,0,L|293:162,1,64,10|0,0:0|0:0,0:0:0:0:
332,160,61791,1,0,1:0:0:0:
376,54,62287,2,0,L|312:56,1,64,10|0,0:0|0:0,0:0:0:0:
279,76,62783,6,0,L|215:74,1,64,2|0,1:2|1:0,0:0:0:0:
182,53,63279,2,0,L|118:55,1,64,10|0,0:0|0:0,0:0:0:0:
85,75,63775,5,4,1:2:0:0:
26,174,64270,2,0,P|20:214|25:254,1,64,8|0,0:0|0:0,0:0:0:0:
32,274,64766,1,0,1:0:0:0:
138,317,65262,2,0,P|127:278|127:237,1,64,8|0,0:0|0:0,0:0:0:0:
132,217,65758,1,0,1:0:0:0:
234,163,66254,2,0,P|227:202|231:242,1,64,8|0,0:0|0:0,0:0:0:0:
239,263,66750,1,0,1:0:0:0:
285,330,67080,5,8,0:0:0:0:
285,330,67246,2,0,L|368:333,1,64,8|0,1:2|1:0,0:0:0:0:
391,346,67742,6,0,P|378:308|390:241,1,110.400002105713,4|8,1:2|0:0,0:0:0:0:
445,123,68733,2,0,P|454:81|439:37,1,73.6000014038086,0|0,0:0|1:0,0:0:0:0:
419,16,69229,1,8,0:0:0:0:
369,89,69560,6,0,L|326:85,1,36.8000007019043,0|0,0:0|1:0,0:0:0:0:
262,31,70056,2,0,L|219:35,1,36.8000007019043,0|8,1:0|0:0,0:0:0:0:
161,95,70551,1,0,0:0:0:0:
161,95,70717,2,0,P|169:136|163:175,1,73.6000014038086,2|2,0:0|1:2,0:0:0:0:
95,280,71543,1,2,0:0:0:0:
95,280,71708,6,0,L|171:277,1,73.6000014038086,4|0,1:2|1:0,0:0:0:0:
206,300,72204,2,0,P|245:292|291:312,1,73.6000014038086,8|0,0:0|0:0,0:0:0:0:
316,281,72700,2,0,P|356:302|429:277,1,110.400002105713,0|8,0:0|0:0,0:0:0:0:
457,208,73527,6,0,L|459:166,1,36.8000007019043,0|0,0:0|1:0,0:0:0:0:
432,86,74023,1,0,1:0:0:0:
432,86,74188,2,0,P|397:74|346:83,1,73.6000014038086,8|0,0:0|0:0,0:0:0:0:
324,102,74684,2,0,P|289:115|210:80,1,110.400002105713,2|10,0:0|0:0,0:0:0:0:
157,32,75510,1,2,1:2:0:0:
157,32,75675,6,0,L|147:112,1,73.6000014038086,4|0,1:2|1:0,0:0:0:0:
116,135,76171,2,0,P|141:175|112:255,1,110.400002105713,10|0,0:0|0:0,0:0:0:0:
61,289,76998,2,0,L|19:289,1,36.8000007019043,0|8,1:0|0:0,0:0:0:0:
47,374,77494,6,0,L|159:373,1,110.400002105713,0|0,0:0|1:0,0:0:0:0:
192,345,78155,2,0,L|296:343,1,73.6000014038086,8|0,0:0|0:0,0:0:0:0:
309,350,78651,1,2,0:0:0:0:
357,275,78981,2,0,P|360:251|356:228,1,36.8000007019043,0|8,1:0|0:0,0:0:0:0:
310,164,79477,1,0,0:0:0:0:
310,164,79642,6,0,P|355:148|419:175,1,110.400002105713,4|8,1:2|0:0,0:0:0:0:
485,57,80634,2,0,P|434:77|382:61,1,110.400002105713,4|8,1:2|0:0,0:0:0:0:
262,4,81626,6,0,B|190:12|190:12|148:38,1,110.400002105713,4|8,1:2|0:0,0:0:0:0:
106,103,82452,1,8,0:0:0:0:
106,103,82618,2,0,P|97:144|106:180,1,73.6000014038086,2|2,1:2|1:2,0:0:0:0:
135,205,83113,2,0,P|144:246|135:282,1,73.6000014038086,8|0,0:0|0:0,0:0:0:0:
117,309,83609,5,4,1:2:0:0:
174,368,83940,1,0,1:0:0:0:
174,368,84105,2,0,B|236:371|236:371|292:352,1,96,10|0,0:0|1:0,0:0:0:0:
304,293,84932,5,0,1:0:0:0:
304,293,85097,2,0,B|336:282|336:282|398:285,1,96,10|0,0:0|1:0,0:0:0:0:
464,334,85923,1,0,1:0:0:0:
464,334,86089,2,0,P|479:289|468:242,1,96,10|0,0:0|1:0,0:0:0:0:
400,209,86915,2,0,L|353:208,1,32,2|8,1:2|0:0,0:0:0:0:
361,131,87411,2,0,L|392:131,1,32,2|0,0:0|1:0,0:0:0:0:
466,102,87907,5,0,1:0:0:0:
466,102,88072,1,10,0:0:0:0:
