osu file format v14

[General]
AudioFilename: audio.mp3
AudioLeadIn: 0
PreviewTime: 67742
Countdown: 0
SampleSet: Soft
StackLeniency: 0.7
Mode: 0
LetterboxInBreaks: 0
WidescreenStoryboard: 1

[Editor]
Bookmarks: 11521,32017,59808,67720,88050
DistanceSpacing: 1.1
BeatDivisor: 3
GridSize: 32
TimelineZoom: 1.2

[Metadata]
Title:Maigoinu to Ame no Beat
TitleUnicode:迷子犬と雨のビート
Artist:ASIAN KUNG-FU GENERATION
ArtistUnicode:ASIAN KUNG-FU GENERATION
Creator:CrystilonZ
Version:Hard
Source:四畳半神話大系
Tags:The Tatami Galaxy Yojouhan Shinwa Taikei A Lost Dog and Beats of the Rain Biito
BeatmapID:1240710
BeatmapSetID:582569

[Difficulty]
HPDrainRate:5
CircleSize:4.2
OverallDifficulty:6
ApproachRate:7
SliderMultiplier:1.14
SliderTickRate:1

[Events]
//Background and Video events
0,0,"AKF.jpg",0,0
Video,-150,"op.avi"
//Break Periods
//Storyboard Layer 0 (Background)
//Storyboard Layer 1 (Fail)
//Storyboard Layer 2 (Pass)
//Storyboard Layer 3 (Foreground)
//Storyboard Sound Samples

[TimingPoints]
304,495.867768595041,4,2,1,40,1,0
16171,-100,4,2,1,32,0,0
32039,-100,4,2,1,40,0,0
67742,-86.9565217391304,4,2,1,50,0,1
83609,-100,4,2,1,50,0,0

[Colours]
Combo1 : 194,171,135
Combo2 : 101,152,122
Combo3 : 120,157,175
Combo4 : 176,134,150

[HitObjects]
73,203,304,5,4,0:0:0:0:
104,125,634,1,0,1:0:0:0:
104,125,799,2,0,P|149:103|216:126,1,114,10|0,0:0|1:0,0:0:0:0:
241,196,1626,5,2,1:2:0:0:
241,196,1791,2,0,L|239:279,1,76,10|2,0:0|0:0,0:0:0:0:
236,313,2287,1,0,1:0:0:0:
317,291,2618,1,2,1:2:0:0:
317,291,2783,2,0,L|318:215,1,76,10|2,0:0|0:0,0:0:0:0:
322,174,3279,1,0,1:0:0:0:
401,149,3609,2,0,L|400:189,1,38,2|8,1:2|0:0,0:0:0:0:
480,163,4105,2,0,L|480:125,1,38,2|0,0:0|1:0,0:0:0:0:
418,68,4601,5,0,1:0:0:0:
418,68,4766,2,0,B|345:54|345:54|295:68,1,114,10|0,0:0|1:0,0:0:0:0:
273,141,5593,1,2,0:0:0:0:
273,141,5758,2,0,B|200:155|200:155|161:144,1,114,10|0,0:0|1:0,0:0:0:0:
95,92,6584,1,0,1:0:0:0:
95,92,6750,2,0,L|89:169,1,76,8|0,0:0|0:0,0:0:0:0:
54,192,7246,6,0,P|70:228|62:278,1,76,2|2,1:2|1:2,0:0:0:0:
107,277,7742,2,0,P|91:313|99:363,1,76,10|2,0:0|0:0,0:0:0:0:
117,382,8237,5,4,0:0:0:0:
180,327,8568,1,0,1:0:0:0:
180,327,8733,2,0,P|219:306|287:318,1,114,10|0,0:0|1:0,0:0:0:0:
345,375,9560,5,2,1:2:0:0:
345,375,9725,2,0,P|368:334|362:290,1,76,10|2,0:0|0:0,0:0:0:0:
353,266,10221,1,0,1:0:0:0:
276,232,10551,1,2,1:2:0:0:
276,232,10716,2,0,P|253:191|259:147,1,76,10|2,0:0|0:0,0:0:0:0:
268,123,11212,1,0,1:0:0:0:
344,90,11543,2,0,L|388:93,1,38,2|8,1:2|0:0,0:0:0:0:
419,17,12039,1,2,0:0:0:0:
419,17,12204,6,0,L|313:12,1,76,0|0,1:0|1:0,0:0:0:0:
304,29,12700,2,0,L|190:36,1,114,8|0,0:0|1:0,0:0:0:0:
132,96,13527,6,0,P|127:124|134:160,1,38,2|10,1:2|0:0,0:0:0:0:
171,204,14023,1,2,0:0:0:0:
171,204,14188,1,0,1:0:0:0:
88,218,14518,2,0,P|97:244|121:272,1,38,2|10,1:2|0:0,0:0:0:0:
175,292,15014,1,2,0:0:0:0:
175,292,15180,2,0,L|258:295,1,76,0|0,1:0|0:0,0:0:0:0:
292,297,15675,1,8,0:0:0:0:
376,137,16006,1,0,0:0:0:0:
376,137,16171,6,0,P|380:174|369:210,1,76,4|0,0:0|0:0,0:0:0:0:
329,222,16667,2,0,L|253:219,1,76,8|0,0:0|1:0,0:0:0:0:
211,217,17163,1,0,1:0:0:0:
141,263,17494,1,0,0:0:0:0:
141,263,17659,2,0,P|129:226|133:189,1,76,8|0,0:0|0:0,0:0:0:0:
158,155,18155,6,0,B|172:98|172:98|153:27,1,114,0|8,1:0|0:0,0:0:0:0:
74,45,18981,1,0,1:0:0:0:
74,45,19146,2,0,B|86:95|86:95|80:127,1,76,0|0,1:0|0:0,0:0:0:0:
72,159,19642,1,8,0:0:0:0:
33,233,19973,1,0,0:0:0:0:
33,233,20138,6,0,P|85:235|117:257,1,76,0|0,1:0|0:0,0:0:0:0:
130,279,20634,2,0,B|165:291|165:291|220:283,1,76,8|0,0:0|1:0,0:0:0:0:
242,269,21130,1,0,1:0:0:0:
279,194,21461,1,0,0:0:0:0:
279,194,21626,2,0,P|286:153|283:112,1,76,8|0,0:0|0:0,0:0:0:0:
267,80,22122,6,0,P|224:97|172:89,1,76,0|0,1:0|0:0,0:0:0:0:
154,86,22618,1,8,0:0:0:0:
86,37,22948,1,0,1:0:0:0:
86,37,23113,2,0,P|68:76|81:126,1,76,0|0,1:0|0:0,0:0:0:0:
94,143,23609,2,0,B|100:170|100:170|96:231,1,76,4|0,0:3|0:0,0:0:0:0:
78,255,24105,6,0,P|122:251|155:271,1,76,4|0,1:3|0:0,0:0:0:0:
178,295,24601,2,0,P|215:300|249:284,1,76,8|0,0:0|1:0,0:0:0:0:
276,253,25097,1,0,1:0:0:0:
243,175,25427,1,0,0:0:0:0:
243,175,25593,1,8,0:0:0:0:
287,104,25923,1,0,0:0:0:0:
287,104,26089,6,0,B|335:95|335:95|376:105,1,76,0|0,1:0|0:0,0:0:0:0:
392,129,26584,2,0,P|405:177|388:220,1,76,8|0,0:0|1:0,0:0:0:0:
374,235,27080,2,0,P|361:283|378:326,1,76,0|0,1:0|0:0,0:0:0:0:
394,339,27576,1,8,0:0:0:0:
318,374,27907,1,0,0:0:0:0:
318,374,28072,6,0,L|239:369,1,76,0|0,1:0|0:0,0:0:0:0:
217,335,28568,2,0,L|141:339,1,76,8|0,0:0|1:0,0:0:0:0:
109,367,29064,1,0,1:0:0:0:
81,244,29560,1,8,0:0:0:0:
139,184,29890,1,0,0:0:0:0:
139,184,30056,6,0,L|214:188,1,76,0|0,1:0|0:0,0:0:0:0:
240,224,30552,2,0,L|316:220,1,76,8|0,0:0|1:0,0:0:0:0:
348,194,31047,1,0,1:0:0:0:
413,245,31378,1,0,0:0:0:0:
413,245,31543,1,8,0:0:0:0:
347,63,32039,6,0,P|309:53|266:61,1,76,4|0,0:0|1:0,0:0:0:0:
236,78,32535,1,8,0:0:0:0:
183,142,32865,1,0,0:0:0:0:
183,142,33031,2,0,L|179:220,1,76,0|0,0:0|1:0,0:0:0:0:
177,259,33527,1,8,0:0:0:0:
201,338,33857,1,0,0:0:0:0:
201,338,34023,6,0,P|239:328|282:336,1,76,0|0,1:0|1:0,0:0:0:0:
312,353,34519,1,8,0:0:0:0:
382,308,34849,1,0,0:0:0:0:
382,308,35014,2,0,B|391:259|391:259|382:215,1,76,0|0,0:0|1:0,0:0:0:0:
357,202,35510,2,0,P|337:164|360:85,1,114,8|0,0:0|1:0,0:0:0:0:
473,33,36337,5,0,1:0:0:0:
473,33,36502,2,0,L|398:27,1,76,10|0,0:0|0:0,0:0:0:0:
360,7,36998,2,0,L|284:13,1,76,2|2,0:0|1:2,0:0:0:0:
252,41,37494,1,8,0:0:0:0:
183,89,37824,1,2,0:0:0:0:
183,89,37989,6,0,P|146:100|96:85,1,76,0|0,1:0|1:0,0:0:0:0:
75,68,38485,1,8,0:0:0:0:
25,135,38816,1,2,0:0:0:0:
25,135,38981,2,0,B|18:186|18:186|25:232,1,76,0|0,0:0|1:0,0:0:0:0:
54,235,39477,2,0,B|61:286|61:286|54:332,1,76,8|0,0:0|0:0,0:0:0:0:
40,348,39973,6,0,P|97:342|131:355,1,76,4|0,1:2|1:0,0:0:0:0:
149,369,40469,1,8,0:0:0:0:
212,314,40799,1,0,0:0:0:0:
212,314,40965,2,0,P|269:320|303:307,1,76,0|0,0:0|1:0,0:0:0:0:
319,289,41461,2,0,L|322:203,1,76,10|0,0:0|0:0,0:0:0:0:
343,177,41956,6,0,B|315:199|270:199|239:170|239:170|250:189|251:201|248:215|248:215|217:186|177:178|138:187|99:223,1,304,2|0,1:2|1:0,0:0:0:0:
91,242,43444,1,10,0:0:0:0:
108,124,43775,1,2,0:0:0:0:
108,124,43940,6,0,P|143:109|191:107,1,76,0|0,1:0|1:0,0:0:0:0:
210,76,44436,2,0,P|266:95|334:79,1,114,8|0,0:0|0:0,0:0:0:0:
377,26,45262,1,0,1:0:0:0:
377,26,45427,1,8,0:0:0:0:
436,85,45758,1,0,0:0:0:0:
436,85,45923,6,0,P|443:143|430:185,1,76,0|0,1:0|1:0,0:0:0:0:
422,197,46419,1,8,0:0:0:0:
350,240,46750,1,8,0:0:0:0:
350,240,46915,2,0,L|274:229,1,76,2|0,0:0|1:0,0:0:0:0:
241,203,47411,1,8,0:0:0:0:
92,362,47907,6,0,L|168:351,1,76,4|0,1:2|1:0,0:0:0:0:
201,325,48403,1,8,0:0:0:0:
149,259,48733,1,0,0:0:0:0:
149,259,48899,2,0,P|127:211|140:163,1,76,0|0,0:0|1:0,0:0:0:0:
143,150,49394,1,8,0:0:0:0:
207,96,49725,1,0,0:0:0:0:
207,96,49890,6,0,L|283:107,1,76,0|0,1:0|1:0,0:0:0:0:
305,141,50386,1,8,0:0:0:0:
369,194,50717,1,0,0:0:0:0:
369,194,50882,2,0,L|445:183,1,76,0|0,0:0|1:0,0:0:0:0:
474,154,51378,2,0,P|466:204|489:275,1,114,8|0,0:0|1:0,0:0:0:0:
388,357,52204,5,0,1:0:0:0:
388,357,52370,2,0,B|337:364|337:364|305:357,1,76,10|0,0:0|0:0,0:0:0:0:
286,326,52865,2,0,B|235:319|235:319|203:326,1,76,2|2,0:0|1:2,0:0:0:0:
177,349,53361,1,8,0:0:0:0:
111,296,53692,1,2,0:0:0:0:
111,296,53857,6,0,P|102:256|111:216,1,76,0|0,1:0|1:0,0:0:0:0:
134,188,54353,1,8,0:0:0:0:
198,135,54684,1,2,0:0:0:0:
198,135,54849,2,0,L|277:131,1,76,0|0,0:0|1:0,0:0:0:0:
306,157,55345,2,0,L|381:160,1,76,8|0,0:0|0:0,0:0:0:0:
423,154,55841,6,0,P|416:201|436:247,1,76,0|0,1:0|1:0,0:0:0:0:
448,261,56337,1,8,0:0:0:0:
496,193,56667,1,0,0:0:0:0:
496,193,56832,2,0,P|504:156|496:119,1,76,0|0,0:0|1:0,0:0:0:0:
474,83,57328,2,0,L|397:77,1,76,8|0,0:0|0:0,0:0:0:0:
368,47,57824,6,0,P|328:57|284:47,1,76,0|0,1:0|1:0,0:0:0:0:
259,27,58320,2,0,P|219:17|175:27,1,76,8|8,0:0|0:0,0:0:0:0:
153,50,58816,2,0,B|156:101|156:101|151:126,1,76,2|0,0:0|1:0,0:0:0:0:
119,152,59312,2,0,B|116:203|116:203|121:228,1,76,8|0,0:0|0:0,0:0:0:0:
142,263,59808,5,4,1:2:0:0:
142,263,60138,1,0,1:0:0:0:
217,308,60303,2,0,L|297:304,1,76,10|0,0:0|0:0,0:0:0:0:
332,316,60799,1,0,1:0:0:0:
332,316,61130,1,0,1:0:0:0:
313,229,61295,2,0,L|233:233,1,76,10|0,0:0|0:0,0:0:0:0:
198,221,61791,1,0,1:0:0:0:
198,221,62122,1,0,1:0:0:0:
257,156,62287,2,0,L|337:152,1,76,10|0,0:0|0:0,0:0:0:0:
372,164,62783,6,0,P|362:122|383:78,1,76,2|0,1:2|1:0,0:0:0:0:
412,81,63279,2,0,P|422:39|401:-5,1,76,10|0,0:0|0:0,0:0:0:0:
370,0,63775,5,4,1:2:0:0:
370,0,64105,1,0,1:0:0:0:
303,55,64270,2,0,L|219:54,1,76,8|0,0:0|0:0,0:0:0:0:
187,68,64766,1,0,1:0:0:0:
187,68,65097,1,0,1:0:0:0:
249,128,65262,2,0,L|333:129,1,76,10|0,0:0|0:0,0:0:0:0:
365,115,65758,1,0,1:0:0:0:
365,115,66089,1,0,1:0:0:0:
345,201,66254,2,0,L|270:201,1,76,10|0,0:0|0:0,0:0:0:0:
229,214,66750,6,0,P|218:264|232:308,1,76,2|8,1:2|0:0,0:0:0:0:
253,317,67246,2,0,L|318:318,2,38,8|0|0,1:2|1:0|1:0,0:0:0:0:
170,371,67742,6,0,L|74:373,1,87.4000016670227,4|0,1:2|1:0,0:0:0:0:
28,328,68237,2,0,P|11:282|28:229,1,87.4000016670227,8|0,0:0|0:0,0:0:0:0:
73,201,68733,2,0,P|90:155|73:102,1,87.4000016670227,0|0,0:0|1:0,0:0:0:0:
30,71,69229,1,8,0:0:0:0:
155,8,69560,6,0,L|206:10,1,43.7000008335114,0|0,0:0|1:0,0:0:0:0:
314,88,70056,2,0,L|270:89,1,43.7000008335114,0|8,1:0|0:0,0:0:0:0:
155,168,70551,1,0,0:0:0:0:
155,168,70717,2,0,L|253:171,1,87.4000016670227,2|2,0:0|1:2,0:0:0:0:
312,173,71213,1,8,0:0:0:0:
399,381,71543,1,2,0:0:0:0:
399,381,71708,6,0,P|409:339|396:297,1,87.4000016670227,4|0,1:2|1:0,0:0:0:0:
349,246,72204,2,0,L|261:243,1,87.4000016670227,8|0,0:0|0:0,0:0:0:0:
207,287,72700,2,0,L|119:290,1,87.4000016670227,0|0,0:0|1:0,0:0:0:0:
61,250,73196,1,8,0:0:0:0:
170,162,73527,6,0,P|174:135|167:109,1,43.7000008335114,0|0,0:0|1:0,0:0:0:0:
91,3,74023,1,0,1:0:0:0:
91,3,74188,1,8,0:0:0:0:
58,138,74518,2,0,L|101:136,1,43.7000008335114,0|2,0:0|0:0,0:0:0:0:
221,64,75014,1,2,0:0:0:0:
221,64,75180,2,0,L|308:66,1,87.4000016670227,10|2,0:0|1:2,0:0:0:0:
367,146,75675,6,0,P|378:199|361:245,1,87.4000016670227,4|0,1:2|1:0,0:0:0:0:
402,292,76171,2,0,P|413:239|396:193,1,87.4000016670227,10|0,0:0|0:0,0:0:0:0:
367,146,76667,2,0,L|279:143,1,87.4000016670227,0|0,0:0|1:0,0:0:0:0:
218,178,77163,1,8,0:0:0:0:
94,111,77494,1,0,0:0:0:0:
94,111,77659,6,0,P|80:70|93:28,1,87.4000016670227,0|0,1:0|1:0,0:0:0:0:
151,69,78155,2,0,P|164:110|150:151,1,87.4000016670227,8|0,0:0|0:0,0:0:0:0:
88,182,78651,1,2,0:0:0:0:
154,304,78981,1,0,1:0:0:0:
154,304,79146,1,8,0:0:0:0:
253,143,79477,1,0,0:0:0:0:
253,143,79642,6,0,P|302:134|348:155,1,87.4000016670227,4|0,1:2|1:0,0:0:0:0:
374,205,80138,1,8,0:0:0:0:
202,165,80469,1,0,0:0:0:0:
202,165,80634,2,0,P|236:129|286:120,1,87.4000016670227,4|0,1:2|1:0,0:0:0:0:
336,146,81130,1,8,0:0:0:0:
173,211,81461,1,0,0:0:0:0:
173,211,81626,2,0,P|181:161|216:125,1,87.4000016670227,4|0,1:2|1:0,0:0:0:0:
272,119,82122,1,8,0:0:0:0:
176,266,82452,1,8,0:0:0:0:
176,266,82617,6,0,P|154:220|163:171,1,87.4000016670227,2|2,1:2|1:2,0:0:0:0:
204,133,83113,1,8,0:0:0:0:
272,119,83279,1,0,0:0:0:0:
336,146,83444,1,0,0:0:0:0:
374,205,83609,6,0,L|372:291,1,76,4|0,1:2|1:0,0:0:0:0:
396,315,84105,2,0,P|354:295|282:319,1,114,10|0,0:0|1:0,0:0:0:0:
232,370,84932,5,0,1:0:0:0:
232,370,85097,2,0,B|180:376|180:376|143:368,1,76,10|2,0:0|0:0,0:0:0:0:
119,352,85593,1,0,1:0:0:0:
183,299,85923,1,0,1:0:0:0:
183,299,86089,2,0,P|192:263|185:222,1,76,10|0,0:0|0:0,0:0:0:0:
161,191,86584,1,0,1:0:0:0:
99,134,86915,2,0,P|96:114|99:89,1,38,2|8,1:2|0:0,0:0:0:0:
154,35,87411,2,0,L|203:34,1,38,2|0,0:0|1:0,0:0:0:0:
268,68,87907,1,0,1:0:0:0:
268,68,88072,5,10,0:0:0:0:
