osu file format v14

[General]
AudioFilename: audio.mp3
AudioLeadIn: 0
PreviewTime: 5272
Countdown: 0
SampleSet: Normal
StackLeniency: 0.7
Mode: 0
LetterboxInBreaks: 0
WidescreenStoryboard: 0

[Editor]
DistanceSpacing: 1
BeatDivisor: 4
GridSize: 4
TimelineZoom: 3.599999

[Metadata]
Title:Haruka Kanata
TitleUnicode:遥か彼方
Artist:ASIAN KUNG-FU GENERATION
ArtistUnicode:ASIAN KUNG-FU GENERATION
Creator:Monstrata
Version:alacat's Normal
Source:NARUTO -ナルト-
Tags:naruto uzumaki sasuke uchiha sakura haruno kakashi hatake opening two 2 tv size kungfu musty -sh1n1- sh1n1 shini neoskylove gero alacat lit120 -hakurei-
BeatmapID:1353275
BeatmapSetID:632128

[Difficulty]
HPDrainRate:4
CircleSize:3.5
OverallDifficulty:4
ApproachRate:5
SliderMultiplier:1.2
SliderTickRate:1

[Events]
//Background and Video events
0,0,"harukacanada.png",0,0
//Break Periods
2,49626,53018
//Storyboard Layer 0 (Background)
//Storyboard Layer 1 (Fail)
//Storyboard Layer 2 (Pass)
//Storyboard Layer 3 (Foreground)
//Storyboard Sound Samples

[TimingPoints]
30,342.857142857143,4,1,2,60,1,0
4498,346.820809248555,4,1,2,65,1,0
4844,342.857142857143,4,1,2,70,1,0
5534,343.347639484979,4,2,2,50,1,0
11027,342.270393610953,4,1,2,60,1,0
16161,357.142857142857,4,1,2,55,1,0
16518,341.782967815437,4,2,2,50,1,0
20961,335.195530726257,4,2,2,55,1,0
21631,355.029585798817,4,2,2,57,1,0
21986,342.857142857143,4,1,2,60,1,0
26100,341.296928327645,4,1,2,55,1,0
27481,342.857142857143,4,2,2,60,1,0
38452,341.782967815437,4,2,2,60,1,0
43920,350.262697022767,4,2,2,55,1,0
45846,338.028169014084,4,2,2,60,1,0
46691,341.880341880342,4,2,2,60,1,0
49426,341.782967815437,4,2,2,45,1,0
53527,345.821325648415,4,2,2,55,1,0
54218,346.820809248555,4,2,2,65,1,0
54911,341.685649202733,4,1,2,70,1,1
60377,344.036697247706,4,1,2,70,1,1
65881,342.857142857143,4,1,2,70,1,1
66927,337.078651685393,4,1,2,70,1,1
67264,344.827586206897,4,1,2,70,1,1
68643,342.563516985441,4,1,2,70,1,1
70355,345.821325648415,4,1,2,70,1,1
71046,327.868852459016,4,1,2,70,1,1
71373,343.544231319782,4,1,2,70,1,1
74121,352.941176470588,4,1,2,75,1,0
75534,359.928014397121,4,1,2,70,1,0
76973,359.281437125748,4,2,2,55,1,0
78410,368.098159509202,4,2,2,55,1,0
79882,380.469245402663,4,2,2,55,1,0
81403,388.349514563107,4,2,2,50,1,0
82956,406.2288422478,4,1,2,55,1,0
83768,399.866711096301,4,1,2,60,1,0
84567,395.5174686882,4,1,2,65,1,0
85358,398.406374501992,4,1,2,70,1,0
86154,399.866711096301,4,1,2,70,1,0

[Colours]
Combo1 : 152,194,158
Combo2 : 255,170,255
Combo3 : 255,175,96
Combo4 : 170,170,213

[HitObjects]
72,304,30,6,0,L|44:188,1,120,4|8,0:2|0:2,0:0:0:0:
120,96,715,2,0,L|104:32,2,60,0|0|8,3:0|3:0|0:2,0:0:0:0:
172,128,1230,2,0,B|232:128|232:128|288:100,1,120,2|0,0:2|3:0,0:0:0:0:
340,72,1744,1,8,0:0:0:0:
444,132,2087,2,0,L|456:192,1,60,0|0,3:0|3:0,0:0:0:0:
500,232,2430,2,0,L|488:292,1,60,8|0,0:0|0:0,0:0:0:0:
440,328,2772,6,0,B|364:308|364:308|320:316,1,120,4|8,0:2|0:0,0:0:0:0:
224,248,3458,2,0,L|164:264,2,60,0|0|8,3:0|3:0|0:0,0:0:0:0:
280,228,3972,2,0,B|296:168|296:168|280:112,1,120,2|0,0:2|3:0,0:0:0:0:
260,52,4498,1,8,0:0:0:0:
152,104,4844,1,8,0:0:0:0:
152,104,5015,1,8,0:0:0:0:
44,56,5358,5,0,0:0:0:0:
44,56,5534,2,0,B|20:96|20:96|36:172,1,120,4|8,0:2|0:0,0:0:0:0:
84,208,6049,2,0,L|76:268,1,60,2|4,0:3|3:0,0:0:0:0:
176,336,6564,2,0,L|184:276,1,60,8|2,0:0|0:3,0:0:0:0:
232,240,6907,2,0,B|288:268|288:268|348:268,1,120,4|8,3:0|0:0,0:0:0:0:
364,212,7422,2,0,B|308:184|308:184|248:184,1,120,2|2,0:3|0:3,0:0:0:0:
208,141,7937,2,0,L|148:141,1,60,8|2,0:0|0:3,0:0:0:0:
105,98,8280,5,4,3:0:0:0:
36,196,8624,2,0,L|36:256,2,60,8|2|4,0:0|0:3|3:0,0:0:0:0:
36,76,9310,1,8,0:0:0:0:
78,33,9482,1,2,0:3:0:0:
138,33,9654,2,0,L|258:33,1,120,4|8,3:0|0:0,0:0:0:0:
312,140,10340,1,8,0:0:0:0:
312,140,10512,1,8,0:0:0:0:
312,140,10684,2,0,L|252:140,1,60,8|0,0:0|1:0,0:0:0:0:
208,180,11027,6,0,B|152:156|152:156|92:156,2,120,4|8|2,0:2|0:0|3:0,0:0:0:0:
256,220,11882,2,0,L|264:280,1,60,0|8,3:0|0:0,0:0:0:0:
344,368,12396,1,4,0:2:0:0:
452,316,12738,1,8,0:0:0:0:
492,204,13080,2,0,L|484:144,1,60,0|0,3:0|3:0,0:0:0:0:
472,84,13422,1,8,0:0:0:0:
372,148,13765,6,0,L|252:128,1,120,4|8,0:2|0:0,0:0:0:0:
168,44,14449,2,0,L|108:56,1,60,2|0,3:0|3:0,0:0:0:0:
52,72,14791,1,8,0:0:0:0:
120,172,15134,2,0,L|180:180,2,60,4|0|12,3:0|3:0|0:2,0:0:0:0:
28,252,15818,1,8,3:0:0:0:
84,352,16161,6,0,L|144:344,1,60,8|0,0:0|3:0,0:0:0:0:
188,300,16518,2,0,L|312:320,1,120,4|8,0:0|0:0,0:0:0:0:
360,292,17030,1,2,0:3:0:0:
360,292,17201,1,4,3:0:0:0:
464,360,17543,2,0,L|472:300,1,60,8|2,0:0|0:3,0:0:0:0:
440,252,17885,2,0,B|428:184|428:184|440:132,1,120,4|8,3:0|0:0,0:0:0:0:
456,76,18397,2,0,L|336:92,1,120,2|2,0:3|0:3,0:0:0:0:
284,60,18910,2,0,L|224:68,1,60,8|2,0:0|0:3,0:0:0:0:
164,80,19252,5,4,3:0:0:0:
76,160,19594,2,0,L|15:151,2,60,8|2|4,0:0|0:3|3:0,0:0:0:0:
152,252,20277,1,8,0:0:0:0:
152,252,20447,1,2,0:3:0:0:
152,252,20619,2,0,L|272:236,1,120,4|8,3:0|0:0,0:0:0:0:
376,180,21296,2,0,L|396:240,1,60,8|8,0:0|0:0,0:0:0:0:
440,272,21631,2,0,L|420:332,1,60,8|0,0:0|1:0,0:0:0:0:
364,352,21986,6,0,B|304:336|304:336|240:344,1,120,4|8,0:2|0:0,0:0:0:0:
164,256,22671,2,0,L|156:196,1,60,2|0,3:0|3:0,0:0:0:0:
148,136,23014,1,8,0:0:0:0:
240,60,23357,1,4,0:2:0:0:
128,20,23700,1,8,0:0:0:0:
36,96,24043,2,0,L|28:156,1,60,0|0,3:0|3:0,0:0:0:0:
16,216,24385,1,8,0:0:0:0:
100,300,24728,6,0,B|156:280|156:280|220:280,1,120,4|8,0:2|0:0,0:0:0:0:
328,236,25414,2,0,L|388:236,2,60,2|0|8,3:0|3:0|0:0,0:0:0:0:
232,160,26100,2,0,L|172:160,2,60,4|0|12,3:0|3:0|0:2,0:0:0:0:
304,64,26782,2,0,B|384:64|384:64|420:84,1,120,8|8,3:0|0:0,0:0:0:0:
464,124,27294,1,0,0:0:0:0:
492,184,27481,6,0,B|480:228|480:228|488:256|488:256|476:300,2,120,4|8|2,0:0|0:0|3:2,0:0:0:0:
392,252,28509,1,8,0:0:0:0:
392,252,28681,1,0,0:0:0:0:
392,252,28852,2,0,B|332:264|332:264|280:232,1,120,2|8,3:2|0:0,0:0:0:0:
184,164,29538,1,8,0:0:0:0:
292,112,29881,1,8,0:0:0:0:
192,48,30223,6,0,B|148:60|148:60|120:52|120:52|76:64,2,120,2|8|2,3:2|0:0|3:0,0:0:0:0:
292,112,31252,1,8,0:0:0:0:
292,112,31423,1,0,0:0:0:0:
292,112,31595,2,0,L|408:82,1,120,2|8,3:2|0:0,0:0:0:0:
380,200,32281,2,0,L|263:229,1,120,8|8,0:0|0:0,0:0:0:0:
148,196,32966,6,0,B|136:152|136:152|144:124|144:124|132:80,2,120,2|8|2,3:2|0:0|3:2,0:0:0:0:
180,312,33995,1,8,0:0:0:0:
288,364,34338,2,0,L|408:364,1,120,2|8,3:2|0:0,0:0:0:0:
476,268,35023,1,8,0:0:0:0:
476,268,35366,1,8,0:0:0:0:
440,152,35709,6,0,B|428:108|428:108|464:36,2,120,2|8|2,3:0|0:0|3:2,0:0:0:0:
364,244,36738,1,8,0:0:0:0:
268,172,37081,2,0,B|208:172|208:172|160:212,1,120,2|12,3:2|0:0,0:0:0:0:
68,288,37766,1,8,0:0:0:0:
40,172,38109,1,2,3:0:0:0:
128,92,38452,6,0,B|152:76|152:76|216:76|216:76|240:92,2,120,4|8|2,0:0|0:0|3:2,0:0:0:0:
40,172,39477,1,8,0:0:0:0:
40,172,39648,1,0,0:0:0:0:
40,172,39819,2,0,L|68:292,1,120,2|8,3:2|0:0,0:0:0:0:
176,344,40502,1,8,0:0:0:0:
264,264,40844,1,8,0:0:0:0:
368,324,41186,6,0,B|384:300|384:300|384:236|384:236|368:213,2,120,2|8|2,3:2|0:0|3:2,0:0:0:0:
256,372,42211,1,8,0:0:0:0:
256,372,42382,1,0,0:0:0:0:
256,372,42553,2,0,L|136:372,1,120,2|8,3:2|0:0,0:0:0:0:
36,304,43236,1,8,0:0:0:0:
80,192,43578,1,8,0:0:0:0:
44,80,43920,6,0,B|88:68|88:68|156:96,1,120,4|8,3:2|0:0,0:0:0:0:
208,124,44445,2,0,L|328:104,1,120,4|8,3:2|0:0,0:0:0:0:
384,96,44970,1,4,3:2:0:0:
468,180,45321,1,8,0:0:0:0:
468,180,45496,2,0,L|349:199,1,120,4|8,3:2|0:0,0:0:0:0:
328,256,46015,1,4,3:2:0:0:
296,372,46353,1,12,0:0:0:0:
208,292,46691,5,4,0:2:0:0:
256,192,46776,12,4,49426,3:1:0:0:
8,280,54218,6,0,B|88:256|88:256|124:276,1,120,8|12,3:2|0:0,0:0:0:0:
216,348,54911,5,4,0:2:0:0:
320,292,55252,1,8,0:0:0:0:
272,184,55594,2,0,L|212:196,1,60,2|0,3:0|3:0,0:0:0:0:
156,176,55936,1,8,0:0:0:0:
224,76,56277,2,0,L|348:88,1,120,4|8,3:0|0:0,0:0:0:0:
456,44,56961,2,0,L|464:104,1,60,0|0,3:0|3:0,0:0:0:0:
508,148,57302,2,0,L|500:208,1,60,8|8,0:0|0:0,0:0:0:0:
460,252,57644,6,0,B|402:234|402:234|340:236,1,120,4|8,0:0|0:0,0:0:0:0:
304,352,58327,2,0,L|364:352,2,60,2|0|8,3:0|3:0|0:0,0:0:0:0:
192,304,59011,2,0,L|132:304,1,60,2|0,3:0|3:0,0:0:0:0:
88,344,59352,2,0,L|68:224,1,120,8|4,0:0|3:0,0:0:0:0:
104,112,60036,5,8,0:0:0:0:
104,112,60207,1,8,0:0:0:0:
104,112,60377,2,0,B|156:84|156:84|224:92,1,120,4|8,0:2|0:0,0:0:0:0:
264,128,60893,1,2,0:2:0:0:
372,76,61237,2,0,L|364:16,2,60,0|8|2,3:0|0:0|0:2,0:0:0:0:
416,116,61753,2,0,L|400:236,1,120,2|8,3:0|0:0,0:0:0:0:
428,288,62269,1,2,0:2:0:0:
328,356,62613,2,0,L|268:352,2,60,0|8|2,3:0|0:0|0:2,0:0:0:0:
388,364,63129,5,4,0:2:0:0:
492,220,63645,2,0,L|488:156,1,60,0|4,3:0|0:2,0:0:0:0:
424,60,64161,1,8,0:0:0:0:
424,60,64333,2,0,B|380:40|380:40|300:52,1,120,8|8,0:0|0:0,0:0:0:0:
272,96,64849,2,0,L|152:84,1,120,8|8,3:2|3:2,0:0:0:0:
92,76,65365,1,8,3:0:0:0:
92,76,65537,1,0,3:0:0:0:
16,168,65881,6,0,B|28:244|28:244|60:272,1,120,4|8,3:2|0:0,0:0:0:0:
176,248,66566,2,0,L|234:236,2,60,2|0|0,3:0|3:0|0:0,0:0:0:0:
236,356,67264,2,0,L|360:332,1,120,4|8,3:0|0:0,0:0:0:0:
440,252,67953,2,0,L|432:192,1,60,0|0,3:0|3:0,0:0:0:0:
388,148,68298,2,0,L|396:88,1,60,8|8,0:0|0:0,0:0:0:0:
368,36,68643,6,0,B|310:18|310:18|248:20,1,120,4|8,0:2|0:0,0:0:0:0:
224,136,69328,2,0,L|284:136,2,60,2|0|8,3:0|3:0|0:0,0:0:0:0:
120,80,70013,2,0,L|60:80,1,60,2|0,3:0|3:0,0:0:0:0:
28,128,70355,2,0,L|47:246,1,120,8|0,0:0|3:0,0:0:0:0:
92,288,70873,1,0,3:0:0:0:
92,288,71046,2,0,L|152:288,1,60,8|8,0:0|0:0,0:0:0:0:
200,256,71373,6,0,B|256:256|256:256|308:292,1,120,4|8,0:2|0:0,0:0:0:0:
360,328,71888,1,2,0:2:0:0:
452,252,72231,2,0,L|512:288,2,60,0|8|2,3:0|0:0|0:2,0:0:0:0:
408,212,72746,2,0,B|404:152|404:152|436:100,1,120,4|8,3:0|0:0,0:0:0:0:
476,56,73262,1,2,0:2:0:0:
356,52,73606,2,0,L|392:0,2,60,0|8|2,3:0|0:0|0:2,0:0:0:0:
324,100,74121,6,0,B|208:100|208:100|176:68,1,160,12|4,3:2|3:2,0:0:0:0:
128,4,74826,2,0,B|96:35|96:35|96:151,1,160,8|0,3:2|3:0,0:0:0:0:
144,216,75534,6,0,B|200:216|200:216|236:200|236:200|300:200,1,160,12|4,0:0|3:2,0:0:0:0:
376,224,76253,2,0,L|376:304,2,80,8|8|8,0:2|0:0|0:0,0:0:0:0:
376,164,76973,5,4,0:0:0:0:
256,192,77062,12,6,81403,3:0:0:0:
284,224,82956,6,0,B|384:196|384:196|444:212,1,160,4|0,3:2|3:0,0:0:0:0:
440,128,83768,2,0,B|385:113|385:113|285:141,1,160,4|4,3:3|3:3,0:0:0:0:
204,152,84567,6,0,L|216:72,2,80,4|8|8,0:2|0:0|0:0,0:0:0:0:
144,204,85358,2,0,L|156:284,2,80,12|8|8,0:2|0:0|0:0,0:0:0:0:
128,124,86154,5,12,3:2:0:0:
