osu file format v14

[General]
AudioFilename: audio.mp3
AudioLeadIn: 0
PreviewTime: 5272
Countdown: 0
SampleSet: Normal
StackLeniency: 0.7
Mode: 0
LetterboxInBreaks: 0
WidescreenStoryboard: 0

[Editor]
DistanceSpacing: 1.7
BeatDivisor: 4
GridSize: 32
TimelineZoom: 1.5

[Metadata]
Title:Haruka Kanata
TitleUnicode:遥か彼方
Artist:ASIAN KUNG-FU GENERATION
ArtistUnicode:ASIAN KUNG-FU GENERATION
Creator:Monstrata
Version:Sh1n1's Insane
Source:NARUTO -ナルト-
Tags:naruto uzumaki sasuke uchiha sakura haruno kakashi hatake opening two 2 tv size kungfu musty -sh1n1- sh1n1 shini neoskylove gero alacat lit120 -hakurei-
BeatmapID:1349923
BeatmapSetID:632128

[Difficulty]
HPDrainRate:5
CircleSize:4
OverallDifficulty:7
ApproachRate:8.5
SliderMultiplier:1.7
SliderTickRate:1

[Events]
//Background and Video events
0,0,"harukacanada.png",0,0
//Break Periods
//Storyboard Layer 0 (Background)
//Storyboard Layer 1 (Fail)
//Storyboard Layer 2 (Pass)
//Storyboard Layer 3 (Foreground)
//Storyboard Sound Samples

[TimingPoints]
30,342.857142857143,4,1,2,60,1,0
4498,346.820809248555,4,1,2,65,1,0
4844,342.857142857143,4,1,2,70,1,0
5534,343.347639484979,4,2,2,50,1,0
11027,342.270393610953,4,1,2,60,1,0
16161,357.142857142857,4,1,2,55,1,0
16518,341.782967815437,4,2,2,50,1,0
20961,335.195530726257,4,2,2,55,1,0
21631,355.029585798817,4,2,2,57,1,0
21986,342.857142857143,4,1,2,60,1,0
26100,341.296928327645,4,1,2,55,1,0
27481,342.857142857143,4,2,2,60,1,0
38452,341.782967815437,4,2,2,60,1,0
43920,350.262697022767,4,2,2,55,1,0
45846,338.028169014084,4,2,2,60,1,0
46691,341.880341880342,4,2,2,60,1,0
48742,-100,4,2,2,60,0,0
49426,341.782967815437,4,2,2,45,1,0
49426,-125,4,2,2,45,0,0
53527,345.821325648415,4,2,2,55,1,0
54218,346.820809248555,4,2,2,65,1,0
54911,341.685649202733,4,1,2,70,1,1
60377,344.036697247706,4,1,2,70,1,1
65881,342.857142857143,4,1,2,70,1,1
66927,337.078651685393,4,1,2,70,1,1
67264,344.827586206897,4,1,2,70,1,1
68643,342.563516985441,4,1,2,70,1,1
70355,345.821325648415,4,1,2,70,1,1
71046,327.868852459016,4,1,2,70,1,1
71373,343.544231319782,4,1,2,70,1,1
74121,352.941176470588,4,1,2,75,1,0
75534,359.928014397121,4,1,2,70,1,0
76973,359.281437125748,4,2,2,55,1,0
76973,-133.333333333333,4,2,2,55,0,0
78410,368.098159509202,4,2,2,55,1,0
78410,-133.333333333333,4,2,2,55,0,0
79882,380.469245402663,4,2,2,55,1,0
79882,-133.333333333333,4,2,2,55,0,0
81403,388.349514563107,4,2,2,50,1,0
82956,406.2288422478,4,1,2,55,1,0
83768,399.866711096301,4,1,2,60,1,0
84567,395.5174686882,4,1,2,65,1,0
85358,398.406374501992,4,1,2,70,1,0
86154,399.866711096301,4,1,2,70,1,0

[Colours]
Combo1 : 152,194,158
Combo2 : 255,170,255
Combo3 : 255,175,96
Combo4 : 170,170,213

[HitObjects]
239,326,30,6,0,P|280:316|322:315,1,85,4|0,0:2|0:0,0:0:0:0:
123,203,372,2,0,P|81:193|39:192,1,85,8|0,0:2|0:0,0:0:0:0:
194,252,715,1,0,3:0:0:0:
205,158,887,1,0,3:0:0:0:
123,203,1058,1,8,0:2:0:0:
284,229,1230,6,0,P|291:177|290:59,1,170,2|0,0:2|3:0,0:0:0:0:
380,155,1744,2,0,L|464:143,1,85,8|0,0:0|0:0,0:0:0:0:
383,62,2087,1,0,3:0:0:0:
290,59,2258,1,0,3:0:0:0:
390,164,2430,2,0,L|474:152,1,85,8|0,0:0|0:0,0:0:0:0:
276,59,2772,6,0,L|191:47,1,85,4|0,0:2|0:0,0:0:0:0:
31,24,3115,1,8,0:0:0:0:
31,24,3287,1,0,0:0:0:0:
106,160,3458,2,0,P|116:118|106:78,1,85,0|0,3:0|3:0,0:0:0:0:
21,119,3801,1,8,0:0:0:0:
73,255,3972,2,0,L|161:242,1,85,2|0,0:2|0:0,0:0:0:0:
249,225,4315,1,0,3:0:0:0:
392,337,4498,6,0,L|308:326,1,85,8|0,0:0|0:0,0:0:0:0:
218,305,4844,1,8,0:0:0:0:
408,339,5015,1,8,0:0:0:0:
408,339,5534,6,0,P|422:296|408:247,1,85,4|2,0:2|0:3,0:0:0:0:
393,231,5791,1,2,3:0:0:0:
393,231,5877,1,8,0:0:0:0:
310,186,6049,1,2,0:3:0:0:
159,265,6220,2,0,L|243:263,1,85,4|2,3:0|0:3,0:0:0:0:
279,264,6478,1,2,3:0:0:0:
279,264,6564,1,8,0:0:0:0:
314,177,6735,1,2,0:3:0:0:
225,9,6907,6,0,P|211:49|219:91,1,85,4|2,3:0|0:3,0:0:0:0:
241,118,7164,1,2,3:0:0:0:
241,118,7250,1,8,0:0:0:0:
316,171,7422,1,2,0:3:0:0:
488,93,7594,2,0,L|404:95,1,85,4|2,3:0|0:3,0:0:0:0:
369,94,7852,1,2,3:0:0:0:
369,94,7938,1,8,0:0:0:0:
401,181,8109,1,2,0:3:0:0:
507,18,8280,6,0,L|422:19,1,85,4|2,3:0|0:3,0:0:0:0:
387,19,8538,1,2,3:0:0:0:
387,19,8624,1,8,0:0:0:0:
294,24,8795,1,2,0:3:0:0:
232,209,8967,2,0,P|218:169|226:127,1,85,4|2,3:0|0:3,0:0:0:0:
235,96,9224,1,2,3:0:0:0:
235,96,9310,1,8,0:0:0:0:
294,24,9482,1,2,0:3:0:0:
142,82,9654,6,0,L|57:69,1,85,4|2,3:0|0:3,0:0:0:0:
232,209,9997,2,0,L|317:196,1,85,8|0,0:0|1:0,0:0:0:0:
413,163,10340,1,8,0:0:0:0:
407,183,10426,1,8,0:0:0:0:
403,204,10512,1,8,0:0:0:0:
403,225,10598,1,8,0:0:0:0:
405,247,10684,2,0,P|409:272|420:300,1,42.5,8|0,0:0|0:0,0:0:0:0:
447,375,10855,2,0,P|427:366|406:369,1,42.5,0|8,1:0|0:0,0:0:0:0:
335,321,11027,6,0,B|310:330|281:321|281:321|268:331|268:331|220:314|168:333,1,170,4|8,0:2|0:0,0:0:0:0:
89,376,11540,1,0,0:0:0:0:
152,239,11711,2,0,P|193:230|236:231,1,85,2|0,3:0|3:0,0:0:0:0:
82,176,12053,2,0,P|39:174|-1:163,1,85,8|0,0:0|0:0,0:0:0:0:
160,69,12396,6,0,L|151:239,1,170,4|8,0:2|0:0,0:0:0:0:
143,331,12909,1,0,0:0:0:0:
312,293,13080,2,0,B|282:288|282:288|228:293,1,85,0|0,3:0|3:0,0:0:0:0:
395,337,13422,2,0,P|406:296|397:252,1,85,8|0,0:0|0:0,0:0:0:0:
324,29,13765,6,0,B|316:164|316:164|323:198,1,170,4|8,0:2|0:0,0:0:0:0:
398,254,14278,1,0,0:0:0:0:
409,161,14449,1,2,3:0:0:0:
323,198,14620,1,0,3:0:0:0:
484,216,14791,1,8,0:0:0:0:
333,106,14962,1,2,0:2:0:0:
311,289,15133,5,0,0:0:0:0:
409,161,15305,1,0,3:0:0:0:
251,60,15476,2,0,L|166:60,1,85,12|0,0:2|0:0,0:0:0:0:
230,155,15818,1,8,3:0:0:0:
260,158,15903,1,0,3:0:0:0:
291,151,15989,1,0,3:0:0:0:
317,132,16074,1,0,3:0:0:0:
333,106,16160,1,8,0:0:0:0:
251,60,16339,1,0,3:0:0:0:
312,230,16518,6,0,L|396:228,1,85,4|2,0:0|0:3,0:0:0:0:
432,229,16774,1,2,3:0:0:0:
432,229,16859,1,8,0:0:0:0:
508,184,17030,1,2,0:3:0:0:
371,311,17201,2,0,L|455:309,1,85,4|2,3:0|0:3,0:0:0:0:
491,310,17457,1,2,3:0:0:0:
491,310,17543,1,8,0:0:0:0:
432,229,17714,1,2,0:3:0:0:
247,266,17885,6,0,P|233:309|247:358,1,85,4|2,3:0|0:3,0:0:0:0:
262,374,18141,1,2,3:0:0:0:
262,374,18226,1,8,0:0:0:0:
332,313,18397,1,2,0:3:0:0:
252,162,18568,2,0,L|168:160,1,85,4|2,3:0|0:3,0:0:0:0:
132,161,18824,1,2,3:0:0:0:
132,161,18910,1,8,0:0:0:0:
164,248,19081,1,2,0:3:0:0:
347,209,19252,6,0,P|361:166|347:117,1,85,4|2,3:0|0:3,0:0:0:0:
332,101,19508,1,2,3:0:0:0:
332,101,19593,1,8,0:0:0:0:
252,162,19764,1,2,0:3:0:0:
349,321,19935,2,0,L|433:323,1,85,4|2,3:0|0:3,0:0:0:0:
469,322,20191,1,2,3:0:0:0:
469,322,20277,1,8,0:0:0:0:
497,232,20448,1,2,0:3:0:0:
394,75,20619,6,0,P|379:29|392:-3,1,85,4|2,3:0|0:3,0:0:0:0:
432,164,20961,2,0,B|403:175|403:175|348:164,1,85,8|0,0:0|1:3,0:0:0:0:
267,124,21296,1,8,0:0:0:0:
247,118,21379,1,8,0:0:0:0:
226,114,21463,1,8,0:0:0:0:
205,114,21547,1,8,0:0:0:0:
183,116,21631,2,0,P|158:120|130:131,1,42.5,8|0,0:0|0:0,0:0:0:0:
69,162,21808,2,0,P|64:142|62:121,1,42.5,0|8,1:0|0:0,0:0:0:0:
138,206,21986,6,0,B|149:255|149:255|137:343|137:343|103:310,1,170,4|8,0:2|0:0,0:0:0:0:
44,259,22500,1,0,0:0:0:0:
210,376,22671,2,0,L|222:288,1,85,2|0,3:0|3:0,0:0:0:0:
207,116,23014,2,0,P|184:81|144:68,1,85,8|0,0:0|0:0,0:0:0:0:
247,201,23357,6,0,B|331:230|331:179|414:199,1,170,4|8,0:2|0:0,0:0:0:0:
295,120,23871,1,0,0:0:0:0:
377,285,24043,2,0,P|389:325|377:365,1,85,0|0,3:0|3:0,0:0:0:0:
246,281,24386,2,0,P|234:240|246:200,1,85,8|0,0:0|0:0,0:0:0:0:
354,47,24728,6,0,B|295:35|295:35|185:46,1,170,4|8,0:2|0:0,0:0:0:0:
91,55,25243,1,0,0:0:0:0:
144,131,25414,1,2,3:0:0:0:
185,45,25586,1,0,3:0:0:0:
197,209,25757,1,8,0:0:0:0:
91,55,25928,1,2,0:2:0:0:
237,124,26100,5,4,3:0:0:0:
91,223,26270,1,0,3:0:0:0:
289,199,26441,2,0,L|373:189,1,85,12|0,0:2|0:0,0:0:0:0:
472,59,26782,2,0,P|485:98|480:140,1,85,8|0,3:0|0:0,0:0:0:0:
465,172,27038,1,8,0:0:0:0:
465,172,27123,1,8,0:0:0:0:
403,108,27294,2,0,L|353:112,1,42.5,0|8,0:0|0:0,0:0:0:0:
264,118,27481,5,4,0:0:0:0:
265,146,27823,1,8,0:0:0:0:
265,174,28166,1,2,3:2:0:0:
266,203,28509,1,8,0:0:0:0:
270,296,28681,1,0,0:0:0:0:
181,326,28852,6,0,P|141:341|95:331,1,85,2|0,3:2|0:0,0:0:0:0:
270,296,29195,2,0,L|262:381,1,85,8|0,0:0|0:0,0:0:0:0:
131,245,29538,2,0,L|122:160,1,85,8|0,0:0|0:0,0:0:0:0:
302,199,29881,2,0,P|263:214|222:207,1,85,8|0,0:0|0:0,0:0:0:0:
211,101,30223,5,2,3:2:0:0:
216,73,30565,1,8,0:0:0:0:
222,46,30908,1,2,3:0:0:0:
227,18,31251,1,8,0:0:0:0:
135,36,31423,1,0,0:0:0:0:
76,107,31595,6,0,P|68:151|77:197,1,85,2|0,3:2|0:0,0:0:0:0:
194,311,31938,2,0,P|202:267|193:221,1,85,8|0,0:0|0:0,0:0:0:0:
246,83,32281,2,0,L|335:77,1,85,8|0,0:0|0:0,0:0:0:0:
462,184,32623,2,0,L|377:178,1,85,8|0,0:0|0:0,0:0:0:0:
256,168,32966,5,2,3:2:0:0:
228,169,33308,1,8,0:0:0:0:
200,169,33651,1,2,3:2:0:0:
171,170,33994,1,8,0:0:0:0:
160,263,34166,1,0,0:0:0:0:
195,350,34338,6,0,L|285:337,1,85,2|0,3:2|0:0,0:0:0:0:
367,183,34681,2,0,B|374:154|374:154|366:99,1,85,8|0,0:0|0:0,0:0:0:0:
349,275,35023,2,0,L|433:262,1,85,8|0,0:0|0:0,0:0:0:0:
287,149,35366,2,0,L|202:136,1,85,8|0,0:0|0:0,0:0:0:0:
84,122,35709,5,2,3:0:0:0:
83,150,36051,1,8,0:0:0:0:
83,178,36394,1,2,3:2:0:0:
82,205,36737,1,8,0:0:0:0:
157,260,36909,1,0,0:0:0:0:
249,244,37081,6,0,L|337:222,1,85,2|0,3:2|0:0,0:0:0:0:
474,348,37423,2,0,L|391:327,1,85,12|0,0:0|0:0,0:0:0:0:
297,333,37766,1,8,0:0:0:0:
277,339,37852,1,8,0:0:0:0:
256,343,37938,1,8,3:0:0:0:
235,343,38024,1,8,0:0:0:0:
213,341,38110,2,0,B|170:330|170:330|119:340,1,85,2|0,3:0|0:0,0:0:0:0:
12,354,38452,5,4,0:0:0:0:
11,326,38794,1,8,0:0:0:0:
9,298,39135,1,2,3:2:0:0:
8,269,39477,1,8,0:0:0:0:
48,184,39648,1,0,0:0:0:0:
140,171,39819,6,0,P|183:174|221:146,1,85,2|0,3:2|0:0,0:0:0:0:
312,35,40160,2,0,L|305:120,1,85,8|0,0:0|0:0,0:0:0:0:
313,307,40502,2,0,P|270:310|232:282,1,85,8|0,0:0|0:0,0:0:0:0:
140,171,40844,2,0,L|147:255,1,85,8|0,0:0|0:0,0:0:0:0:
163,374,41186,5,2,3:2:0:0:
191,375,41528,1,8,0:0:0:0:
219,375,41869,1,2,3:2:0:0:
248,376,42211,1,8,0:0:0:0:
341,373,42382,1,0,0:0:0:0:
430,345,42553,6,0,L|441:248,1,85,2|0,3:2|0:0,0:0:0:0:
317,140,42895,2,0,L|307:224,1,85,8|0,0:0|0:0,0:0:0:0:
324,38,43236,2,0,L|239:42,1,85,8|0,0:0|0:0,0:0:0:0:
402,145,43578,2,0,L|317:140,1,85,8|0,0:0|0:0,0:0:0:0:
483,187,43920,6,0,B|490:147|490:147|480:52|480:52|470:84,1,170,4|8,3:2|0:0,0:0:0:0:
448,274,44445,2,0,B|426:314|427:357|427:357|408:317|362:299,1,170,4|8,3:2|0:0,0:0:0:0:
206,245,44970,6,0,P|143:252|208:282,1,170,4|8,3:2|0:0,0:0:0:0:
322,177,45496,2,0,B|298:122|332:70|332:70|305:90|279:92,1,170,4|8,3:2|0:0,0:0:0:0:
403,131,46015,6,0,L|487:122,1,85,4|0,3:2|0:0,0:0:0:0:
360,262,46353,2,0,L|275:253,1,85,12|0,0:0|0:0,0:0:0:0:
451,275,46691,5,4,0:2:0:0:
451,275,46776,1,8,0:0:0:0:
451,275,46861,2,0,L|459:220,2,42.5,8|0|8,0:0|3:0|0:0,0:0:0:0:
379,179,47203,1,4,0:2:0:0:
379,179,47288,1,0,0:0:0:0:
379,179,47374,2,0,L|371:124,2,42.5,8|0|8,0:0|3:0|0:0,0:0:0:0:
469,146,47716,5,4,0:2:0:0:
469,146,47801,1,8,0:0:0:0:
469,146,47887,2,0,L|477:91,2,42.5,8|0|8,0:0|3:0|0:0,0:0:0:0:
397,50,48228,5,4,0:2:0:0:
397,50,48313,1,0,0:0:0:0:
397,50,48400,2,0,L|389:-5,2,42.5,8|0|8,0:0|3:0|0:0,0:0:0:0:
241,175,48742,6,0,P|199:174|161:156,1,85,12|0,0:0|0:0,0:0:0:0:
325,217,49084,2,0,B|335:302,1,85,4|0,3:2|0:0,0:0:0:0:
393,150,49426,6,0,B|381:46|381:46|389:16,1,136,4|0,3:1|0:0,0:0:0:0:
460,55,49938,1,0,0:0:0:0:
312,133,50109,2,0,P|244:142|177:132,1,136,2|0,0:0|0:0,0:0:0:0:
102,123,50622,1,0,0:0:0:0:
85,263,50793,6,0,P|79:229|87:197,1,68,2|0,0:0|0:0,0:0:0:0:
117,330,51134,2,0,P|83:337|51:329,1,68,0|0,0:0|0:0,0:0:0:0:
160,269,51476,2,0,P|183:294|191:327,2,68,0|0|2,0:0|0:0|0:3,0:0:0:0:
117,330,51989,1,0,0:0:0:0:
266,343,52160,6,0,P|259:276|223:219,1,136,2|0,0:0|0:0,0:0:0:0:
150,192,52673,1,0,0:0:0:0:
282,163,52843,2,0,B|349:139|347:182|415:165,1,136,2|0,0:0|0:0,0:0:0:0:
484,135,53356,1,2,0:0:0:0:
497,43,53527,5,2,0:3:0:0:
497,43,53699,1,2,0:3:0:0:
484,135,53872,1,2,0:3:0:0:
490,228,54045,1,2,0:3:0:0:
511,318,54218,2,0,L|470:338,3,42.5,8|0|0|0,3:2|3:2|3:2|3:2,0:0:0:0:
442,350,54564,5,12,0:0:0:0:
442,350,54911,6,0,B|404:358|404:358|353:348,1,85,4|0,0:2|0:0,0:0:0:0:
236,267,55252,2,0,B|285:254|285:254|404:267,1,170,8|2,0:0|3:0,0:0:0:0:
497,274,55765,1,0,3:0:0:0:
350,187,55936,2,0,P|341:145|349:104,1,85,8|0,0:0|0:0,0:0:0:0:
433,144,56277,5,4,3:0:0:0:
258,128,56448,1,0,3:0:0:0:
404,28,56620,2,0,B|352:34|352:34|234:25,1,170,8|0,0:0|3:0,0:0:0:0:
143,5,57131,1,0,3:0:0:0:
0,73,57302,2,0,P|41:65|83:72,1,85,8|8,0:0|0:0,0:0:0:0:
186,198,57644,6,0,P|228:205|270:197,1,85,4|0,0:0|3:0,0:0:0:0:
99,164,57986,2,0,B|90:197|90:197|110:295|110:295|101:329,1,170,8|2,0:0|3:0,0:0:0:0:
15,292,58499,1,0,3:0:0:0:
184,374,58670,2,0,L|205:291,1,85,8|0,0:0|0:0,0:0:0:0:
231,201,59011,5,2,3:0:0:0:
141,227,59182,1,0,3:0:0:0:
276,349,59352,2,0,P|318:358|364:345,1,85,8|0,0:0|0:0,0:0:0:0:
403,194,59694,2,0,L|421:278,1,85,4|0,3:0|3:0,0:0:0:0:
449,367,60036,1,8,0:0:0:0:
314,249,60207,1,8,0:0:0:0:
299,231,60292,1,0,0:0:0:0:
283,215,60377,6,0,B|226:198|226:198|176:231|122:201,1,170,4|8,0:2|0:0,0:0:0:0:
174,40,60893,2,0,P|183:81|172:122,1,85,2|2,0:2|3:0,0:0:0:0:
122,201,61237,1,0,3:0:0:0:
4,78,61409,2,0,B|32:72|32:72|88:79,1,85,8|2,0:0|0:2,0:0:0:0:
243,180,61753,6,0,P|268:100|262:16,1,170,2|8,3:0|0:0,0:0:0:0:
335,160,62269,2,0,L|432:152,1,85,2|0,0:2|3:0,0:0:0:0:
511,138,62613,1,0,3:0:0:0:
377,315,62785,2,0,P|364:275|373:233,1,85,8|2,0:0|0:2,0:0:0:0:
399,66,63129,6,0,L|483:59,1,85,4|0,0:2|3:0,0:0:0:0:
322,135,63473,1,8,0:0:0:0:
296,137,63559,1,0,0:0:0:0:
270,140,63645,1,0,3:0:0:0:
243,142,63731,1,0,3:0:0:0:
217,143,63817,6,0,L|226:50,1,85,4|8,0:2|0:0,0:0:0:0:
101,28,64161,1,8,0:0:0:0:
75,30,64247,1,0,0:0:0:0:
49,33,64333,1,8,0:0:0:0:
22,35,64419,1,0,3:0:0:0:
0,36,64505,6,0,L|6:123,1,85,4|8,0:2|0:0,0:0:0:0:
110,228,64849,1,8,3:2:0:0:
111,204,64935,1,0,0:0:0:0:
113,177,65021,1,0,0:0:0:0:
116,151,65107,1,0,0:0:0:0:
118,125,65193,6,0,L|172:124,3,42.5,8|0|8|0,3:2|0:0|3:0|3:0,0:0:0:0:
180,102,65537,2,0,L|234:101,3,42.5,0|0|0|0,3:0|3:0|3:0|3:0,0:0:0:0:
252,99,65881,6,0,L|237:195,1,85,4|0,3:2|0:0,0:0:0:0:
378,289,66223,2,0,L|405:121,1,170,8|2,0:0|3:0,0:0:0:0:
422,28,66738,1,0,3:0:0:0:
319,179,66927,2,0,P|279:192|238:182,1,85,8|0,0:0|0:0,0:0:0:0:
95,109,67264,6,0,P|137:100|177:113,1,85,4|0,3:0|0:0,0:0:0:0:
129,357,67608,2,0,B|115:317|115:317|132:271|132:271|118:234|133:195,1,170,8|0,0:0|3:0,0:0:0:0:
177,113,68126,1,0,3:0:0:0:
219,232,68298,1,8,0:0:0:0:
41,260,68470,1,8,0:0:0:0:
217,367,68643,6,0,P|258:370|297:353,1,85,4|0,0:2|3:0,0:0:0:0:
395,202,68985,2,0,B|379:329|379:329|389:370,1,170,8|2,0:0|3:0,0:0:0:0:
470,323,69499,1,0,3:0:0:0:
432,118,69670,2,0,B|396:111|396:111|348:117,1,85,8|0,0:0|0:0,0:0:0:0:
176,193,70013,6,0,B|140:200|140:200|92:193,1,85,2|0,3:0|3:0,0:0:0:0:
260,68,70355,2,0,B|267:198|267:198|258:238,1,170,8|0,0:0|3:0,0:0:0:0:
235,326,70873,1,0,3:0:0:0:
176,193,71046,1,8,0:0:0:0:
349,229,71209,1,8,0:0:0:0:
164,278,71373,6,0,B|127:290|127:290|39:270|39:270|0:279,1,170,4|8,0:2|0:0,0:0:0:0:
89,119,71888,2,0,P|117:150|126:191,1,85,2|2,0:2|3:0,0:0:0:0:
7,74,72231,1,0,3:0:0:0:
87,25,72403,2,0,P|128:30|161:56,1,85,8|2,0:0|0:2,0:0:0:0:
231,201,72747,6,0,P|229:116|262:39,1,170,4|8,3:0|0:0,0:0:0:0:
403,106,73262,2,0,L|487:106,1,85,2|2,0:2|3:3,0:0:0:0:
354,27,73605,1,0,3:0:0:0:
427,199,73777,2,0,L|512:199,1,85,8|2,0:0|0:2,0:0:0:0:
356,257,74121,6,0,P|334:205|347:150,2,113.333333333333,12|4|4,3:2|3:2|3:2,0:0:0:0:
385,81,74826,2,0,L|270:60,2,113.333333333333,8|4|0,3:2|3:2|3:0,0:0:0:0:
253,193,75534,6,0,L|137:214,2,113.333333333333,12|4|4,0:0|3:2|3:2,0:0:0:0:
171,43,76253,2,0,L|55:22,2,113.333333333333,8|8|8,0:2|0:0|0:0,0:0:0:0:
349,67,76973,6,0,B|390:78|390:78|466:54|466:54|512:65,1,170.000006484986,4|0,0:0|3:0,0:0:0:0:
465,165,77691,2,0,B|431:201|424:240|424:240|405:205|364:185,1,170.000006484986,8|0,0:0|3:0,0:0:0:0:
256,180,78410,6,0,P|209:237|276:249,1,170.000006484986,4|0,3:0|3:0,0:0:0:0:
325,348,79146,2,0,P|239:378|153:343,1,170.000006484986,8|0,0:0|3:0,0:0:0:0:
103,267,79882,6,0,B|141:244|180:248|180:248|157:205|111:191,1,170.000006484986,4|0,3:0|3:0,0:0:0:0:
34,115,80642,2,0,B|0:106|0:106|92:78|92:78|137:82,1,170.000006484986,8|0,0:0|3:0,0:0:0:0:
237,123,81403,5,6,3:0:0:0:
331,203,81661,1,2,3:0:0:0:
353,325,81920,1,2,3:0:0:0:
358,81,82179,5,8,0:2:0:0:
214,246,82438,1,2,3:0:0:0:
448,243,82696,1,8,3:2:0:0:
237,123,82956,6,0,L|180:117,1,56.6666666666667,4|0,3:2|0:0,0:0:0:0:
313,159,83226,2,0,P|321:133|320:104,1,56.6666666666667,0|0,3:0|0:0,0:0:0:0:
245,211,83497,2,0,P|236:242|241:276,1,56.6666666666667,0|0,3:0|0:0,0:0:0:0:
379,254,83768,6,0,L|323:249,1,56.6666666666667,4|0,3:3|0:0,0:0:0:0:
240,334,84034,2,0,L|297:329,1,56.6666666666667,4|0,3:3|0:0,0:0:0:0:
393,240,84301,2,0,L|336:234,1,56.6666666666667,4|0,3:3|0:0,0:0:0:0:
226,157,84567,6,0,L|283:152,1,56.6666666666667,4|0,0:2|0:0,0:0:0:0:
157,89,84830,2,0,L|180:37,1,56.6666666666667,8|0,0:0|0:0,0:0:0:0:
63,113,85094,2,0,L|30:66,1,56.6666666666667,8|0,0:0|0:0,0:0:0:0:
62,201,85358,6,0,L|30:247,1,56.6666666666667,12|0,0:2|0:0,0:0:0:0:
156,225,85624,2,0,L|179:276,1,56.6666666666667,8|0,0:0|0:0,0:0:0:0:
226,157,85889,2,0,L|282:162,1,56.6666666666667,8|0,0:0|0:0,0:0:0:0:
315,303,86154,5,12,3:2:0:0:
