osu file format v14

[General]
AudioFilename: audio.mp3
AudioLeadIn: 0
PreviewTime: 5272
Countdown: 0
SampleSet: None
StackLeniency: 0.7
Mode: 0
LetterboxInBreaks: 0
WidescreenStoryboard: 0

[Editor]
Bookmarks: 30,86154
DistanceSpacing: 1.2
BeatDivisor: 4
GridSize: 4
TimelineZoom: 1

[Metadata]
Title:Haruka Kanata
TitleUnicode:遥か彼方
Artist:ASIAN KUNG-FU GENERATION
ArtistUnicode:ASIAN KUNG-FU GENERATION
Creator:Monstrata
Version:Gero's Hard
Source:NARUTO -ナルト-
Tags:naruto uzumaki sasuke uchiha sakura haruno kakashi hatake opening two 2 tv size kungfu musty -sh1n1- sh1n1 shini neoskylove gero alacat lit120 -hakurei-
BeatmapID:1427479
BeatmapSetID:632128

[Difficulty]
HPDrainRate:5
CircleSize:3.5
OverallDifficulty:6.5
ApproachRate:8
SliderMultiplier:1.6
SliderTickRate:1

[Events]
//Background and Video events
0,0,"harukacanada.png",0,0
//Break Periods
//Storyboard Layer 0 (Background)
//Storyboard Layer 1 (Fail)
//Storyboard Layer 2 (Pass)
//Storyboard Layer 3 (Foreground)
//Storyboard Sound Samples

[TimingPoints]
30,342.857142857143,4,3,0,70,1,0
4498,346.820809248555,4,3,0,70,1,0
4844,342.857142857143,4,3,0,70,1,0
5534,343.347639484979,4,3,0,70,1,0
11027,342.270393610953,4,3,0,70,1,0
16161,357.142857142857,4,3,0,70,1,0
16518,341.782967815437,4,3,0,70,1,0
20961,335.195530726257,4,3,0,70,1,0
21631,355.029585798817,4,3,0,70,1,0
21986,342.857142857143,4,3,0,70,1,0
26100,341.296928327645,4,3,0,70,1,0
27481,342.857142857143,4,3,0,70,1,0
38452,341.782967815437,4,3,0,70,1,0
43920,350.262697022767,4,3,0,70,1,0
45846,338.028169014084,4,3,0,70,1,0
46691,341.880341880342,4,3,0,70,1,0
49426,341.782967815437,4,3,0,70,1,0
49426,-142.857142857143,4,3,0,70,0,0
53527,345.821325648415,4,3,0,70,1,0
54218,346.820809248555,4,3,0,70,1,0
54911,341.685649202733,4,3,0,70,1,1
60377,344.036697247706,4,3,0,70,1,1
65881,342.857142857143,4,3,0,70,1,1
66927,337.078651685393,4,3,0,70,1,1
67264,344.827586206897,4,3,0,70,1,1
68643,342.563516985441,4,3,0,70,1,1
70355,345.821325648415,4,3,0,70,1,1
71046,327.868852459016,4,3,0,70,1,1
71373,343.544231319782,4,3,0,70,1,1
74121,352.941176470588,4,3,0,70,1,0
75534,359.928014397121,4,3,0,70,1,0
76973,359.281437125748,4,3,0,70,1,0
76973,-133.333333333333,4,3,0,70,0,0
78410,368.098159509202,4,3,0,70,1,0
78410,-133.333333333333,4,3,0,70,0,0
79882,380.469245402663,4,3,0,70,1,0
79882,-133.333333333333,4,3,0,70,0,0
81403,388.349514563107,4,3,0,70,1,0
81403,-133.333333333333,4,3,0,70,0,0
82956,406.2288422478,4,3,0,70,1,0
83768,399.866711096301,4,3,0,70,1,0
84567,395.5174686882,4,3,0,70,1,0
85358,398.406374501992,4,3,0,70,1,0
86154,399.866711096301,4,3,0,70,1,0

[Colours]
Combo1 : 152,194,158
Combo2 : 255,170,255
Combo3 : 255,175,96
Combo4 : 170,170,213

[HitObjects]
184,192,30,6,0,P|256:222|328:192,1,160,4|0,1:0|1:0,0:0:0:0:
256,128,544,1,0,0:0:0:0:
328,64,715,2,0,B|366:51|366:51|404:64,1,80,4|4,0:0|0:0,0:0:0:0:
476,128,1058,1,0,1:0:0:0:
404,192,1230,6,0,B|366:205|366:205|328:192,2,80,4|0|4,0:0|0:0|0:0,0:0:0:0:
476,128,1744,2,0,B|512:152|520:192|520:192|512:232|476:256,1,160,0|4,1:0|0:0,0:0:0:0:
404,320,2258,1,4,0:0:0:0:
332,256,2430,1,0,1:0:0:0:
404,192,2601,1,0,0:0:0:0:
332,256,2772,6,0,B|256:232|256:232|180:256,1,160,4|0,1:0|1:0,0:0:0:0:
108,192,3287,1,0,0:0:0:0:
179,127,3458,2,0,B|208:99|208:99|208:59,1,80,4|4,0:0|0:0,0:0:0:0:
304,59,3801,2,0,B|304:99|304:99|332:127,1,80,0|4,1:0|0:0,0:0:0:0:
404,192,4144,1,0,0:0:0:0:
332,127,4315,1,4,0:0:0:0:
404,192,4498,6,0,P|442:203|480:192,1,80,0|4,1:0|0:0,0:0:0:0:
332,256,4844,2,0,P|294:245|256:256,1,80,4|4,0:0|0:0,0:0:0:0:
76,192,5358,5,0,0:0:0:0:
76,192,5529,5,4,1:0:0:0:
8,124,5705,1,0,0:0:0:0:
8,124,5791,1,0,0:0:0:0:
8,124,5877,1,2,1:2:0:0:
76,56,6049,1,0,0:0:0:0:
144,124,6220,2,0,B|144:164|180:192|180:192|144:220|144:260,1,160,0|2,1:0|1:2,0:0:0:0:
212,328,6735,1,0,0:0:0:0:
280,260,6907,6,0,P|316:192|280:124,1,160,0|2,1:0|1:2,0:0:0:0:
212,56,7422,1,0,0:0:0:0:
212,56,7508,1,0,0:0:0:0:
212,56,7594,1,0,1:0:0:0:
280,124,7765,1,0,0:0:0:0:
349,55,7937,2,0,P|387:44|425:55,1,80,2|0,1:2|0:0,0:0:0:0:
493,124,8280,5,0,1:0:0:0:
425,192,8452,1,0,0:0:0:0:
425,192,8538,1,0,0:0:0:0:
425,192,8624,1,2,1:2:0:0:
493,260,8795,1,0,0:0:0:0:
424,329,8967,2,0,B|394:298|386:260|386:260|378:298|348:329,1,160,0|2,1:0|1:2,0:0:0:0:
280,260,9482,1,0,0:0:0:0:
346,192,9654,6,0,P|332:155|303:128,1,80,0|0,1:0|0:0,0:0:0:0:
209,127,9997,2,0,P|180:154|166:192,1,80,2|0,1:2|0:0,0:0:0:0:
232,260,10340,6,0,B|232:280|232:280|225:298,3,40,4|4|4|4,0:0|0:0|0:0|0:0,0:0:0:0:
286,298,10684,2,0,B|280:280|280:280|280:260,3,40,4|4|4|4,0:0|0:0|0:0|0:0,0:0:0:0:
256,224,11027,5,4,1:0:0:0:
346,192,11198,1,0,0:0:0:0:
280,124,11369,2,0,B|256:92|256:92|232:124,1,80,2|0,1:2|0:0,0:0:0:0:
166,192,11711,1,4,0:0:0:0:
256,20,12053,1,2,1:2:0:0:
346,192,12396,5,4,1:0:0:0:
280,260,12567,1,0,0:0:0:0:
280,260,12738,2,0,B|256:292|256:292|232:260,1,80,2|0,1:2|0:0,0:0:0:0:
166,192,13080,1,4,0:0:0:0:
256,364,13422,1,2,1:2:0:0:
346,192,13765,6,0,P|376:120|346:48,1,160,4|2,1:0|1:2,0:0:0:0:
256,20,14278,1,0,0:0:0:0:
166,48,14449,2,0,P|136:120|166:192,1,160,4|2,0:0|1:2,0:0:0:0:
256,220,14963,1,0,0:0:0:0:
346,192,15134,6,0,L|402:248,1,80,4|0,0:0|0:0,0:0:0:0:
166,192,15476,2,0,L|109:248,1,80,6|0,1:2|0:0,0:0:0:0:
256,220,15818,2,0,B|256:267|256:267|252:275|252:275|260:275|260:275|256:283|256:283|256:330,1,120,4|4,0:0|0:0,0:0:0:0:
256,376,16161,1,6,1:2:0:0:
328,300,16339,1,0,0:0:0:0:
436,192,16518,5,4,1:0:0:0:
504,124,16688,1,0,0:0:0:0:
504,124,16774,1,0,0:0:0:0:
504,124,16859,1,2,1:2:0:0:
436,56,17030,1,0,0:0:0:0:
368,124,17201,2,0,B|368:164|332:192|332:192|368:220|368:260,1,160,0|2,1:0|1:2,0:0:0:0:
300,328,17714,1,0,0:0:0:0:
232,260,17885,6,0,P|196:192|232:124,1,160,0|2,1:0|1:2,0:0:0:0:
300,56,18397,1,0,0:0:0:0:
300,56,18483,1,0,0:0:0:0:
300,56,18568,1,0,1:0:0:0:
232,124,18739,1,0,0:0:0:0:
163,55,18910,2,0,P|125:44|87:55,1,80,2|0,1:2|0:0,0:0:0:0:
19,124,19252,5,0,1:0:0:0:
87,192,19423,1,0,0:0:0:0:
87,192,19508,1,0,0:0:0:0:
87,192,19594,1,2,1:2:0:0:
19,260,19764,1,0,0:0:0:0:
88,329,19935,2,0,B|118:298|126:260|126:260|134:298|164:329,1,160,0|2,1:0|1:2,0:0:0:0:
232,260,20448,1,0,0:0:0:0:
166,192,20619,6,0,P|180:155|209:128,1,80,0|0,1:0|0:0,0:0:0:0:
303,127,20961,2,0,P|332:154|346:192,1,80,2|0,1:2|0:0,0:0:0:0:
280,260,21296,6,0,B|280:280|280:280|286:298,3,40,4|4|4|4,0:0|0:0|0:0|0:0,0:0:0:0:
225,298,21631,2,0,B|232:280|232:280|232:260,3,40,4|4|4|4,0:0|0:0|0:0|0:0,0:0:0:0:
256,224,21986,5,4,1:0:0:0:
166,192,22157,1,0,0:0:0:0:
232,124,22328,2,0,B|256:92|256:92|280:124,1,80,2|0,1:2|0:0,0:0:0:0:
346,192,22671,1,4,0:0:0:0:
256,20,23014,1,2,1:2:0:0:
166,192,23357,5,4,1:0:0:0:
232,260,23528,1,0,0:0:0:0:
232,260,23700,2,0,B|256:292|256:292|280:260,1,80,2|0,1:2|0:0,0:0:0:0:
346,192,24043,1,4,0:0:0:0:
256,364,24386,1,2,1:2:0:0:
166,192,24728,6,0,P|136:120|166:48,1,160,4|2,1:0|1:2,0:0:0:0:
256,20,25243,1,0,0:0:0:0:
346,48,25414,2,0,P|376:120|346:192,1,160,4|2,0:0|1:2,0:0:0:0:
256,220,25928,1,0,0:0:0:0:
166,192,26100,6,0,L|110:248,1,80,4|0,0:0|0:0,0:0:0:0:
346,192,26441,2,0,L|403:248,1,80,6|0,1:2|0:0,0:0:0:0:
256,220,26782,6,0,B|256:267|256:267|260:275|260:275|252:275|252:275|256:283|256:283|256:330,1,120,4|4,0:0|0:0,0:0:0:0:
256,376,27123,1,6,1:2:0:0:
184,300,27294,1,0,0:0:0:0:
76,192,27481,5,6,1:0:0:0:
256,104,27823,1,2,1:1:0:0:
436,192,28166,1,2,1:1:0:0:
256,280,28509,1,2,1:0:0:0:
256,280,28681,1,0,0:0:0:0:
256,280,28852,5,2,1:0:0:0:
436,192,29195,1,2,1:0:0:0:
256,104,29538,1,2,1:0:0:0:
76,192,29881,1,2,1:0:0:0:
256,280,30223,5,2,1:0:0:0:
168,108,30566,1,2,1:0:0:0:
340,192,30909,1,2,1:0:0:0:
172,192,31252,1,2,1:0:0:0:
172,192,31423,1,0,0:0:0:0:
172,192,31595,5,2,1:0:0:0:
256,20,31937,1,2,1:0:0:0:
340,192,32280,1,2,1:0:0:0:
256,364,32623,1,2,1:0:0:0:
340,192,32966,5,2,1:0:0:0:
256,20,33309,1,2,1:0:0:0:
172,192,33652,1,2,1:0:0:0:
344,108,33995,1,2,1:0:0:0:
256,280,34338,5,2,1:0:0:0:
168,108,34681,1,2,1:0:0:0:
256,280,35023,1,2,1:0:0:0:
344,108,35366,1,2,1:0:0:0:
172,192,35709,6,0,B|105:192|105:192|97:196|97:196|97:188|97:188|89:192|89:192|22:192,2,160,2|2|2,1:0|1:0|1:0,0:0:0:0:
256,364,36738,1,2,1:0:0:0:
340,192,37081,2,0,B|407:192|407:192|415:196|415:196|415:188|415:188|423:192|423:192|490:192,2,160,2|2|2,1:0|1:0|1:0,0:0:0:0:
256,148,37938,1,4,1:3:0:0:
172,192,38109,1,4,1:3:0:0:
172,192,38452,6,0,P|142:120|172:48,1,160,6|2,1:0|1:0,0:0:0:0:
340,192,39135,2,0,P|370:264|340:336,1,160,2|2,1:0|1:0,0:0:0:0:
256,288,39648,1,0,0:0:0:0:
171,335,39819,5,2,1:0:0:0:
44,192,40160,1,2,1:0:0:0:
171,48,40502,1,2,1:0:0:0:
44,192,40844,1,2,1:0:0:0:
171,48,41186,6,0,B|216:48|216:48|276:48|311:102,1,160,2|2,1:0|1:0,0:0:0:0:
311,281,41869,2,0,B|276:336|216:336|216:336|171:336,1,160,2|2,1:0|1:0,0:0:0:0:
108,264,42382,1,0,0:0:0:0:
44,192,42553,5,2,1:0:0:0:
256,192,42895,1,2,1:0:0:0:
468,192,43236,2,0,B|490:192|490:192|498:185|498:185|498:199|498:199|506:192|506:192|528:192,2,80,2|0|2,1:0|0:0|1:0,0:0:0:0:
362,31,43920,6,0,B|304:52|304:116|304:116|304:165,1,160,4|2,1:0|1:2,0:0:0:0:
256,248,44445,1,4,1:0:0:0:
256,248,44795,1,2,1:2:0:0:
208,165,44970,2,0,B|208:116|208:116|208:52|150:31,1,160,4|2,1:0|1:2,0:0:0:0:
81,99,45496,1,4,1:0:0:0:
81,99,45846,5,2,1:2:0:0:
12,32,46015,1,4,1:0:0:0:
81,210,46353,1,2,1:2:0:0:
150,353,46691,6,0,B|208:332|208:268|208:268|208:219,1,160,4|2,1:0|1:2,0:0:0:0:
256,136,47203,1,4,1:0:0:0:
256,136,47545,1,2,1:2:0:0:
304,219,47716,2,0,B|304:268|304:268|304:332|362:353,1,160,4|2,1:0|1:2,0:0:0:0:
431,285,48229,1,4,1:0:0:0:
431,285,48571,5,2,1:2:0:0:
500,352,48742,1,4,1:0:0:0:
431,174,49084,1,2,1:2:0:0:
500,32,49426,5,4,1:0:0:0:
256,192,49511,12,2,53527,0:0:0:0:
256,280,54218,5,4,0:0:0:0:
256,280,54304,1,4,0:0:0:0:
256,280,54391,1,4,0:0:0:0:
220,192,54564,2,0,B|256:175|256:175|292:192,1,80,2|4,1:2|0:0,0:0:0:0:
328,104,54911,6,0,P|256:74|184:104,1,160,4|2,1:0|1:2,0:0:0:0:
116,35,55423,1,0,0:0:0:0:
48,104,55594,2,0,L|115:249,1,160,4|2,0:0|1:2,0:0:0:0:
184,104,56277,6,0,P|256:74|328:104,1,160,4|2,0:0|1:2,0:0:0:0:
396,35,56789,1,0,0:0:0:0:
464,104,56961,2,0,L|396:249,1,160,4|2,0:0|1:2,0:0:0:0:
464,317,57473,1,2,1:2:0:0:
396,249,57644,6,0,B|340:249|340:249|288:249|256:302,1,160,4|2,1:0|1:2,0:0:0:0:
187,365,58157,1,0,0:0:0:0:
116,301,58327,2,0,B|77:301|77:301|48:330,2,80,4|0|2,0:0|0:0|1:2,0:0:0:0:
116,135,59011,6,0,B|172:135|172:135|224:135|256:82,1,160,4|2,0:0|1:2,0:0:0:0:
325,19,59523,1,0,0:0:0:0:
396,83,59694,2,0,B|435:83|435:83|464:54,2,80,4|0|2,0:0|0:0|1:2,0:0:0:0:
325,147,60207,1,2,1:2:0:0:
396,211,60377,6,0,L|476:211,2,80,4|0|2,1:0|0:0|1:2,0:0:0:0:
325,275,60893,2,0,B|256:315|256:315|187:275,1,160,4|4,0:0|0:0,0:0:0:0:
116,211,61409,1,2,1:2:0:0:
187,275,61581,1,0,0:0:0:0:
116,211,61753,6,0,P|143:136|205:88,1,160,4|2,1:0|1:2,0:0:0:0:
306,88,62269,2,0,P|368:136|396:211,1,160,4|4,0:0|0:0,0:0:0:0:
325,275,62785,1,2,1:2:0:0:
396,211,62957,1,0,0:0:0:0:
467,275,63129,5,4,1:0:0:0:
396,339,63301,2,0,L|367:367,4,40,8|8|8|8|8,0:0|0:0|0:0|0:0|0:0,0:0:0:0:
325,275,63817,2,0,L|296:303,4,40,4|8|8|8|8,1:0|0:0|0:0|0:0|0:0,0:0:0:0:
396,211,64333,6,0,L|218:372,1,240,4|14,1:0|0:0,0:0:0:0:
184,280,65021,1,6,0:0:0:0:
184,280,65107,1,6,0:0:0:0:
184,280,65193,1,14,0:0:0:0:
216,192,65365,5,6,0:0:0:0:
216,192,65451,1,6,0:0:0:0:
216,192,65537,2,0,L|199:155,3,40,4|4|4|4,0:0|0:0|0:0|0:0,0:0:0:0:
184,104,65881,6,0,P|256:74|328:104,1,160,4|2,1:0|1:2,0:0:0:0:
396,35,66395,1,0,0:0:0:0:
464,104,66566,2,0,L|393:257,1,169,4|2,0:0|1:2,0:0:0:0:
328,104,67264,6,0,P|256:74|184:104,1,160,4|2,0:0|1:2,0:0:0:0:
116,35,67781,1,0,0:0:0:0:
48,104,67953,2,0,L|116:249,1,160,4|2,0:0|1:2,0:0:0:0:
48,317,68470,1,2,1:2:0:0:
116,249,68643,6,0,B|172:249|172:249|224:249|256:302,1,160,4|2,1:0|1:2,0:0:0:0:
325,365,69156,1,0,0:0:0:0:
396,301,69328,2,0,B|435:301|435:301|464:330,2,80,4|0|2,0:0|0:0|1:2,0:0:0:0:
396,135,70013,6,0,B|340:135|340:135|288:135|256:82,1,160,4|2,0:0|1:2,0:0:0:0:
187,19,70527,1,0,0:0:0:0:
116,83,70700,2,0,B|77:83|77:83|48:54,2,80,4|0|2,0:0|0:0|1:2,0:0:0:0:
187,147,71209,1,2,1:2:0:0:
116,211,71373,6,0,L|36:211,2,80,4|0|2,1:0|0:0|1:2,0:0:0:0:
187,275,71888,2,0,B|256:315|256:315|325:275,1,160,4|4,0:0|0:0,0:0:0:0:
396,211,72403,1,2,1:2:0:0:
325,275,72575,1,0,0:0:0:0:
396,211,72747,6,0,P|369:136|307:88,1,160,4|2,1:0|1:2,0:0:0:0:
206,88,73262,2,0,P|144:136|116:211,1,160,4|4,0:0|0:0,0:0:0:0:
187,275,73777,1,2,1:2:0:0:
116,211,73949,1,0,0:0:0:0:
187,275,74121,6,0,P|203:325|187:375,2,106.666666666667,4|4|4,1:0|1:0|1:0,0:0:0:0:
256,168,74826,2,0,B|256:128|256:128|260:120|260:120|252:120|252:120|256:112|256:112|256:72,2,106.666666666667,4|4|4,1:0|1:0|1:0,0:0:0:0:
325,275,75534,2,0,P|309:325|325:375,2,106.666666666667,4|4|4,1:0|1:0|1:0,0:0:0:0:
394,168,76253,2,0,B|394:128|394:128|390:120|390:120|398:120|398:120|394:112|394:112|394:72,2,106.666666666667,6|4|6,1:0|1:0|1:0,0:0:0:0:
463,275,76973,6,0,B|454:332|394:368|394:368|334:332|325:275,1,240.000009155274,4|2,1:0|1:2,0:0:0:0:
463,109,78410,2,0,B|454:52|394:16|394:16|334:52|325:109,1,240.000009155274,4|2,0:0|1:2,0:0:0:0:
49,275,79882,6,0,B|58:332|118:368|118:368|178:332|187:275,1,240.000009155274,4|2,0:0|1:2,0:0:0:0:
49,109,81403,2,0,B|58:52|118:16|118:16|178:52|187:109,1,240.000009155274,4|2,0:0|1:2,0:0:0:0:
256,192,82956,12,4,86154,1:0:0:0:
