osu file format v14

[General]
AudioFilename: audio.mp3
AudioLeadIn: 0
PreviewTime: 5272
Countdown: 0
SampleSet: Normal
StackLeniency: 0.7
Mode: 0
LetterboxInBreaks: 0
WidescreenStoryboard: 0

[Editor]
DistanceSpacing: 1.1
BeatDivisor: 4
GridSize: 4
TimelineZoom: 3.599999

[Metadata]
Title:Haruka Kanata
TitleUnicode:遥か彼方
Artist:ASIAN KUNG-FU GENERATION
ArtistUnicode:ASIAN KUNG-FU GENERATION
Creator:Monstrata
Version:Kage Bunshin
Source:NARUTO -ナルト-
Tags:naruto uzumaki sasuke uchiha sakura haruno kakashi hatake opening two 2 tv size kungfu musty -sh1n1- sh1n1 shini neoskylove gero alacat lit120 -hakurei-
BeatmapID:1341957
BeatmapSetID:632128

[Difficulty]
HPDrainRate:6
CircleSize:4
OverallDifficulty:8
ApproachRate:9
SliderMultiplier:1.76
SliderTickRate:1

[Events]
//Background and Video events
0,0,"harukacanada.png",0,0
//Break Periods
//Storyboard Layer 0 (Background)
//Storyboard Layer 1 (Fail)
//Storyboard Layer 2 (Pass)
//Storyboard Layer 3 (Foreground)
//Storyboard Sound Samples

[TimingPoints]
30,342.857142857143,4,1,2,60,1,0
4498,346.820809248555,4,1,2,65,1,0
4844,342.857142857143,4,1,2,70,1,0
5534,343.347639484979,4,2,2,50,1,0
11027,342.270393610953,4,1,2,60,1,0
16161,357.142857142857,4,1,2,55,1,0
16518,341.782967815437,4,2,2,50,1,0
20961,335.195530726257,4,2,2,55,1,0
21631,355.029585798817,4,2,2,57,1,0
21986,342.857142857143,4,1,2,60,1,0
26100,341.296928327645,4,1,2,55,1,0
27481,342.857142857143,4,2,2,60,1,0
38452,341.782967815437,4,2,2,60,1,0
43920,350.262697022767,4,2,2,55,1,0
45846,338.028169014084,4,2,2,60,1,0
46691,341.880341880342,4,2,2,60,1,0
48742,-100,4,2,2,60,0,0
49426,341.782967815437,4,2,2,45,1,0
53527,345.821325648415,4,2,2,55,1,0
54218,346.820809248555,4,2,2,65,1,0
54911,341.685649202733,4,1,2,70,1,1
60377,344.036697247706,4,1,2,70,1,1
65881,342.857142857143,4,1,2,70,1,1
66927,337.078651685393,4,1,2,70,1,1
67264,344.827586206897,4,1,2,70,1,1
68643,342.563516985441,4,1,2,70,1,1
70355,345.821325648415,4,1,2,70,1,1
71046,327.868852459016,4,1,2,70,1,1
71373,343.544231319782,4,1,2,70,1,1
74121,352.941176470588,4,1,2,75,1,0
75534,359.928014397121,4,1,2,70,1,0
76973,359.281437125748,4,2,2,55,1,0
76973,-133.333333333333,4,2,2,55,0,0
78410,368.098159509202,4,2,2,55,1,0
78410,-133.333333333333,4,2,2,55,0,0
79882,380.469245402663,4,2,2,55,1,0
79882,-133.333333333333,4,2,2,55,0,0
81403,388.349514563107,4,2,2,50,1,0
82956,406.2288422478,4,1,2,55,1,0
83768,399.866711096301,4,1,2,60,1,0
84567,395.5174686882,4,1,2,65,1,0
85358,398.406374501992,4,1,2,70,1,0
86154,399.866711096301,4,1,2,70,1,0

[Colours]
Combo1 : 152,194,158
Combo2 : 255,170,255
Combo3 : 255,175,96
Combo4 : 170,170,213

[HitObjects]
343,311,30,6,0,L|429:297,1,88,4|0,0:2|0:0,0:0:0:0:
232,173,372,2,0,L|145:186,1,88,8|0,0:2|0:0,0:0:0:0:
287,241,715,1,0,3:0:0:0:
177,104,887,1,0,3:0:0:0:
113,267,1058,1,8,0:2:0:0:
319,160,1230,6,0,P|348:112|347:64,1,88,2|0,0:2|0:0,0:0:0:0:
177,104,1572,1,0,3:0:0:0:
287,241,1744,2,0,P|343:242|384:217,1,88,8|0,0:0|0:0,0:0:0:0:
263,90,2087,1,0,3:0:0:0:
201,255,2258,1,0,3:0:0:0:
370,228,2430,2,0,L|475:212,1,88,8|0,0:0|0:0,0:0:0:0:
255,321,2772,6,0,P|205:339|158:331,1,88,4|0,0:2|0:0,0:0:0:0:
183,103,3115,2,0,P|223:137|237:182,1,88,8|0,0:0|0:0,0:0:0:0:
59,196,3458,1,0,3:0:0:0:
128,32,3630,1,0,3:0:0:0:
235,169,3801,1,8,0:0:0:0:
59,196,3972,6,0,L|-28:185,1,88,2|0,0:2|0:0,0:0:0:0:
128,32,4315,1,0,3:0:0:0:
282,239,4498,2,0,L|369:228,1,88,8|0,0:0|0:0,0:0:0:0:
211,24,4844,5,8,0:0:0:0:
160,335,5015,1,8,0:0:0:0:
291,215,5534,6,0,L|184:235,1,88,4|2,0:2|0:3,0:0:0:0:
141,171,5791,1,2,3:0:0:0:
141,171,5877,2,0,L|34:191,1,88,8|2,0:0|0:3,0:0:0:0:
48,271,6134,1,2,3:0:0:0:
48,271,6220,2,0,P|62:211|43:169,1,88,4|2,3:0|0:3,0:0:0:0:
148,88,6478,1,2,3:0:0:0:
148,88,6564,2,0,P|134:148|153:190,1,88,8|2,0:0|0:3,0:0:0:0:
296,182,6821,1,2,3:0:0:0:
296,182,6907,6,0,P|310:122|291:80,1,88,4|2,3:0|0:3,0:0:0:0:
219,224,7164,1,2,3:0:0:0:
219,224,7250,2,0,P|263:266|309:270,1,88,8|2,0:0|0:3,0:0:0:0:
222,135,7508,1,2,3:0:0:0:
222,135,7594,2,0,L|119:144,1,88,4|2,3:0|0:3,0:0:0:0:
296,182,7851,1,2,3:0:0:0:
296,182,7937,2,0,P|310:122|291:80,1,88,8|2,0:0|0:3,0:0:0:0:
60,96,8194,1,2,3:0:0:0:
60,96,8280,6,0,P|46:156|65:198,1,88,4|2,3:0|0:3,0:0:0:0:
61,268,8538,1,2,3:0:0:0:
61,268,8624,2,0,P|102:253|132:220,1,88,8|2,0:0|0:3,0:0:0:0:
236,303,8881,1,2,3:0:0:0:
236,303,8967,2,0,P|195:318|165:351,1,88,4|2,3:0|0:3,0:0:0:0:
316,339,9224,1,2,3:0:0:0:
316,339,9310,2,0,P|323:295|309:254,1,88,8|2,0:0|0:3,0:0:0:0:
223,129,9568,1,2,3:0:0:0:
223,129,9654,6,0,P|216:172|230:214,1,88,4|2,3:0|0:3,0:0:0:0:
390,168,9911,1,2,3:0:0:0:
390,168,9997,2,0,L|303:165,1,88,8|0,0:0|1:0,0:0:0:0:
156,262,10255,1,0,1:0:0:0:
156,262,10340,6,0,L|158:327,1,44,8|8,0:0|0:0,0:0:0:0:
231,257,10512,2,0,L|228:191,1,44,8|8,0:0|0:0,0:0:0:0:
148,129,10684,2,0,L|150:194,1,44,8|0,0:0|0:0,0:0:0:0:
221,120,10856,2,0,L|218:54,1,44,0|8,1:0|0:0,0:0:0:0:
70,88,11027,6,0,L|73:176,1,88,4|0,0:2|0:0,0:0:0:0:
287,35,11369,2,0,P|253:5|209:-2,1,88,8|0,0:0|0:0,0:0:0:0:
373,218,11711,2,0,P|414:203|442:170,1,88,2|0,3:0|3:0,0:0:0:0:
220,77,12053,2,0,L|216:164,1,88,8|0,0:0|0:0,0:0:0:0:
369,306,12396,6,0,L|372:218,1,88,4|0,0:2|0:0,0:0:0:0:
218,295,12738,2,0,P|246:328|296:343,1,88,8|0,0:0|0:0,0:0:0:0:
223,210,13080,1,0,3:0:0:0:
71,284,13251,1,0,3:0:0:0:
294,258,13422,2,0,P|308:216|296:165,1,88,8|0,0:0|0:0,0:0:0:0:
87,29,13765,6,0,P|75:70|94:130,1,88,4|0,0:2|0:0,0:0:0:0:
251,66,14107,2,0,L|164:75,1,88,8|0,0:0|0:0,0:0:0:0:
294,258,14449,2,0,L|381:249,1,88,2|0,3:0|3:0,0:0:0:0:
251,66,14791,1,8,0:0:0:0:
114,297,14963,6,0,L|26:288,1,88,2|4,0:2|3:0,0:0:0:0:
215,146,15305,1,0,3:0:0:0:
290,361,15476,2,0,L|377:352,1,88,12|0,0:2|0:0,0:0:0:0:
302,137,15818,1,8,3:0:0:0:
300,158,15903,1,0,3:0:0:0:
299,180,15989,1,0,3:0:0:0:
298,202,16074,1,0,3:0:0:0:
297,224,16161,2,0,L|312:307,1,44,8|0,0:0|3:0,0:0:0:0:
390,164,16339,2,0,L|375:81,1,44,0|0,3:0|3:0,0:0:0:0:
306,49,16518,6,0,L|299:175,1,88,4|2,0:0|0:3,0:0:0:0:
218,168,16774,1,2,3:0:0:0:
218,168,16859,2,0,L|225:294,1,88,8|2,0:0|0:3,0:0:0:0:
131,323,17116,1,2,3:0:0:0:
131,323,17201,2,0,L|136:236,1,88,4|2,3:0|0:3,0:0:0:0:
61,187,17457,1,2,3:0:0:0:
61,187,17543,2,0,P|97:156|144:147,1,88,8|2,0:0|0:3,0:0:0:0:
212,22,17799,1,2,3:0:0:0:
212,22,17885,6,0,P|180:52|138:63,1,88,4|2,3:0|0:3,0:0:0:0:
296,38,18141,1,2,3:0:0:0:
296,38,18226,2,0,L|416:54,1,88,8|2,0:0|0:3,0:0:0:0:
367,175,18483,1,2,3:0:0:0:
367,175,18568,2,0,L|279:163,1,88,4|2,3:0|0:3,0:0:0:0:
447,136,18825,1,2,3:0:0:0:
447,136,18910,2,0,P|456:178|444:220,1,88,8|2,0:0|0:3,0:0:0:0:
483,300,19166,1,2,3:0:0:0:
483,300,19252,6,0,P|440:309|398:297,1,88,4|2,3:0|0:3,0:0:0:0:
319,336,19508,1,2,3:0:0:0:
319,336,19594,2,0,P|309:293|321:251,1,88,8|2,0:0|0:3,0:0:0:0:
193,336,19849,1,2,3:0:0:0:
193,336,19935,2,0,P|202:293|190:251,1,88,4|2,3:0|0:3,0:0:0:0:
29,300,20192,1,2,3:0:0:0:
29,300,20277,2,0,P|71:309|113:297,1,88,8|2,0:0|0:3,0:0:0:0:
229,172,20533,1,2,3:0:0:0:
229,172,20619,6,0,P|186:162|144:174,1,88,4|2,3:0|0:3,0:0:0:0:
321,250,20875,1,2,3:0:0:0:
321,250,20961,2,0,P|363:260|405:248,1,88,8|0,0:0|1:3,0:0:0:0:
360,130,21212,1,0,1:0:0:0:
360,130,21296,2,0,L|363:174,1,44,8|8,0:0|0:0,0:0:0:0:
450,181,21463,2,0,L|447:137,1,44,8|8,0:0|0:0,0:0:0:0:
344,55,21631,2,0,L|346:98,1,44,8|0,0:0|0:0,0:0:0:0:
434,106,21808,2,0,L|431:62,1,44,0|8,1:0|0:0,0:0:0:0:
262,48,21986,6,0,L|145:58,1,88,4|0,0:2|0:0,0:0:0:0:
287,284,22328,2,0,L|374:276,1,88,8|0,0:0|0:0,0:0:0:0:
190,139,22671,1,2,3:0:0:0:
113,296,22843,1,0,3:0:0:0:
287,284,23014,2,0,P|317:249|325:205,1,88,8|0,0:0|0:0,0:0:0:0:
144,67,23357,6,0,P|114:102|106:146,1,88,4|0,0:2|0:0,0:0:0:0:
317,120,23700,2,0,L|237:84,1,88,8|0,0:0|0:0,0:0:0:0:
188,288,24043,1,0,3:0:0:0:
325,208,24214,1,0,3:0:0:0:
135,218,24386,2,0,P|109:252|103:296,1,88,8|0,0:0|0:0,0:0:0:0:
378,278,24728,6,0,P|404:243|411:200,1,88,4|0,0:2|0:0,0:0:0:0:
318,120,25071,2,0,L|324:207,1,88,8|0,0:0|0:0,0:0:0:0:
462,46,25414,2,0,L|374:52,1,88,2|0,3:0|3:0,0:0:0:0:
230,126,25757,1,8,0:0:0:0:
412,201,25928,6,0,L|499:194,1,88,2|4,0:2|3:0,0:0:0:0:
268,46,26270,1,0,3:0:0:0:
154,286,26441,2,0,L|160:373,1,88,12|0,0:2|0:0,0:0:0:0:
351,373,26782,2,0,L|358:286,1,88,8|0,3:0|0:0,0:0:0:0:
211,173,27038,1,8,0:0:0:0:
211,173,27123,2,0,L|207:226,1,44,8|0,0:0|0:0,0:0:0:0:
304,216,27294,2,0,L|301:173,1,44,0|8,0:0|0:0,0:0:0:0:
256,40,27481,6,0,B|299:29|299:29|341:41,1,88,4|0,0:0|0:0,0:0:0:0:
386,171,27823,2,0,B|344:183|344:183|301:172,1,88,8|0,0:0|0:0,0:0:0:0:
456,128,28166,2,0,B|467:171|467:171|455:213,1,88,2|0,3:2|0:0,0:0:0:0:
295,260,28509,1,8,0:0:0:0:
301,172,28681,1,0,0:0:0:0:
368,310,28852,6,0,P|336:339|294:349,1,88,2|0,3:2|0:0,0:0:0:0:
138,303,29195,2,0,P|109:271|99:229,1,88,8|0,0:0|0:0,0:0:0:0:
145,73,29538,2,0,P|177:44|219:34,1,88,8|0,0:0|0:0,0:0:0:0:
375,80,29881,2,0,P|404:112|414:154,1,88,8|0,0:0|0:0,0:0:0:0:
330,240,30223,6,0,P|298:270|255:280,1,88,2|0,3:2|0:0,0:0:0:0:
177,231,30566,2,0,P|168:188|180:146,1,88,8|0,0:0|0:0,0:0:0:0:
262,104,30909,2,0,P|304:117|334:148,1,88,2|0,3:0|0:0,0:0:0:0:
256,192,31252,1,8,0:0:0:0:
180,146,31423,1,0,0:0:0:0:
268,16,31595,6,0,L|263:103,1,88,2|0,3:2|0:0,0:0:0:0:
180,146,31938,2,0,L|186:58,1,88,8|0,0:0|0:0,0:0:0:0:
339,149,32281,2,0,L|334:236,1,88,8|0,0:0|0:0,0:0:0:0:
251,279,32624,2,0,L|257:191,1,88,8|0,0:0|0:0,0:0:0:0:
105,285,32966,6,0,P|130:311|207:320,1,88,2|0,3:2|0:0,0:0:0:0:
100,198,33309,2,0,P|74:171|-2:163,1,88,8|0,0:0|0:0,0:0:0:0:
182,231,33652,2,0,P|224:220|256:191,1,88,2|0,3:2|0:0,0:0:0:0:
329,149,33995,2,0,P|287:160|256:190,1,88,8|0,0:0|0:0,0:0:0:0:
416,149,34338,6,0,P|404:106|374:75,1,88,2|0,3:2|0:0,0:0:0:0:
213,32,34681,2,0,P|170:43|139:73,1,88,8|0,0:0|0:0,0:0:0:0:
96,235,35023,2,0,P|107:277|137:308,1,88,8|0,0:0|0:0,0:0:0:0:
299,352,35366,2,0,P|341:340|372:310,1,88,8|0,0:0|0:0,0:0:0:0:
301,116,35709,6,0,P|319:155|314:199,1,88,2|0,3:0|0:0,0:0:0:0:
150,153,36052,2,0,P|194:148|234:166,1,88,8|0,0:0|0:0,0:0:0:0:
140,310,36395,2,0,P|150:267|179:235,1,88,2|0,3:2|0:0,0:0:0:0:
287,369,36738,2,0,P|250:346|228:308,1,88,8|0,0:0|0:0,0:0:0:0:
387,246,37081,2,0,P|355:274|312:283,1,88,2|0,3:2|0:0,0:0:0:0:
220,142,37423,6,0,P|264:137|304:155,1,88,12|0,0:0|0:0,0:0:0:0:
249,224,37681,1,0,3:0:0:0:
249,224,37766,2,0,L|166:210,1,44,8|8,0:0|0:0,0:0:0:0:
101,170,37938,2,0,L|184:156,1,44,8|8,3:0|0:0,0:0:0:0:
296,66,38109,2,0,L|304:177,1,88,2|0,3:0|0:0,0:0:0:0:
464,377,38452,6,0,L|470:289,1,88,4|0,0:0|0:0,0:0:0:0:
333,235,38793,2,0,L|339:322,1,88,8|0,0:0|0:0,0:0:0:0:
464,201,39135,2,0,L|458:114,1,88,2|0,3:2|0:0,0:0:0:0:
246,107,39477,1,8,0:0:0:0:
333,235,39647,1,0,0:0:0:0:
319,57,39819,6,0,B|288:24|288:24|211:12,1,88,2|0,3:2|0:0,0:0:0:0:
121,129,40160,2,0,B|88:160|88:160|76:237,1,88,8|0,0:0|0:0,0:0:0:0:
193,327,40502,2,0,B|224:360|224:360|301:372,1,88,8|0,0:0|0:0,0:0:0:0:
391,255,40844,2,0,B|424:224|424:224|436:147,1,88,8|0,0:0|0:0,0:0:0:0:
243,43,41186,6,0,L|227:130,1,88,2|0,3:2|0:0,0:0:0:0:
133,277,41528,2,0,L|216:247,1,88,8|0,0:0|0:0,0:0:0:0:
391,255,41869,2,0,L|323:198,1,88,2|0,3:2|0:0,0:0:0:0:
143,159,42211,1,8,0:0:0:0:
200,333,42382,1,0,0:0:0:0:
227,130,42553,6,0,L|144:159,1,88,2|0,3:2|0:0,0:0:0:0:
133,277,42895,2,0,L|216:247,1,88,8|0,0:0|0:0,0:0:0:0:
161,74,43236,2,0,L|79:104,1,88,8|0,0:0|0:0,0:0:0:0:
199,332,43578,2,0,L|282:303,1,88,8|0,0:0|0:0,0:0:0:0:
238,40,43920,6,0,P|195:47|161:73,1,88,4|0,3:2|0:0,0:0:0:0:
107,205,44270,1,8,0:0:0:0:
285,193,44445,6,0,P|264:154|228:129,1,88,4|0,3:2|0:0,0:0:0:0:
86,120,44795,1,8,0:0:0:0:
153,284,44970,6,0,P|183:252|195:211,1,88,4|0,3:2|0:0,0:0:0:0:
161,73,45321,1,8,0:0:0:0:
25,187,45496,6,0,P|63:206|107:205,1,88,4|0,3:2|0:0,0:0:0:0:
228,129,45846,1,8,0:0:0:0:
78,36,46015,6,0,P|71:79|86:120,1,88,4|0,3:2|0:0,0:0:0:0:
311,166,46353,2,0,P|317:122|302:81,1,88,12|0,0:0|0:0,0:0:0:0:
195,211,46691,6,0,P|201:234|212:254,1,44,4|8,0:2|0:0,0:0:0:0:
332,323,46861,1,8,0:0:0:0:
332,323,46946,1,0,3:0:0:0:
332,323,47032,1,8,0:0:0:0:
311,166,47203,6,0,P|291:179|275:196,1,44,4|0,0:2|0:0,0:0:0:0:
245,331,47374,1,8,0:0:0:0:
245,331,47459,1,0,3:0:0:0:
245,331,47545,1,8,0:0:0:0:
389,262,47716,6,0,P|370:247|349:237,1,44,4|8,0:2|0:0,0:0:0:0:
210,251,47887,1,8,0:0:0:0:
210,251,47972,1,0,3:0:0:0:
210,251,48058,1,8,0:0:0:0:
321,366,48229,6,0,P|329:343|332:320,1,44,4|8,0:2|0:0,0:0:0:0:
277,193,48400,1,8,0:0:0:0:
277,193,48485,1,0,3:0:0:0:
277,193,48571,1,8,0:0:0:0:
161,326,48742,6,0,P|202:339|245:331,1,88,12|0,0:0|0:0,0:0:0:0:
325,117,49084,2,0,P|283:103|240:111,1,88,4|0,3:2|0:0,0:0:0:0:
210,251,49426,5,4,3:1:0:0:
277,193,49596,1,0,0:0:0:0:
352,238,49767,1,0,0:0:0:0:
331,324,49937,1,0,0:0:0:0:
245,330,50109,1,2,0:0:0:0:
210,251,50280,1,0,0:0:0:0:
124,259,50451,1,0,0:0:0:0:
104,343,50622,1,0,0:0:0:0:
179,387,50793,5,2,0:0:0:0:
245,330,50964,1,0,0:0:0:0:
210,251,51135,1,0,0:0:0:0:
277,193,51305,1,0,0:0:0:0:
194,164,51476,1,0,0:0:0:0:
260,106,51647,1,0,0:0:0:0:
178,77,51818,1,2,0:3:0:0:
244,20,51988,1,0,0:0:0:0:
96,48,52160,5,2,0:0:0:0:
194,164,52331,1,0,0:0:0:0:
178,77,52502,1,0,0:0:0:0:
127,222,52672,1,0,0:0:0:0:
260,106,52843,1,2,0:0:0:0:
96,48,53014,1,0,0:0:0:0:
194,164,53185,1,0,0:0:0:0:
244,20,53356,1,2,0:0:0:0:
127,222,53527,5,2,0:3:0:0:
342,135,53699,1,2,0:3:0:0:
96,48,53872,1,2,0:3:0:0:
210,251,54045,1,2,0:3:0:0:
243,20,54218,5,8,3:2:0:0:
222,26,54304,1,0,3:2:0:0:
204,37,54391,1,0,3:2:0:0:
188,53,54478,1,0,3:2:0:0:
177,72,54564,1,12,0:0:0:0:
276,193,54738,1,2,0:0:0:0:
330,5,54911,6,0,L|208:25,1,88,4|0,0:2|0:0,0:0:0:0:
123,265,55252,2,0,L|209:250,1,88,8|0,0:0|0:0,0:0:0:0:
342,136,55594,1,2,3:0:0:0:
177,72,55765,1,0,3:0:0:0:
292,278,55936,2,0,P|331:261|356:226,1,88,8|0,0:0|0:0,0:0:0:0:
259,106,56277,6,0,P|253:149|272:188,1,88,4|0,3:0|3:0,0:0:0:0:
409,79,56619,2,0,P|374:52|330:49,1,88,8|0,0:0|0:0,0:0:0:0:
209,249,56961,1,0,3:0:0:0:
342,136,57131,1,0,3:0:0:0:
177,78,57302,1,8,0:0:0:0:
409,79,57473,1,8,0:0:0:0:
209,249,57644,6,0,L|102:264,1,88,4|0,0:0|3:0,0:0:0:0:
89,65,57986,2,0,L|177:78,1,88,8|0,0:0|0:0,0:0:0:0:
297,237,58327,1,2,3:0:0:0:
176,330,58498,1,0,3:0:0:0:
241,166,58669,2,0,P|280:149|324:152,1,88,8|0,0:0|0:0,0:0:0:0:
353,308,59011,5,2,3:0:0:0:
297,237,59182,1,0,3:0:0:0:
176,330,59352,1,8,0:0:0:0:
265,317,59523,1,0,0:0:0:0:
241,166,59694,1,4,3:0:0:0:
207,249,59865,1,0,3:0:0:0:
387,225,60036,1,8,0:0:0:0:
275,83,60207,1,8,0:0:0:0:
265,317,60377,5,4,0:2:0:0:
363,70,60549,1,0,3:0:0:0:
152,178,60721,1,8,0:0:0:0:
353,308,60893,2,0,P|396:313|437:298,1,88,2|2,0:2|3:0,0:0:0:0:
275,83,61237,1,0,3:0:0:0:
265,317,61409,1,8,0:0:0:0:
419,140,61581,1,2,0:2:0:0:
152,178,61753,6,0,L|161:307,1,88,2|0,3:0|3:0,0:0:0:0:
66,52,62097,1,8,0:0:0:0:
275,83,62269,2,0,L|404:74,1,88,2|0,0:2|3:0,0:0:0:0:
72,139,62613,2,0,L|-15:132,1,88,0|8,3:0|0:0,0:0:0:0:
225,10,62957,1,2,0:2:0:0:
260,207,63129,5,4,0:2:0:0:
210,134,63301,1,0,3:0:0:0:
210,134,63387,1,8,0:0:0:0:
210,134,63473,2,0,P|177:176|176:230,1,88,8|0,0:0|3:0,0:0:0:0:
133,288,63731,1,0,3:0:0:0:
133,288,63817,2,0,P|185:295|233:269,1,88,4|8,0:2|0:0,0:0:0:0:
306,277,64075,1,8,0:0:0:0:
306,277,64161,2,0,P|286:227|239:199,1,88,8|8,0:0|0:0,0:0:0:0:
429,232,64419,1,0,3:0:0:0:
429,232,64505,6,0,P|471:240|512:227,1,88,4|8,0:2|0:0,0:0:0:0:
463,115,64763,1,8,0:0:0:0:
463,115,64849,2,0,L|466:158,1,44,8|0,3:2|0:0,0:0:0:0:
383,114,65021,2,0,L|386:157,1,44
301,232,65193,2,0,L|344:228,1,44,8|0,3:2|0:0,0:0:0:0:
302,112,65365,2,0,L|258:115,1,44,8|0,3:0|3:0,0:0:0:0:
203,293,65537,2,0,L|246:289,1,44,0|0,3:0|3:0,0:0:0:0:
204,173,65709,2,0,L|160:176,1,44,0|0,3:0|3:0,0:0:0:0:
131,328,65881,6,0,P|156:362|198:373,1,88,4|0,3:2|0:0,0:0:0:0:
77,184,66223,2,0,L|55:292,1,88,8|0,0:0|0:0,0:0:0:0:
279,185,66566,1,2,3:0:0:0:
232,41,66738,1,0,3:0:0:0:
195,212,66927,2,0,L|178:298,1,88,8|0,0:0|0:0,0:0:0:0:
362,157,67264,6,0,P|340:120|302:98,1,88,4|0,3:0|0:0,0:0:0:0:
261,272,67608,2,0,P|304:271|342:249,1,88,8|0,0:0|0:0,0:0:0:0:
232,41,67953,1,0,3:0:0:0:
279,185,68126,1,0,3:0:0:0:
315,13,68298,1,8,0:0:0:0:
195,212,68470,1,8,0:0:0:0:
427,215,68643,6,0,L|454:131,1,88,4|0,0:2|3:0,0:0:0:0:
251,100,68985,2,0,L|278:183,1,88,8|0,0:0|0:0,0:0:0:0:
112,240,69328,1,2,3:0:0:0:
168,129,69499,1,0,3:0:0:0:
223,296,69670,2,0,L|306:323,1,88,8|0,0:0|0:0,0:0:0:0:
195,212,70013,5,2,3:0:0:0:
141,325,70184,1,0,3:0:0:0:
278,183,70355,1,8,0:0:0:0:
168,129,70527,1,2,0:2:0:0:
310,266,70700,1,0,3:0:0:0:
246,100,70872,1,0,3:0:0:0:
195,212,71046,1,8,0:0:0:0:
361,154,71209,1,8,0:0:0:0:
167,129,71373,6,0,P|131:152|111:191,1,88,4|0,0:2|3:0,0:0:0:0:
278,183,71716,1,8,0:0:0:0:
140,45,71888,2,0,L|175:154,1,88,2|2,0:2|3:0,0:0:0:0:
223,296,72231,1,0,3:0:0:0:
364,156,72403,1,8,0:0:0:0:
195,212,72575,1,2,0:2:0:0:
392,239,72747,6,0,P|428:216|448:177,1,88,4|0,3:0|3:0,0:0:0:0:
336,73,73090,1,8,0:0:0:0:
223,296,73262,2,0,L|310:269,1,88,2|2,0:2|3:3,0:0:0:0:
421,90,73606,1,0,3:0:0:0:
189,165,73777,1,8,0:0:0:0:
371,328,73949,1,2,0:2:0:0:
336,73,74121,6,0,P|313:54|285:45,1,58.6666666666667,12|0,3:2|2:0,0:0:0:0:
112,182,74356,2,0,P|108:211|113:240,1,58.6666666666667,4|0,3:2|2:0,0:0:0:0:
319,321,74591,2,0,P|346:310|367:291,1,58.6666666666667,4|0,3:2|2:0,0:0:0:0:
194,62,74826,2,0,P|166:73|144:93,1,58.6666666666667,8|0,3:2|2:0,0:0:0:0:
176,310,75062,2,0,P|199:328|227:337,1,58.6666666666667,4|0,3:2|2:0,0:0:0:0:
399,201,75297,2,0,P|403:172|397:144,1,58.6666666666667,0|0,3:0|2:2,0:0:0:0:
252,110,75534,5,12,0:0:0:0:
186,236,75773,1,4,3:2:0:0:
329,229,76013,1,4,3:2:0:0:
182,154,76253,1,8,0:2:0:0:
260,274,76492,1,8,0:0:0:0:
325,147,76733,1,8,0:0:0:0:
256,192,76973,6,0,L|236:335,1,132.000005035401,4|2,0:0|0:0,0:0:0:0:
164,353,77452,1,0,3:0:0:0:
52,249,77691,6,0,P|104:286|168:274,1,132.000005035401,8|2,0:0|0:0,0:0:0:0:
121,209,78170,1,0,3:0:0:0:
217,70,78410,6,0,L|199:201,1,132.000005035401,4|2,3:0|0:0,0:0:0:0:
121,209,78900,1,0,3:0:0:0:
296,324,79146,6,0,L|277:193,1,132.000005035401,8|2,0:0|0:0,0:0:0:0:
199,201,79636,1,0,3:0:0:0:
180,349,79882,6,0,P|230:311|307:333,1,132.000005035401,4|2,3:0|0:0,0:0:0:0:
359,370,80389,1,0,3:0:0:0:
392,218,80642,6,0,P|339:180|276:192,1,132.000005035401,8|2,0:0|0:0,0:0:0:0:
213,239,81150,1,0,3:0:0:0:
392,299,81403,5,6,3:0:0:0:
416,127,81661,1,2,3:0:0:0:
280,20,81920,1,2,3:0:0:0:
119,84,82178,1,8,0:2:0:0:
95,256,82438,1,2,3:0:0:0:
231,362,82697,2,0,P|252:342|262:315,1,58.6666666666667,8|0,3:2|0:0,0:0:0:0:
238,145,82956,5,4,3:2:0:0:
224,230,83226,1,0,3:0:0:0:
305,200,83497,1,0,3:0:0:0:
156,175,83768,5,4,3:3:0:0:
291,287,84034,1,4,3:3:0:0:
320,113,84301,1,4,3:3:0:0:
143,261,84567,5,4,0:2:0:0:
372,255,84830,1,8,0:0:0:0:
252,59,85094,1,8,0:0:0:0:
228,372,85358,5,12,0:2:0:0:
425,125,85623,1,8,0:0:0:0:
113,78,85889,1,8,0:0:0:0:
256,192,86154,5,12,3:2:0:0:
