osu file format v14

[General]
AudioFilename: audio.mp3
AudioLeadIn: 0
PreviewTime: 49243
Countdown: 0
SampleSet: None
StackLeniency: 0.4
Mode: 0
LetterboxInBreaks: 0
WidescreenStoryboard: 0

[Editor]
Bookmarks: 980,1000,11358,11378,22061,22081,50277,50297,71034,71054,81412,81432,91790,91810,102493,102513,109952,109972,130709,130729,133304,133324,151466,151486,156655,156675
DistanceSpacing: 1
BeatDivisor: 4
GridSize: 4
TimelineZoom: 1.4

[Metadata]
Title:Dororo
TitleUnicode:Dororo
Artist:ASIAN KUNG-FU GENERATION
ArtistUnicode:ASIAN KUNG-FU GENERATION
Creator:HakuYT
Version:Despair
Source:
Tags:
BeatmapID:2037175
BeatmapSetID:973072

[Difficulty]
HPDrainRate:6
CircleSize:3.8
OverallDifficulty:8.2
ApproachRate:9.2
SliderMultiplier:1.8
SliderTickRate:1

[Events]
//Background and Video events
0,0,"73392960_p0.jpg",0,0
//Break Periods
2,16666,21491
2,22261,49707
2,71234,80439
2,133990,156085
//Storyboard Layer 0 (Background)
//Storyboard Layer 1 (Fail)
//Storyboard Layer 2 (Pass)
//Storyboard Layer 3 (Foreground)
//Storyboard Sound Samples

[TimingPoints]
980,324.324324324324,4,2,1,100,1,0
980,-133.333333333333,4,2,1,50,0,0
11358,-90.9090909090909,4,2,1,70,0,0
22061,-133.333333333333,4,2,1,60,0,0
42817,-100,4,2,1,70,0,0
50277,-90.9090909090909,4,2,1,80,0,1
71034,-133.333333333333,4,2,1,60,0,0
81412,-133.333333333333,4,2,1,60,0,0
81493,-133.333333333333,4,2,1,5,0,0
81574,-133.333333333333,4,2,1,60,0,0
82142,-133.333333333333,4,2,1,5,0,0
82223,-133.333333333333,4,2,1,60,0,0
86520,-133.333333333333,4,2,1,5,0,0
86601,-133.333333333333,4,2,1,60,0,0
91385,-133.333333333333,4,2,1,5,0,0
91466,-100,4,2,1,60,0,0
91790,-133.333333333333,4,2,1,60,0,0
96898,-133.333333333333,4,2,1,5,0,0
96979,-133.333333333333,4,2,1,60,0,0
102493,-100,4,2,1,70,0,0
107358,-133.333333333333,4,2,1,60,0,0
109952,-90.9090909090909,4,2,1,80,0,1
130628,-90.9090909090909,4,2,1,5,0,1
130709,-90.9090909090909,4,2,1,80,0,1
133304,-100,4,2,1,70,0,0
151466,-100,4,2,1,70,0,0
156655,-1000,4,2,1,5,0,0

[Colours]
Combo1 : 255,255,0
Combo2 : 255,128,0
Combo3 : 255,0,0

[HitObjects]
407,32,980,6,0,L|400:108,1,67.5000025749208,6|2,1:2|0:2,0:2:0:0:
355,193,1304,1,2,1:2:0:0:
355,193,1466,1,2,1:2:0:0:
281,126,1628,6,0,P|214:107|143:128,2,135.000005149842,8|0|2,0:2|1:2|1:2,0:2:0:0:
222,221,2439,1,2,0:2:0:0:
222,221,2601,2,0,L|214:305,1,67.5000025749208,2|2,1:2|1:2,0:2:0:0:
315,351,2925,2,0,L|323:267,1,67.5000025749208,10|2,0:2|0:2,0:2:0:0:
428,231,3250,2,0,L|420:315,1,67.5000025749208,0|2,1:2|0:2,0:2:0:0:
471,152,3574,6,0,P|433:143|375:153,1,67.5000025749208,2|2,1:2|0:2,0:2:0:0:
312,183,3898,1,2,1:2:0:0:
312,183,4061,1,2,1:2:0:0:
230,115,4223,6,0,L|90:96,2,135.000005149842,8|0|2,0:2|1:2|1:2,0:2:0:0:
205,221,5034,1,2,0:2:0:0:
205,221,5196,2,0,B|171:214|171:214|111:240,1,67.5000025749208,2|2,1:2|1:2,0:2:0:0:
65,341,5520,2,0,B|99:348|99:348|159:322,1,67.5000025749208,14|2,0:2|0:2,0:2:0:0:
140,227,5844,2,0,B|106:220|106:220|46:246,1,67.5000025749208,2|0,1:2|0:2,0:2:0:0:
235,300,6169,6,0,L|321:289,1,67.5000025749208,6|0,1:2|0:2,0:2:0:0:
389,235,6493,1,2,1:2:0:0:
389,235,6655,1,2,1:2:0:0:
299,159,6817,6,0,B|287:199|287:199|303:300,2,135.000005149842,8|2|2,0:2|1:2|1:2,0:2:0:0:
350,73,7628,1,2,0:2:0:0:
350,73,7790,2,0,L|272:62,1,67.5000025749208,2|2,1:2|1:2,0:2:0:0:
192,32,8115,2,0,L|114:43,1,67.5000025749208,10|2,0:2|1:2,0:2:0:0:
32,117,8439,2,0,L|110:128,1,67.5000025749208,2|2,1:2|0:2,0:2:0:0:
238,148,8763,6,0,P|243:189|229:239,1,67.5000025749208,2|2,1:2|0:2,0:2:0:0:
166,294,9088,1,2,1:2:0:0:
166,294,9250,1,2,1:2:0:0:
67,254,9412,6,0,P|50:218|60:117,2,135.000005149842,8|0|2,0:2|1:2|1:2,0:2:0:0:
109,341,10223,1,2,0:2:0:0:
109,341,10385,2,0,L|187:347,1,67.5000025749208,2|2,1:2|0:2,0:2:0:0:
310,201,10709,2,0,L|232:207,1,67.5000025749208,14|2,0:2|1:2,0:2:0:0:
423,359,11034,2,0,L|501:353,1,67.5000025749208,14|2,0:2|0:2,0:2:0:0:
345,178,11358,6,0,P|336:225|346:278,1,99.0000030212403,6|0,1:2|0:0,0:0:0:0:
491,138,11682,2,0,P|501:91|490:38,1,99.0000030212403,10|0,0:2|0:0,0:0:0:0:
305,93,12007,1,2,1:2:0:0:
420,236,12169,1,2,1:2:0:0:
198,211,12331,2,0,B|149:205|149:205|80:236,1,99.0000030212403,10|0,0:0|0:0,0:0:0:0:
256,362,12655,6,0,L|267:263,1,99.0000030212403,2|0,1:2|1:2,0:0:0:0:
92,126,12979,2,0,L|103:225,1,99.0000030212403,8|0,0:0|0:0,0:0:0:0:
163,370,13304,1,0,1:2:0:0:
219,187,13466,1,0,1:2:0:0:
8,309,13628,2,0,B|55:328|55:328|107:318,1,99.0000030212403,8|0,0:0|0:0,0:0:0:0:
219,187,13952,6,0,P|222:245|242:283,1,99.0000030212403,0|0,1:2|0:0,0:0:0:0:
464,255,14277,2,0,P|461:197|440:158,1,99.0000030212403,8|0,0:0|0:0,0:0:0:0:
380,314,14601,1,0,1:2:0:0:
330,132,14763,1,0,1:2:0:0:
296,346,14925,2,0,L|187:355,1,99.0000030212403,8|0,0:0|0:0,0:0:0:0:
116,200,15250,5,0,1:2:0:0:
312,259,15412,1,0,1:2:0:0:
225,84,15574,2,0,L|218:193,1,99.0000030212403,8|0,0:0|0:0,0:0:0:0:
296,346,15898,1,0,1:2:0:0:
342,176,16061,1,0,1:2:0:0:
150,242,16223,6,0,P|89:237|40:161,1,148.50000453186
181,204,22061,5,0,0:0:0:0:
14,110,50277,6,0,B|134:67|88:184|226:104,1,198.000006042481,6|8,1:2|0:0,0:0:0:0:
386,16,50763,1,2,0:0:0:0:
443,229,50925,2,0,L|333:219,1,99.0000030212403,2|0,1:2|1:0,0:0:0:0:
122,362,51250,2,0,L|232:372,1,99.0000030212403,8|2,0:0|0:0,0:0:0:0:
310,127,51574,5,2,1:2:0:0:
221,371,51736,1,2,1:2:0:0:
105,146,51898,1,10,0:0:0:0:
348,318,52061,2,0,P|391:291|414:243,1,99.0000030212403,2|0,0:0|1:0,0:0:0:0:
310,127,52385,1,0,1:0:0:0:
61,247,52547,6,0,P|2:164|46:61,1,198.000006042481,10|0,0:0|1:0,0:0:0:0:
202,132,53034,1,0,0:0:0:0:
153,354,53196,2,0,L|140:237,1,99.0000030212403,8|0,0:0|0:0,0:0:0:0:
310,127,53520,2,0,L|298:228,1,99.0000030212403,0|0,1:0|1:0,0:0:0:0:
431,357,53844,2,0,L|441:255,1,99.0000030212403,8|0,0:0|0:0,0:0:0:0:
399,84,54169,1,0,1:0:0:0:
360,272,54331,1,0,1:0:0:0:
492,98,54493,6,0,B|443:75|443:75|372:89,1,99.0000030212403,10|0,0:2|0:0,0:0:0:0:
267,257,54817,2,0,B|316:280|316:280|386:266,1,99.0000030212403,2|0,1:2|1:0,0:0:0:0:
195,96,55142,2,0,B|146:73|146:73|75:87,1,99.0000030212403,10|0,0:0|0:0,0:0:0:0:
1,297,55466,6,0,B|100:254|78:349|198:293,1,198.000006042481,6|8,1:2|0:0,0:0:0:0:
293,131,55952,1,2,0:0:0:0:
72,29,56115,2,0,L|80:130,1,99.0000030212403,2|0,1:2|1:0,0:0:0:0:
190,296,56439,2,0,L|198:195,1,99.0000030212403,8|2,0:0|0:0,0:0:0:0:
398,67,56763,5,2,1:2:0:0:
451,283,56925,1,2,1:2:0:0:
370,48,57088,1,10,0:0:0:0:
286,287,57250,2,0,P|205:299|170:288,1,99.0000030212403,2|0,0:0|1:2,0:0:0:0:
95,156,57574,1,0,1:0:0:0:
370,48,57736,6,0,B|391:98|391:98|376:252,1,198.000006042481,10|0,0:0|1:0,0:0:0:0:
254,129,58223,1,0,0:0:0:0:
112,291,58385,2,0,P|168:299|223:286,1,99.0000030212403,8|0,0:0|0:0,0:0:0:0:
104,125,58709,2,0,P|47:117|-7:130,1,99.0000030212403,0|0,1:0|1:0,0:0:0:0:
121,322,59034,2,0,P|177:330|232:317,1,99.0000030212403,8|0,0:0|0:0,0:0:0:0:
50,211,59358,5,0,1:0:0:0:
253,158,59520,1,0,1:0:0:0:
44,305,59682,2,0,B|33:252|33:252|57:193,1,99.0000030212403,10|0,0:0|0:0,0:0:0:0:
260,63,60007,2,0,B|270:115|270:115|246:174,1,99.0000030212403,2|0,1:2|1:0,0:0:0:0:
11,326,60331,2,0,B|0:273|0:273|24:214,1,99.0000030212403,10|0,0:0|0:0,0:0:0:0:
242,242,60655,6,0,B|313:237|313:237|359:255|359:255|447:245,1,198.000006042481,4|8,1:2|0:0,0:0:0:0:
471,124,61142,1,0,0:0:0:0:
471,124,61304,2,0,B|400:119|400:119|354:137|354:137|266:127,1,198.000006042481,2|8,1:2|0:0,0:0:0:0:
156,73,61790,1,0,0:0:0:0:
156,73,61952,6,0,B|161:144|161:144|143:190|143:190|153:278,1,198.000006042481,2|8,1:2|0:0,0:0:0:0:
309,361,62439,1,2,0:0:0:0:
440,182,62601,2,0,B|390:163|390:163|311:183,1,99.0000030212403,2|0,1:2|1:0,0:0:0:0:
214,353,62925,2,0,B|264:372|264:372|343:352,1,99.0000030212403,8|2,0:0|0:0,0:0:0:0:
147,181,63250,6,0,P|64:208|41:309,1,198.000006042481,2|8,1:2|0:0,0:0:0:0:
179,270,63736,1,0,0:0:0:0:
179,270,63898,2,0,P|235:182|173:91,1,198.000006042481,2|8,1:2|0:0,0:0:0:0:
94,35,64385,1,0,0:0:0:0:
94,35,64547,6,0,P|186:2|290:38,1,198.000006042481,2|8,1:2|0:0,0:0:0:0:
339,181,65034,1,0,0:0:0:0:
443,32,65196,2,0,L|450:137,1,99.0000030212403,2|0,1:2|1:0,0:0:0:0:
332,279,65520,2,0,L|339:174,1,99.0000030212403,8|0,0:0|0:0,0:0:0:0:
475,362,65844,6,0,B|388:386|388:386|272:361,1,198.000006042481,6|8,1:2|0:0,0:0:0:0:
197,226,66331,1,2,0:0:0:0:
29,360,66493,2,0,B|13:313|13:313|29:223,1,99.0000030212403,2|0,1:2|1:0,0:0:0:0:
189,130,66817,2,0,B|205:177|205:177|189:267,1,99.0000030212403,8|2,0:0|0:0,0:0:0:0:
0,126,67142,5,2,1:2:0:0:
196,225,67304,1,2,1:2:0:0:
176,4,67466,1,10,0:0:0:0:
92,223,67628,2,0,P|104:275|174:320,1,99.0000030212403,2|0,0:0|1:0,0:0:0:0:
304,284,67952,1,0,1:0:0:0:
109,130,68115,2,0,P|86:178|113:256,1,99.0000030212403,10|0,0:0|1:0,0:0:0:0:
352,0,68439,5,12,0:0:0:0:
460,209,68601,1,0,1:0:0:0:
214,207,68763,1,0,1:0:0:0:
453,24,68925,5,8,0:0:0:0:
196,106,69087,1,0,1:0:0:0:
390,270,69249,1,0,1:0:0:0:
246,2,69412,5,12,0:0:0:0:
309,226,69574,1,0,1:0:0:0:
71,172,69736,1,0,1:0:0:0:
318,78,69898,5,12,0:0:0:0:
381,302,70060,1,0,1:0:0:0:
143,248,70222,1,0,1:0:0:0:
438,122,70385,2,0,L|446:231,1,99.0000030212403,12|0,0:0|1:0,0:0:0:0:
150,347,70709,2,8,L|142:238,1,99.0000030212403,8|0,0:0|0:0,0:0:0:0:
134,120,71034,5,0,1:2:0:0:
402,93,81412,6,0,L|406:149,1,33.7500012874604,6|0,1:2|0:0,0:0:0:0:
88,21,82061,6,0,L|84:77,1,33.7500012874604,10|0,0:0|0:0,0:0:0:0:
129,263,82547,5,2,0:0:0:0:
129,263,82709,6,0,P|190:229|279:251,1,135.000005149842,2|0,1:2|0:0,0:0:0:0:
304,331,83196,1,0,1:0:0:0:
304,331,83358,2,0,P|364:308|405:244,1,135.000005149842,10|0,0:0|1:0,0:0:0:0:
385,145,83844,1,0,0:0:0:0:
385,145,84007,6,0,L|241:151,1,135.000005149842,2|0,1:2|0:0,0:0:0:0:
195,62,84493,1,0,1:0:0:0:
195,62,84655,2,0,L|339:56,1,135.000005149842,10|0,0:0|1:0,0:0:0:0:
455,25,85142,1,0,1:0:0:0:
455,25,85223,1,0,1:0:0:0:
455,25,85304,6,0,B|470:56|470:56|455:117,1,67.5000025749208,2|0,1:2|0:0,0:0:0:0:
385,145,85628,2,0,B|370:176|370:176|385:237,1,67.5000025749208,2|0,0:0|1:0,0:0:0:0:
472,253,85952,2,0,B|487:284|487:284|472:345,1,67.5000025749208,10|0,0:2|1:0,0:0:0:0:
384,339,86277,2,0,L|259:345,1,101.250003862381,2|0,0:0|0:0,0:0:0:0:
260,384,86601,6,0,P|241:317|257:244,1,135.000005149842,2|0,1:2|0:0,0:0:0:0:
299,167,87088,1,0,1:0:0:0:
299,167,87250,2,0,P|231:159|164:183,1,135.000005149842,10|0,0:0|1:0,0:0:0:0:
84,242,87736,1,0,0:0:0:0:
84,242,87898,6,0,B|68:188|68:188|87:80,1,135.000005149842,2|0,1:2|0:0,0:0:0:0:
168,46,88385,1,0,1:0:0:0:
168,46,88547,6,0,B|184:100|184:100|165:208,1,135.000005149842,10|0,0:0|0:0,0:0:0:0:
185,283,89034,1,0,1:0:0:0:
185,283,89115,1,0,1:0:0:0:
185,283,89196,2,0,P|220:291|269:288,1,67.5000025749208,2|8,1:2|0:0,0:0:0:0:
346,232,89520,1,0,0:0:0:0:
346,232,89682,1,0,1:0:0:0:
266,115,89844,2,0,L|254:206,1,67.5000025749208,8|0,0:0|0:0,0:0:0:0:
367,105,90169,6,0,L|379:14,2,67.5000025749208,2|0|2,1:2|0:0|1:2,0:0:0:0:
251,269,90817,1,0,0:0:0:0:
251,269,90979,1,0,1:0:0:0:
251,269,91142,2,0,P|203:286|149:276,1,101.250003862381,8|0,0:0|0:0,0:0:0:0:
124,220,91466,2,0,L|136:355,1,135,0|0,1:0|0:0,0:0:0:0:
322,366,91790,6,0,P|355:315|348:234,1,135.000005149842,2|0,1:2|0:0,0:0:0:0:
269,184,92277,1,0,1:0:0:0:
269,184,92439,2,0,P|236:134|243:52,1,135.000005149842,10|0,0:0|1:0,0:0:0:0:
340,13,92925,1,0,0:0:0:0:
340,13,93088,6,0,L|349:148,1,135.000005149842,2|0,1:2|0:0,0:0:0:0:
451,202,93574,1,0,1:0:0:0:
451,202,93737,6,0,L|442:337,1,135.000005149842,10|0,0:0|1:0,0:0:0:0:
346,377,94223,1,0,0:0:0:0:
346,377,94385,6,0,L|337:242,1,135.000005149842,2|0,1:2|0:0,0:0:0:0:
252,199,94871,1,0,0:0:0:0:
252,199,95034,6,0,L|243:334,1,135.000005149842,10|0,0:0|0:0,0:0:0:0:
149,363,95520,1,0,0:0:0:0:
149,363,95682,6,0,L|142:290,1,67.5000025749208,2|0,1:2|0:0,0:0:0:0:
58,234,96007,2,0,L|51:307,1,67.5000025749208,2|0,0:0|1:0,0:0:0:0:
139,213,96331,2,0,L|132:140,1,67.5000025749208,10|0,0:0|0:0,0:0:0:0:
42,73,96655,2,0,L|154:64,1,101.250003862381,2|0,1:2|0:0,0:0:0:0:
201,16,96979,6,0,P|194:73|227:166,1,135.000005149842,2|0,1:2|0:0,0:0:0:0:
306,96,97466,1,0,1:0:0:0:
306,96,97628,2,0,P|363:89|456:122,1,135.000005149842,10|0,0:0|1:0,0:0:0:0:
488,205,98115,1,0,0:0:0:0:
488,205,98277,6,0,P|431:212|338:179,1,135.000005149842,2|0,1:2|0:0,0:0:0:0:
254,174,98763,1,0,1:0:0:0:
254,174,98925,2,0,P|257:216|325:303,1,135.000005149842,10|0,0:0|1:0,0:0:0:0:
398,335,99412,1,0,0:0:0:0:
398,335,99574,6,0,L|409:199,1,135.000005149842,2|0,1:2|0:0,0:0:0:0:
328,142,100061,1,0,1:0:0:0:
328,142,100223,2,0,L|193:157,1,135.000005149842,8|0,0:0|1:0,0:0:0:0:
105,218,100709,1,0,0:0:0:0:
105,218,100871,6,0,B|93:149|93:149|120:83,1,135.000005149842,0|0,1:0|0:0,0:0:0:0:
212,48,101358,1,0,1:0:0:0:
280,198,101520,1,8,0:0:0:0:
195,273,101682,1,0,1:0:0:0:
248,60,101844,1,2,0:0:0:0:
306,217,102007,1,2,0:0:0:0:
379,78,102169,5,0,1:0:0:0:
379,78,102331,1,0,1:0:0:0:
379,78,102493,2,0,L|394:199,1,90,12|2,0:0|0:0,0:0:0:0:
312,306,102817,1,2,1:2:0:0:
177,155,102979,2,0,L|276:143,1,90,2|8,1:2|0:0,0:0:0:0:
401,296,103304,6,0,L|301:307,1,90,2|0,0:0|1:0,0:0:0:0:
150,261,103628,1,0,1:0:0:0:
346,204,103790,2,0,P|359:156|344:102,1,90,10|0,0:0|0:0,0:0:0:0:
182,68,104115,2,0,P|169:116|184:170,1,90,2|0,1:2|1:0,0:0:0:0:
315,32,104439,2,0,L|417:38,1,90,10|0,0:0|0:0,0:0:0:0:
346,204,104763,6,0,L|163:213,1,180,2|8,1:2|0:0,0:0:0:0:
65,140,105250,1,0,0:0:0:0:
6,305,105412,2,0,P|51:311|104:297,1,90,0|0,1:0|1:0,0:0:0:0:
148,107,105736,1,10,0:0:0:0:
94,301,105898,6,0,P|139:307|192:293,1,90,2|0,0:0|1:0,0:0:0:0:
301,196,106223,1,0,1:0:0:0:
434,369,106385,2,0,B|325:406|369:323|256:350,1,180,8|8,0:0|0:3,0:0:0:0:
389,225,106871,1,8,0:3:0:0:
280,97,107034,1,8,0:3:0:0:
182,263,107196,1,8,0:3:0:0:
280,97,107358,6,0,B|225:85|225:85|125:113,1,135.000005149842,6|0,1:2|0:0,0:0:0:0:
231,186,107844,1,0,1:0:0:0:
231,186,108007,2,8,B|286:174|286:174|386:202,1,135.000005149842,10|0,0:0|1:0,0:0:0:0:
436,284,108493,1,0,1:0:0:0:
436,284,108655,6,0,L|445:195,1,67.5000025749208,2|0,1:2|1:0,0:0:0:0:
368,128,108979,2,0,L|359:217,1,67.5000025749208,14|0,0:0|0:0,0:0:0:0:
485,74,109304,2,8,L|506:24,3,33.7500012874604,10|8|8|8,0:3|0:3|0:3|0:3,0:3:0:0:
324,39,109628,2,8,L|296:-5,3,33.7500012874604,10|8|8|8,0:3|0:3|0:3|0:3,0:3:0:0:
255,219,109952,6,0,B|184:214|184:214|138:232|138:232|50:222,1,198.000006042481,4|8,1:2|0:0,0:0:0:0:
19,34,110439,1,2,0:0:0:0:
259,125,110601,2,0,B|273:171|273:171|248:236,1,99.0000030212403,2|0,1:2|1:0,0:0:0:0:
56,316,110925,2,0,B|42:270|42:270|67:205,1,99.0000030212403,8|2,0:0|0:0,0:0:0:0:
234,361,111250,5,2,1:2:0:0:
132,174,111412,1,2,1:2:0:0:
397,180,111574,1,10,0:0:0:0:
143,75,111736,2,0,L|130:189,1,99.0000030212403,2|0,0:0|1:0,0:0:0:0:
232,321,112061,1,0,1:0:0:0:
384,37,112223,6,0,B|399:98|399:98|375:242,1,198.000006042481,10|0,0:0|1:0,0:0:0:0:
213,141,112709,1,0,0:0:0:0:
317,310,112871,2,0,P|381:317|423:302,1,99.0000030212403,8|0,0:0|0:0,0:0:0:0:
309,138,113196,2,0,P|244:130|203:146,1,99.0000030212403,0|0,1:0|1:0,0:0:0:0:
112,348,113520,2,0,P|177:356|218:340,1,99.0000030212403,8|0,0:0|0:0,0:0:0:0:
113,183,113844,5,0,1:0:0:0:
18,361,114007,1,0,1:0:0:0:
23,143,114169,2,0,L|126:188,1,99.0000030212403,10|0,0:0|0:0,0:0:0:0:
252,7,114493,2,0,L|158:47,1,99.0000030212403,2|0,1:2|1:0,0:0:0:0:
271,244,114817,2,0,L|289:127,1,99.0000030212403,10|0,0:0|0:0,0:0:0:0:
476,345,115142,6,0,B|422:362|383:319|383:319|339:352|258:338,1,198.000006042481,6|8,1:2|0:0,0:0:0:0:
165,226,115628,1,2,0:0:0:0:
409,110,115790,2,0,P|419:170|410:222,1,99.0000030212403,2|0,1:2|1:0,0:0:0:0:
205,114,116115,2,0,P|195:54|204:2,1,99.0000030212403,8|2,0:0|0:0,0:0:0:0:
289,194,116439,5,2,1:2:0:0:
74,262,116601,1,2,1:2:0:0:
89,23,116763,1,10,0:0:0:0:
165,226,116925,2,0,L|155:332,1,99.0000030212403,2|0,0:0|1:0,0:0:0:0:
12,216,117250,1,0,1:0:0:0:
238,113,117412,6,0,B|343:59|320:180|439:113,1,198.000006042481,10|0,0:0|1:0,0:0:0:0:
292,17,117898,1,0,0:0:0:0:
317,223,118061,2,0,B|363:237|363:237|426:213,1,99.0000030212403,8|0,0:0|0:0,0:0:0:0:
238,113,118385,2,0,B|192:99|192:99|127:124,1,99.0000030212403,0|0,1:0|1:0,0:0:0:0:
31,258,118709,2,0,B|77:272|77:272|142:247,1,99.0000030212403,8|0,0:0|0:0,0:0:0:0:
238,113,119034,5,0,1:0:0:0:
338,310,119196,1,0,1:0:0:0:
400,102,119358,2,0,L|505:88,1,99.0000030212403,10|0,0:0|0:0,0:0:0:0:
338,310,119682,2,0,L|233:324,1,99.0000030212403,2|0,1:2|1:0,0:0:0:0:
139,99,120007,2,0,L|244:113,1,99.0000030212403,10|0,0:0|0:0,0:0:0:0:
27,326,120331,6,0,B|81:221|-40:244|27:125,1,198.000006042481,6|8,1:2|0:0,0:0:0:0:
139,99,120817,1,0,0:0:0:0:
139,99,120979,2,0,B|85:204|206:181|139:300,1,198.000006042481,2|8,1:2|0:0,0:0:0:0:
267,334,121466,1,0,0:0:0:0:
267,334,121628,6,0,B|321:229|200:252|267:133,1,198.000006042481,2|8,1:2|0:0,0:0:0:0:
402,30,122115,1,2,0:0:0:0:
506,218,122277,2,0,P|462:234|399:227,1,99.0000030212403,2|0,1:2|1:0,0:0:0:0:
306,42,122601,2,0,P|350:26|413:33,1,99.0000030212403,8|0,0:0|0:0,0:0:0:0:
324,221,122925,6,0,B|277:220|250:246|250:246|222:234|222:234|180:268|95:227|99:227,1,198.000006042481,2|8,1:2|0:0,0:0:0:0:
57,350,123412,1,0,0:0:0:0:
57,350,123574,2,0,B|104:351|131:325|131:325|159:337|159:337|201:303|286:344|282:344,1,198.000006042481,2|8,1:2|0:0,0:0:0:0:
368,376,124061,1,0,0:0:0:0:
368,376,124223,6,0,B|367:329|393:302|393:302|381:274|381:274|415:232|374:147|374:151,1,198.000006042481,2|8,1:2|0:0,0:0:0:0:
219,100,124709,1,2,0:0:0:0:
447,30,124871,2,0,B|461:83|461:83|448:147,1,99.0000030212403,2|0,1:2|1:0,0:0:0:0:
303,278,125196,2,0,B|289:225|289:225|302:161,1,99.0000030212403,8|0,0:0|0:0,0:0:0:0:
447,30,125520,6,0,B|376:25|376:25|330:43|330:43|242:33,1,198.000006042481,6|8,1:2|0:0,0:0:0:0:
102,94,126007,1,0,0:0:0:0:
209,286,126169,2,0,L|220:174,1,99.0000030212403,2|0,1:2|1:0,0:0:0:0:
62,70,126493,2,0,L|73:182,1,99.0000030212403,8|2,0:0|0:0,0:0:0:0:
270,31,126817,5,2,1:2:0:0:
359,236,126979,1,2,1:2:0:0:
238,13,127142,1,10,0:0:0:0:
142,196,127304,2,0,P|133:250|143:302,1,99.0000030212403,2|0,0:0|1:0,0:0:0:0:
255,161,127628,1,0,1:0:0:0:
356,333,127790,2,0,P|365:279|355:227,1,99.0000030212403,10|0,0:0|0:0,0:0:0:0:
191,89,128115,6,0,B|76:51|122:145|0:96,1,198.000006042481,4|8,1:2|0:0,0:0:0:0:
146,1,128601,1,0,0:0:0:0:
296,103,128763,2,0,L|285:219,1,99.0000030212403,0|0,1:0|1:0,0:0:0:0:
107,320,129088,2,0,L|118:204,1,99.0000030212403,8|0,0:0|0:0,0:0:0:0:
254,368,129412,6,0,P|305:381|356:356,1,99.0000030212403,0|0,1:0|0:0,0:0:0:0:
209,218,129736,2,0,P|158:205|107:230,1,99.0000030212403,8|0,0:0|0:0,0:0:0:0:
16,376,130061,1,0,1:0:0:0:
207,311,130223,1,0,1:0:0:0:
35,89,130385,2,0,L|20:241,1,148.50000453186,8|0,0:0|0:0,0:0:0:0:
20,270,130709,5,14,0:0:0:0:
190,54,130871,1,0,1:0:0:0:
288,300,131034,1,0,1:0:0:0:
25,302,131196,5,12,0:0:0:0:
195,86,131358,1,0,1:0:0:0:
293,332,131521,1,0,1:0:0:0:
34,334,131682,5,12,0:0:0:0:
204,118,131844,1,0,1:0:0:0:
302,364,132007,1,0,1:0:0:0:
58,115,132169,5,12,0:0:0:0:
342,27,132331,2,0,L|351:161,1,99.0000030212403,2|0,1:2|1:0,0:0:0:0:
117,360,132655,2,0,L|126:226,1,99.0000030212403,14|0,0:0|1:0,0:0:0:0:
412,190,132979,2,0,L|421:324,1,99.0000030212403,14|0,0:0|0:0,0:0:0:0:
177,148,133304,6,0,P|222:136|279:148,1,90,4|0,0:0|0:0,0:0:0:0:
123,261,133628,2,0,P|78:273|21:261,1,90
156,89,156655,5,0,0:0:0:0:
