osu file format v14

[General]
AudioFilename: audio.mp3
AudioLeadIn: 0
PreviewTime: 58212
Countdown: 0
SampleSet: Soft
StackLeniency: 0.8
Mode: 0
LetterboxInBreaks: 0
WidescreenStoryboard: 0

[Editor]
Bookmarks: 11163,21655,32147,42639,58376,79360
DistanceSpacing: 1.5
BeatDivisor: 4
GridSize: 8
TimelineZoom: 2

[Metadata]
Title:Blood Circulator (TV Size)
TitleUnicode:Blood Circulator (TV Size)
Artist:ASIAN KUNG-FU GENERATION
ArtistUnicode:ASIAN KUNG-FU GENERATION
Creator:Josefumi
Version:Insane
Source:NARUTO -ナルト- 疾風伝
Tags:Shippuden Sasuke Lian2002
BeatmapID:1467492
BeatmapSetID:693561

[Difficulty]
HPDrainRate:7
CircleSize:4
OverallDifficulty:7
ApproachRate:9
SliderMultiplier:1.7
SliderTickRate:2

[Events]
//Background and Video events
0,0,"bg.jpg",0,0
Video,0,"sasunaru.avi"
//Break Periods
//Storyboard Layer 0 (Background)
//Storyboard Layer 1 (Fail)
//Storyboard Layer 2 (Pass)
//Storyboard Layer 3 (Foreground)
//Storyboard Sound Samples

[TimingPoints]
672,327.868852459016,4,2,1,50,1,0
5917,-83.3333333333333,4,2,1,50,0,0
15316,-83.3333333333333,4,2,1,5,0,0
15371,-83.3333333333333,4,2,1,50,0,0
15644,-83.3333333333333,4,2,1,5,0,0
15699,-83.3333333333333,4,2,1,50,0,0
20562,-83.3333333333333,4,2,1,5,0,0
20617,-83.3333333333333,4,2,1,50,0,0
20890,-83.3333333333333,4,2,1,5,0,0
20945,-83.3333333333333,4,2,1,50,0,0
32147,-83.3333333333333,4,2,1,50,0,1
42639,-83.3333333333333,4,2,1,50,0,0
58376,-83.3333333333333,4,2,1,50,0,1
68827,-83.3333333333333,4,2,1,50,0,0
68868,-83.3333333333333,4,2,1,50,0,1
79360,-83.3333333333333,4,2,1,50,0,0

[Colours]
Combo1 : 13,108,166
Combo2 : 255,128,0
Combo3 : 241,236,7
Combo4 : 37,74,173
Combo5 : 224,31,31

[HitObjects]
80,128,672,6,0,P|128:128|176:112,1,85
163,117,917,1,0,0:0:0:0:
163,117,999,1,0,0:0:0:0:
304,32,1163,2,0,P|314:72|314:115,1,85
288,288,1491,2,0,P|251:266|224:216,1,85
432,224,1819,2,0,P|464:272|416:376,1,170
288,288,2311,2,0,L|208:320,1,85
16,256,2639,2,0,L|0:352,1,85
128,160,2967,2,0,L|144:64,1,85
336,64,3294,6,0,P|384:64|432:48,1,85
419,53,3540,1,0,0:0:0:0:
419,53,3622,1,2,0:0:0:0:
440,224,3786,2,2,P|476:202|504:171,1,85
424,368,4114,2,2,P|390:342|350:327,1,85
224,112,4442,5,2,0:0:0:0:
267,277,4606,1,2,0:0:0:0:
388,157,4770,1,2,0:0:0:0:
200,88,4934,1,2,0:0:0:0:
256,304,5098,1,2,0:0:0:0:
416,144,5262,1,2,0:0:0:0:
176,64,5426,1,2,0:0:0:0:
96,336,5590,1,6,0:0:0:0:
96,336,5917,6,0,L|88:224,1,101.999996887207
88,234,6163,1,0,0:0:0:0:
88,234,6245,1,8,0:0:0:0:
176,64,6409,2,0,P|208:128|200:216,1,152.999995330811,2|0,0:0|0:0,0:0:0:0:
192,240,6737,2,0,P|240:224|296:232,1,101.999996887207,2|8,0:0|0:0,0:0:0:0:
408,352,7065,2,0,B|416:192|416:192|384:232,1,203.999993774414
256,328,7557,5,10,0:0:0:0:
336,136,7721,1,0,0:0:0:0:
208,48,7885,2,2,P|176:96|184:152,1,101.999996887207
256,272,8212,1,10,0:0:0:0:
360,160,8376,1,0,0:0:0:0:
256,48,8540,6,0,L|136:32,1,101.999996887207,2|0,0:0|0:0,0:0:0:0:
154,34,8786,1,0,0:0:0:0:
154,34,8868,1,10,0:0:0:0:
88,208,9032,2,0,P|48:280|72:344,1,152.999995330811,2|0,0:0|0:0,0:0:0:0:
142,284,9360,2,0,P|176:232|168:176,1,101.999996887207,2|8,0:0|0:0,0:0:0:0:
52,56,9688,2,0,L|272:47,1,203.999993774414,2|0,0:0|0:0,0:0:0:0:
448,80,10180,1,10,0:0:0:0:
352,200,10344,1,0,0:0:0:0:
504,168,10508,2,2,P|516:225|504:272,1,101.999996887207
384,352,10835,1,8,0:0:0:0:
384,352,11163,6,0,B|320:336|320:336|272:344,1,101.999996887207,4|0,0:0|0:0,0:0:0:0:
160,384,11491,1,8,0:0:0:0:
192,256,11655,1,0,0:0:0:0:
96,128,11819,6,0,P|46:169|40:216,1,101.999996887207
240,120,12147,1,8,0:0:0:0:
160,16,12311,1,0,0:0:0:0:
288,184,12475,6,0,P|344:192|392:168,1,101.999996887207
320,32,12803,1,8,0:0:0:0:
472,64,12967,1,0,0:0:0:0:
384,192,13131,2,0,L|384:312,1,101.999996887207
208,304,13458,5,8,0:0:0:0:
192,152,13622,1,0,0:0:0:0:
65,215,13786,2,0,P|113:303|209:303,1,203.999993774414,0|8,0:0|0:0,0:0:0:0:
304,184,14278,1,0,0:0:0:0:
416,288,14442,1,0,0:0:0:0:
288,376,14606,2,0,L|299:249,1,101.999996887207,0|8,0:0|0:0,0:0:0:0:
240,128,14934,1,0,0:0:0:0:
88,152,15098,6,0,P|56:224|88:304,1,152.999995330811
152,224,15426,2,0,P|184:152|152:72,1,152.999995330811,8|0,0:0|0:0,0:0:0:0:
256,72,15753,2,0,P|327:103|448:72,1,203.999993774414,0|8,0:0|0:0,0:0:0:0:
400,200,16245,1,0,0:0:0:0:
264,192,16409,6,0,P|200:200|168:232,1,101.999996887207
112,344,16737,1,8,0:0:0:0:
24,240,16901,1,0,0:0:0:0:
120,104,17065,6,0,L|80:-8,1,101.999996887207
248,72,17393,1,8,0:0:0:0:
184,216,17557,1,0,0:0:0:0:
376,192,17721,6,0,P|440:200|488:176,1,101.999996887207
320,88,18049,2,0,P|280:37|229:20,1,101.999996887207,8|0,0:0|0:0,0:0:0:0:
240,192,18376,2,0,P|232:256|256:304,1,101.999996887207
392,352,18704,2,0,L|496:312,1,101.999996887207,8|0,0:0|0:0,0:0:0:0:
406,165,19032,2,0,P|302:133|238:197,1,203.999993774414,0|8,0:0|0:0,0:0:0:0:
200,48,19524,1,0,0:0:0:0:
80,112,19688,2,0,P|57:58|74:13,1,101.999996887207
200,48,20016,1,8,0:0:0:0:
136,216,20180,1,0,0:0:0:0:
313,186,20344,6,0,B|316:303|316:303|345:259,1,152.999995330811
385,178,20671,2,0,P|337:114|265:130,1,152.999995330811,8|0,0:0|0:0,0:0:0:0:
201,146,20999,2,0,P|128:152|105:26,1,203.999993774414,0|8,0:0|0:0,0:0:0:0:
24,288,21655,5,0,0:0:0:0:
24,288,21983,2,0,L|144:312,1,101.999996887207,10|0,0:0|0:0,0:0:0:0:
264,224,22311,2,2,L|363:245,1,101.999996887207
216,24,22639,1,8,0:0:0:0:
128,192,22803,1,0,0:0:0:0:
72,56,22967,1,2,0:0:0:0:
264,144,23131,5,0,0:0:0:0:
264,144,23294,2,0,P|312:168|368:160,1,101.999996887207,10|0,0:0|0:0,0:0:0:0:
128,232,23622,2,2,L|-8:208,1,101.999996887207
248,272,23950,2,0,P|264:328|256:376,1,101.999996887207,8|0,0:0|0:0,0:0:0:0:
128,232,24278,2,0,L|136:16,1,203.999993774414,2|8,0:0|0:0,0:0:0:0:
256,176,24770,1,0,0:0:0:0:
360,72,24934,6,2,P|416:64|472:88,1,101.999996887207
400,232,25262,1,8,0:0:0:0:
256,176,25426,1,0,0:0:0:0:
200,328,25590,2,0,L|304:376,1,101.999996887207,2|0,0:0|0:0,0:0:0:0:
56,352,25917,1,8,0:0:0:0:
200,312,26081,1,0,0:0:0:0:
160,152,26245,2,2,P|208:128|256:136,1,101.999996887207
400,216,26573,1,8,0:0:0:0:
405,20,26737,1,0,0:0:0:0:
405,20,26819,1,0,0:0:0:0:
405,20,26901,2,0,B|389:92|389:92|413:148|413:148|397:228,1,203.999993774414,6|8,0:0|0:0,0:0:0:0:
232,272,27393,5,0,0:0:0:0:
72,240,27557,2,2,L|56:344,1,101.999996887207
208,168,27885,2,0,L|216:56,1,101.999996887207,8|0,0:0|0:0,0:0:0:0:
88,144,28212,1,2,0:0:0:0:
192,272,28376,1,0,0:0:0:0:
336,192,28540,1,8,0:0:0:0:
336,192,28704,2,0,L|343:90,1,101.999996887207,0|2,0:0|0:0,0:0:0:0:
384,328,29032,1,2,0:0:0:0:
342,90,29196,1,8,0:0:0:0:
496,224,29360,1,0,0:0:0:0:
200,184,29524,6,0,B|264:160|264:160|416:192,1,203.999993774414,2|8,0:0|0:0,0:0:0:0:
280,320,30016,1,0,0:0:0:0:
128,296,30180,1,2,0:0:0:0:
280,320,30344,1,2,0:0:0:0:
200,184,30508,1,8,0:0:0:0:
352,192,30671,1,0,0:0:0:0:
301,51,30835,2,0,P|210:88|204:193,1,203.999993774414,2|8,0:0|0:0,0:0:0:0:
352,192,31327,1,0,0:0:0:0:
464,296,31491,1,2,0:0:0:0:
304,344,31655,5,0,0:0:0:0:
273,338,31736,1,0,0:0:0:0:
243,333,31818,1,8,0:0:0:0:
213,328,31900,1,0,0:0:0:0:
183,323,31982,1,0,0:0:0:0:
153,318,32064,1,0,0:0:0:0:
120,312,32147,6,0,P|88:248|128:168,1,152.999995330811,6|0,0:0|0:0,0:0:0:0:
184,136,32475,2,0,P|192:64|168:24,1,101.999996887207,10|0,0:0|0:0,0:0:0:0:
8,104,32803,1,2,0:0:0:0:
128,208,32967,1,2,0:0:0:0:
280,200,33131,2,0,P|328:184|392:208,1,101.999996887207,8|0,0:0|0:0,0:0:0:0:
328,48,33458,1,2,0:0:0:0:
192,112,33622,1,2,0:0:0:0:
272,240,33786,1,8,0:0:0:0:
408,168,33950,1,0,0:0:0:0:
272,240,34114,2,0,L|48:224,1,203.999993774414,2|8,0:0|0:0,0:0:0:0:
192,112,34606,1,0,0:0:0:0:
368,192,34770,6,0,P|416:216|528:176,1,152.999995330811,6|0,0:0|0:0,0:0:0:0:
400,112,35098,2,0,P|336:104|280:176,1,152.999995330811,8|0,0:0|0:0,0:0:0:0:
281,165,35426,1,2,0:0:0:0:
160,24,35590,1,2,0:0:0:0:
64,144,35753,1,8,0:0:0:0:
256,72,35917,1,0,0:0:0:0:
127,212,36081,2,2,P|81:188|65:124,1,101.999996887207
280,176,36409,2,0,L|272:288,1,101.999996887207,8|0,0:0|0:0,0:0:0:0:
376,88,36737,2,0,P|288:40|192:80,1,203.999993774414,2|8,0:0|0:0,0:0:0:0:
96,192,37229,1,0,0:0:0:0:
224,352,37393,6,0,P|272:296|248:208,1,152.999995330811,6|0,0:0|0:0,0:0:0:0:
328,264,37721,2,0,P|392:288|480:232,1,152.999995330811,8|0,0:0|0:0,0:0:0:0:
465,254,38049,1,2,0:0:0:0:
384,112,38212,1,2,0:0:0:0:
224,160,38376,2,0,L|216:288,1,101.999996887207,8|0,0:0|0:0,0:0:0:0:
376,88,38704,1,2,0:0:0:0:
216,48,38868,1,2,0:0:0:0:
104,160,39032,2,0,L|96:288,1,101.999996887207,8|0,0:0|0:0,0:0:0:0:
0,120,39360,2,0,P|64:48|176:64,1,203.999993774414,2|8,0:0|0:0,0:0:0:0:
224,208,39852,1,0,0:0:0:0:
424,136,40016,6,0,B|416:24|416:24|368:56,1,152.999995330811,6|0,0:0|0:0,0:0:0:0:
336,120,40344,2,0,L|344:288,1,152.999995330811,8|0,0:0|0:0,0:0:0:0:
343,272,40671,1,2,0:0:0:0:
208,368,40835,1,2,0:0:0:0:
72,272,40999,1,8,0:0:0:0:
224,216,41163,1,0,0:0:0:0:
72,272,41327,6,0,L|64:64,1,203.999993774414,2|8,0:0|0:0,0:0:0:0:
200,160,41819,1,2,0:0:0:0:
312,48,41983,1,10,0:0:0:0:
312,48,42065,1,0,0:0:0:0:
312,48,42147,1,0,0:0:0:0:
424,216,42311,1,8,0:0:0:0:
424,216,42639,6,2,L|432:328,1,101.999996887207,6|2,0:0|0:0,0:0:0:0:
431,317,42885,1,0,0:0:0:0:
431,317,42967,1,8,0:0:0:0:
288,224,43131,2,0,P|232:216|152:264,1,152.999995330811,2|0,0:0|0:0,0:0:0:0:
136,336,43458,2,0,L|128:216,1,101.999996887207,2|8,0:0|0:0,0:0:0:0:
184,88,43786,2,0,B|154:80|126:77|126:77|188:46|278:76,1,203.999993774414,2|2,0:0|0:0,0:0:0:0:
256,264,44278,5,10,0:0:0:0:
344,136,44442,1,0,0:0:0:0:
192,136,44606,1,2,0:0:0:0:
280,256,44770,1,2,0:0:0:0:
368,128,44934,1,8,0:0:0:0:
216,120,45098,1,0,0:0:0:0:
40,40,45262,6,2,L|32:168,1,101.999996887207
33,141,45508,1,0,0:0:0:0:
33,141,45590,1,8,0:0:0:0:
160,256,45753,2,0,P|232:240|304:272,1,152.999995330811,2|0,0:0|0:0,0:0:0:0:
216,336,46081,2,0,P|144:352|72:304,1,152.999995330811,2|0,0:0|0:0,0:0:0:0:
24,192,46409,1,2,0:0:0:0:
360,40,47393,5,2,0:0:0:0:
128,80,47557,1,10,0:0:0:0:
128,80,47885,6,0,B|136:152|136:152|112:208|112:208|128:288,1,203.999993774414,2|2,0:0|0:0,0:0:0:0:
256,352,48376,1,0,0:0:0:0:
256,200,48540,2,0,P|351:214|384:320,1,203.999993774414,10|2,0:0|0:0,0:0:0:0:
472,176,49032,1,0,0:0:0:0:
472,176,49114,1,0,0:0:0:0:
472,176,49196,2,0,L|464:48,1,101.999996887207,2|0,0:0|0:0,0:0:0:0:
320,192,49524,2,0,L|328:320,1,101.999996887207,2|0,0:0|0:0,0:0:0:0:
176,184,49852,2,0,L|168:55,1,101.999996887207,10|0,0:0|0:0,0:0:0:0:
48,224,50180,1,2,0:0:0:0:
208,312,50344,1,0,0:0:0:0:
360,184,50508,6,0,P|280:128|179:154,1,203.999993774414,2|2,0:0|0:0,0:0:0:0:
256,320,50999,1,0,0:0:0:0:
248,136,51163,2,2,P|154:161|116:257,1,203.999993774414,10|2,0:0|0:0,0:0:0:0:
280,312,51655,1,0,0:0:0:0:
392,168,51819,2,0,P|440:200|504:184,1,101.999996887207,2|0,0:0|0:0,0:0:0:0:
376,48,52147,2,0,P|318:56|282:111,1,101.999996887207,2|0,0:0|0:0,0:0:0:0:
472,104,52475,2,0,P|485:47|448:-7,1,101.999996887207,10|0,0:0|0:0,0:0:0:0:
320,24,52803,1,2,0:0:0:0:
144,88,52967,5,0,0:0:0:0:
144,88,53049,1,0,0:0:0:0:
144,88,53131,2,0,L|152:296,1,203.999993774414,6|2,0:0|0:0,0:0:0:0:
312,336,53622,1,0,0:0:0:0:
456,264,53786,2,2,L|448:60,1,203.999993774414,10|2,0:0|0:0,0:0:0:0:
280,16,54278,2,0,P|240:40|184:40,1,101.999996887207,0|2,0:0|0:0,0:0:0:0:
8,96,54606,2,0,L|32:232,1,101.999996887207,0|2,0:0|0:0,0:0:0:0:
208,232,54934,2,0,L|184:128,1,101.999996887207,0|10,0:0|0:0,0:0:0:0:
56,264,55262,2,0,L|80:368,1,101.999996887207
224,248,55590,1,2,0:0:0:0:
416,176,55753,5,2,0:0:0:0:
416,176,56081,1,2,0:0:0:0:
307,54,56245,1,2,0:0:0:0:
256,210,56409,1,2,0:0:0:0:
448,192,56573,1,2,0:0:0:0:
288,24,56737,1,2,0:0:0:0:
224,240,56901,1,2,0:0:0:0:
8,144,57065,1,14,0:0:0:0:
352,16,58376,6,0,P|384:80|344:160,1,152.999995330811,4|0,0:0|0:0,0:0:0:0:
304,224,58704,2,0,P|274:292|307:359,1,152.999995330811,8|0,0:0|0:0,0:0:0:0:
307,359,59032,1,2,0:0:0:0:
152,376,59196,1,2,0:0:0:0:
112,232,59360,2,0,P|56:248|24:288,1,101.999996887207,8|0,0:0|0:0,0:0:0:0:
248,240,59688,1,2,0:0:0:0:
184,104,59852,1,2,0:0:0:0:
32,64,60016,2,0,P|15:120|34:168,1,101.999996887207,8|0,0:0|0:0,0:0:0:0:
144,256,60344,1,2,0:0:0:0:
256,152,60508,1,2,0:0:0:0:
408,120,60671,2,0,P|458:115|502:139,1,101.999996887207,8|0,2:0|2:0,2:0:0:0:
336,256,60999,6,0,P|248:240|184:272,1,152.999995330811,6|0,0:0|0:0,0:0:0:0:
152,336,61327,2,0,L|104:184,1,152.999995330811,8|0,0:0|0:0,0:0:0:0:
112,192,61655,1,2,0:0:0:0:
224,64,61819,1,2,0:0:0:0:
312,184,61983,1,8,0:0:0:0:
448,112,62147,1,0,0:0:0:0:
312,184,62311,2,2,L|304:296,1,101.999996887207
160,328,62639,2,0,P|96:312|40:328,1,101.999996887207,8|0,0:0|0:0,0:0:0:0:
184,176,62967,2,2,P|192:128|176:72,1,101.999996887207
336,200,63294,2,0,L|456:192,1,101.999996887207,8|0,0:0|0:0,0:0:0:0:
272,56,63622,6,0,P|200:80|176:152,1,152.999995330811,6|0,0:0|0:0,0:0:0:0:
152,224,63950,2,0,P|150:150|207:102,1,152.999995330811,8|0,0:0|0:0,0:0:0:0:
136,40,64278,1,2,0:0:0:0:
64,184,64442,1,0,0:0:0:0:
184,280,64606,2,0,B|224:296|224:296|288:288,1,101.999996887207,8|0,0:0|0:0,0:0:0:0:
344,152,64934,2,2,L|344:32,1,101.999996887207
472,224,65262,2,0,L|472:328,1,101.999996887207,8|0,0:0|0:0,0:0:0:0:
320,296,65590,2,0,B|248:280|248:280|184:304|184:304|104:280,1,203.999993774414,2|8,0:0|0:0,0:0:0:0:
32,168,66081,1,0,0:0:0:0:
184,64,66245,6,0,L|184:224,1,152.999995330811,6|0,0:0|0:0,0:0:0:0:
232,160,66573,2,0,L|232:0,1,152.999995330811,8|0,0:0|0:0,0:0:0:0:
232,7,66901,1,2,0:0:0:0:
328,88,67065,1,2,0:0:0:0:
496,56,67229,1,8,0:0:0:0:
320,112,67393,1,0,0:0:0:0:
456,184,67557,5,2,0:0:0:0:
496,320,67721,1,2,0:0:0:0:
352,288,67885,2,0,P|280:304|240:296,1,101.999996887207,8|2,0:0|0:0,0:0:0:0:
88,192,68212,2,2,P|138:195|187:180,1,101.999996887207,10|2,0:0|0:0,0:0:0:0:
344,40,68540,2,10,P|295:55|244:51,1,101.999996887207
56,64,68868,6,0,L|63:225,1,152.999995330811,6|0,0:0|0:0,0:0:0:0:
117,271,69196,2,0,L|110:102,1,152.999995330811,8|0,0:0|0:0,0:0:0:0:
110,118,69524,1,2,0:0:0:0:
256,208,69688,1,2,0:0:0:0:
376,120,69852,1,8,0:0:0:0:
256,32,70016,1,0,0:0:0:0:
256,208,70180,6,2,P|248:264|272:320,1,101.999996887207
382,218,70508,2,0,P|390:162|366:106,1,101.999996887207,8|0,0:0|0:0,0:0:0:0:
240,48,70835,1,2,0:0:0:0:
88,80,70999,1,2,0:0:0:0:
128,224,71163,1,8,0:0:0:0:
280,192,71327,1,0,0:0:0:0:
128,224,71491,6,0,P|136:288|216:328,1,152.999995330811,6|0,0:0|0:0,0:0:0:0:
224,232,71819,2,0,P|184:136|144:128,1,152.999995330811,8|0,0:0|0:0,0:0:0:0:
145,127,72147,1,2,0:0:0:0:
16,264,72311,1,2,0:0:0:0:
8,112,72475,1,8,0:0:0:0:
144,48,72639,6,0,L|264:32,1,101.999996887207,0|2,0:0|0:0,0:0:0:0:
416,120,72967,2,0,L|296:144,1,101.999996887207,2|8,0:0|0:0,0:0:0:0:
168,168,73294,1,0,0:0:0:0:
184,320,73458,2,0,L|168:160,1,152.999995330811,2|0,0:0|0:0,0:0:0:0:
96,120,73786,2,0,P|141:84|237:116,1,152.999995330811,10|0,0:0|0:0,0:0:0:0:
296,144,74114,6,0,P|336:160|400:144,1,101.999996887207,6|0,0:0|0:0,0:0:0:0:
344,0,74442,1,8,0:0:0:0:
192,32,74606,1,0,0:0:0:0:
208,184,74770,2,2,P|187:221|195:287,1,101.999996887207
72,136,75098,2,0,P|92:98|84:32,1,101.999996887207,8|0,2:0|2:0,2:0:0:0:
216,128,75426,1,2,0:0:0:0:
360,176,75590,1,2,0:0:0:0:
496,104,75753,1,8,0:0:0:0:
496,256,75917,1,0,0:0:0:0:
360,176,76081,2,0,B|312:136|312:136|232:128|160:168,1,203.999993774414,2|8,0:0|0:0,0:0:0:0:
48,248,76573,1,0,0:0:0:0:
192,264,76737,6,0,L|208:368,1,101.999996887207,6|0,0:0|0:0,0:0:0:0:
304,248,77065,1,8,0:0:0:0:
448,304,77229,1,0,0:0:0:0:
424,152,77393,1,2,0:0:0:0:
304,248,77557,2,0,P|288:200|296:144,1,101.999996887207,2|8,0:0|0:0,0:0:0:0:
208,24,77885,1,0,0:0:0:0:
96,128,78049,6,0,L|88:344,1,203.999993774414,2|8,0:0|0:0,0:0:0:0:
224,256,78540,1,2,0:0:0:0:
344,344,78704,1,10,0:0:0:0:
344,344,78786,1,0,0:0:0:0:
344,344,78868,1,2,0:0:0:0:
400,144,79032,1,10,0:0:0:0:
88,72,79360,6,0,L|80:192,1,101.999996887207,6|2,0:0|0:0,0:0:0:0:
81,173,79606,1,0,0:0:0:0:
81,173,79688,1,8,0:0:0:0:
176,296,79852,2,0,P|240:320|320:272,1,152.999995330811,2|0,0:0|0:0,0:0:0:0:
240,224,80180,2,0,P|192:200|136:208,1,101.999996887207,2|8,0:0|0:0,0:0:0:0:
48,328,80508,2,0,L|24:112,1,203.999993774414,2|2,0:0|0:0,0:0:0:0:
176,136,80999,5,8,0:0:0:0:
296,40,81163,1,0,0:0:0:0:
392,160,81327,1,2,0:0:0:0:
320,24,81491,1,2,0:0:0:0:
240,232,81655,1,8,0:0:0:0:
128,128,81819,1,0,0:0:0:0:
240,232,81983,6,2,P|304:264|360:264,1,101.999996887207
333,266,82229,1,0,0:0:0:0:
333,266,82311,1,8,0:0:0:0:
448,160,82475,2,0,B|452:39|452:39|408:75,1,152.999995330811,2|0,0:0|0:0,0:0:0:0:
360,104,82803,2,0,P|304:112|256:80,1,101.999996887207,2|8,0:0|0:0,0:0:0:0:
128,0,83131,2,0,L|128:216,1,203.999993774414,2|2,0:0|0:0,0:0:0:0:
16,272,83622,1,8,0:0:0:0:
192,320,83786,2,0,L|312:304,1,101.999996887207,0|2,0:0|0:0,0:0:0:0:
352,160,84114,1,2,0:0:0:0:
208,104,84278,2,0,P|192:160|200:208,1,101.999996887207,8|0,0:0|0:0,0:0:0:0:
72,328,84606,6,2,L|64:208,1,101.999996887207
65,226,84852,1,0,0:0:0:0:
65,226,84934,1,8,0:0:0:0:
112,80,85098,2,0,B|192:88|192:88|288:72,1,152.999995330811,2|0,0:0|0:0,0:0:0:0:
336,96,85426,2,0,B|376:144|344:208,1,101.999996887207,2|8,0:0|0:0,0:0:0:0:
232,256,85753,2,0,P|288:336|392:312,1,203.999993774414,2|2,0:0|0:0,0:0:0:0:
488,184,86245,5,8,0:0:0:0:
352,104,86409,1,0,0:0:0:0:
488,32,86573,1,2,0:0:0:0:
352,104,86737,2,0,P|288:112|240:96,1,101.999996887207,2|8,0:0|0:0,0:0:0:0:
112,40,87065,1,0,0:0:0:0:
104,232,87229,5,10,0:0:0:0:
252,102,87393,1,10,0:0:0:0:
392,232,87557,1,10,0:0:0:0:
480,80,87721,1,10,0:0:0:0:
224,280,88049,1,10,0:0:0:0:
224,280,88376,1,10,0:0:0:0:
256,192,88458,12,0,89524,0:0:0:0:
