osu file format v14

[General]
AudioFilename: audio.mp3
AudioLeadIn: 0
PreviewTime: 58327
Countdown: 1
SampleSet: Soft
StackLeniency: 0.7
Mode: 0
LetterboxInBreaks: 0
WidescreenStoryboard: 0

[Editor]
Bookmarks: 5948,11278,21770,32262,42754,48000,69008
DistanceSpacing: 1.2
BeatDivisor: 4
GridSize: 4
TimelineZoom: 1

[Metadata]
Title:Blood Circulator
TitleUnicode:Blood Circulator
Artist:ASIAN KUNG-FU GENERATION
ArtistUnicode:ASIAN KUNG-FU GENERATION
Creator:Mercusheigan
Version:Nindou
Source:NARUTO-ナルト-疾風伝
Tags:naruto shippuden op 19 opening tv size uzumaki naruto kunai
BeatmapID:969863
BeatmapSetID:452130

[Difficulty]
HPDrainRate:6
CircleSize:4
OverallDifficulty:8
ApproachRate:9.3
SliderMultiplier:2
SliderTickRate:1

[Events]
//Background and Video events
0,0,"naruto-wallpapers-hd-22.jpg",0,0
Video,0,"Vid.avi"
//Break Periods
//Storyboard Layer 0 (Background)
//Storyboard Layer 1 (Fail)
//Storyboard Layer 2 (Pass)
//Storyboard Layer 3 (Foreground)
//Storyboard Sound Samples

[TimingPoints]
769,327.868852459016,4,2,1,80,1,0
769,-133.333333333333,4,2,1,40,0,0
3391,-133.333333333333,4,2,1,45,0,0
4047,-133.333333333333,4,2,1,50,0,0
4703,-133.333333333333,4,2,1,55,0,0
5031,-133.333333333333,4,2,1,60,0,0
5359,-133.333333333333,4,2,1,65,0,0
5687,-133.333333333333,4,2,1,70,0,0
6014,-100,4,2,1,70,0,0
11260,-117.647058823529,4,2,1,40,0,0
21752,-117.647058823529,4,2,1,55,0,0
28308,327.868852459016,4,2,1,80,1,0
28308,-117.647058823529,4,2,1,55,0,0
30940,333.333333333333,4,2,1,80,1,0
30940,-117.647058823529,4,2,1,55,0,0
32273,327.868852459016,4,2,1,80,1,0
32273,-100,4,2,1,70,0,0
48010,-117.647058823529,4,2,1,40,0,0
53883,-133.333333333333,4,2,1,40,0,0
58517,327.868852459016,4,2,1,80,1,0
58517,-100,4,2,1,70,0,1
79525,327.868852459016,4,2,1,80,1,0
79525,-100,4,2,1,70,0,0

[Colours]
Combo1 : 0,128,0
Combo2 : 74,153,232
Combo3 : 255,255,159

[HitObjects]
116,164,769,6,0,L|204:160,1,75.0000028610231,2|0,0:0|0:0,0:0:0:0:
326,275,1096,2,0,P|346:231|343:190,1,75.0000028610231,2|0,0:0|0:0,0:0:0:0:
212,80,1424,1,2,0:0:0:0:
257,215,1588,1,0,0:0:0:0:
212,80,1752,2,0,P|234:40|265:20,1,75.0000028610231,2|0,0:0|0:0,0:0:0:0:
257,215,2080,2,0,P|234:254|203:274,1,75.0000028610231,2|0,0:0|0:0,0:0:0:0:
80,118,2408,1,2,0:0:0:0:
246,142,2572,1,0,0:0:0:0:
138,274,2736,2,0,P|178:336|257:326,1,150.000005722046,2|2,0:0|0:0,0:0:0:0:
256,91,3228,1,0,0:0:0:0:
453,88,3391,6,0,L|461:178,1,75.0000028610231,2|0,0:0|0:0,0:0:0:0:
171,62,3719,2,0,L|164:136,1,75.0000028610231,2|0,0:0|0:0,0:0:0:0:
341,62,4047,2,0,L|347:136,1,75.0000028610231,2|0,0:0|0:0,0:0:0:0:
59,88,4375,2,0,L|52:162,1,75.0000028610231,2|0,0:0|0:0,0:0:0:0:
347,136,4703,5,2,0:0:0:0:
459,162,4867,1,0,0:0:0:0:
164,136,5031,1,2,0:0:0:0:
52,162,5195,1,0,0:0:0:0:
256,228,5359,1,2,0:0:0:0:
256,344,5523,1,0,0:0:0:0:
256,56,5687,1,4,0:0:0:0:
256,56,6014,6,0,L|257:165,2,100,10|0|2,0:0|0:0|0:0,0:0:0:0:
376,26,6506,1,0,0:0:0:0:
117,176,6834,1,0,0:0:0:0:
376,326,7162,1,0,0:0:0:0:
256,155,7490,1,0,0:0:0:0:
126,97,7654,2,0,P|54:127|73:242,2,200,2|2|2,0:0|0:0|0:0,0:0:0:0:
264,62,8637,5,8,0:0:0:0:
351,208,8801,1,8,0:0:0:0:
264,353,8965,1,8,0:0:0:0:
177,208,9129,2,0,P|105:221|48:115,2,200,0|0|2,0:0|0:0|0:0,0:0:0:0:
304,132,9949,2,0,P|367:122|409:138,1,100,2|0,0:0|0:0,0:0:0:0:
433,280,10277,1,2,0:0:0:0:
290,235,10441,1,0,0:0:0:0:
139,292,10605,2,0,P|70:242|93:119,1,200,2|2,0:0|0:0,0:0:0:0:
78,137,11260,6,0,B|122:138|157:161|157:161|189:138|243:137,1,170.000003242493,2|2,0:0|0:0,0:0:0:0:
381,42,11916,2,0,P|393:122|392:222,1,170.000003242493,2|2,0:0|0:0,0:0:0:0:
295,229,12408,2,0,L|295:277,1,42.5000008106232,8|0,0:0|0:0,0:0:0:0:
316,344,12572,2,0,P|275:299|172:308,1,170.000003242493,2|2,0:0|0:0,0:0:0:0:
82,164,13228,1,2,0:0:0:0:
251,144,13555,2,0,B|294:146|294:146|340:128|341:129,1,85.0000016212464,2|0,0:0|0:0,0:0:0:0:
240,61,13883,6,0,P|177:109|188:198,1,170.000003242493,2|2,0:0|0:0,0:0:0:0:
288,251,14375,1,0,0:0:0:0:
393,308,14539,2,0,B|416:227|416:227|393:122,1,170.000003242493,2|2,0:0|0:0,0:0:0:0:
347,35,15031,1,0,0:0:0:0:
278,132,15195,6,0,B|248:131|248:131|227:142|227:142|181:139,1,85.0000016212464,2|0,0:0|0:0,0:0:0:0:
288,251,15523,2,0,B|318:252|318:252|339:241|339:241|385:244,1,85.0000016212464,2|0,0:0|0:0,0:0:0:0:
271,347,15850,2,0,P|201:306|203:210,1,170.000003242493,2|2,0:0|0:0,0:0:0:0:
278,132,16342,1,0,0:0:0:0:
156,115,16506,6,0,L|66:125,1,85.0000016212464
133,237,16834,1,2,0:0:0:0:
203,344,16998,1,0,0:0:0:0:
356,269,17162,2,0,L|446:259,1,85.0000016212464,2|0,0:0|0:0,0:0:0:0:
459,133,17490,1,2,0:0:0:0:
395,21,17654,1,0,0:0:0:0:
259,122,17818,6,0,B|220:135|217:164|217:164|161:175|144:240,1,170.000003242493,2|2,0:0|0:0,0:0:0:0:
207,381,18473,2,0,B|246:368|249:339|249:339|305:328|322:263,1,170.000003242493,2|2,0:0|0:0,0:0:0:0:
259,122,18965,1,0,0:0:0:0:
431,92,19129,6,0,B|458:176|458:176|434:257,1,170.000003242493,2|2,0:0|0:0,0:0:0:0:
319,186,19621,1,0,0:0:0:0:
315,325,19785,2,0,P|261:335|217:316,1,85.0000016212464,2|0,0:0|0:0,0:0:0:0:
145,138,20113,1,2,0:0:0:0:
139,263,20277,1,0,0:0:0:0:
262,198,20441,6,0,B|303:209|303:209|352:197,1,85.0000016212464,2|0,0:0|0:0,0:0:0:0:
244,108,20768,2,0,P|170:177|187:253,2,170.000003242493,2|2|2,0:0|0:0|0:0,0:0:0:0:
244,108,21752,6,0,B|281:120|281:120|315:112|315:112|346:119|346:119|378:113|378:113|430:120,1,170.000003242493,8|2,0:0|0:0,0:0:0:0:
468,224,22244,1,0,0:0:0:0:
310,353,22408,1,2,0:0:0:0:
149,229,22572,1,0,0:0:0:0:
389,207,22736,2,0,P|430:228|484:213,1,85.0000016212464,2|0,0:0|0:0,0:0:0:0:
271,147,23064,6,0,P|186:160|148:238,1,170.000003242493,2|2,0:0|0:0,0:0:0:0:
130,355,23555,1,0,0:0:0:0:
253,319,23719,2,0,P|255:264|235:229,2,85.0000016212464,2|0|2,0:0|0:0|0:0,0:0:0:0:
130,355,24211,1,0,0:0:0:0:
242,238,24375,6,0,B|291:226|323:251|323:251|365:226|412:238,1,170.000003242493,8|2,0:0|0:0,0:0:0:0:
450,104,24867,1,0,0:0:0:0:
473,315,25031,2,0,P|413:329|373:313,2,85.0000016212464,2|0|2,0:0|0:0|0:0,0:0:0:0:
394,158,25523,1,0,0:0:0:0:
242,238,25687,6,0,P|165:266|72:221,1,170.000003242493,2|2,0:0|0:0,0:0:0:0:
175,90,26178,1,0,0:0:0:0:
332,159,26342,2,0,P|360:236|315:329,1,170.000003242493,2|2,0:0|0:0,0:0:0:0:
178,234,26834,1,0,0:0:0:0:
332,159,26998,6,0,B|445:159|445:159|497:129,1,170.000003242493,8|2,0:0|0:0,0:0:0:0:
392,0,27490,1,0,0:0:0:0:
222,28,27654,1,2,0:0:0:0:
332,159,27818,1,0,0:0:0:0:
178,234,27982,2,0,P|188:284|222:309,1,85.0000016212464,2|0,0:0|0:0,0:0:0:0:
241,151,28308,6,0,P|162:132|82:197,2,170.000003242493,2|2|2,0:0|0:0|0:0,0:0:0:0:
356,271,29127,1,0,0:0:0:0:
392,120,29291,2,0,P|405:72|391:31,1,85.0000016212464
241,151,29619,6,0,P|222:230|287:310,1,170.000003242493,8|2,0:0|0:0,0:0:0:0:
405,195,30111,1,0,0:0:0:0:
268,300,30275,2,0,B|224:312|224:312|188:306|188:306|145:312|145:312|94:300,1,170.000003242493,2|2,0:0|0:0,0:0:0:0:
186,126,30767,1,0,0:0:0:0:
268,300,30940,6,0,P|347:319|427:254,1,170.000003242493,8|2,0:0|0:0,0:0:0:0:
340,87,31440,1,0,0:0:0:0:
212,194,31606,2,0,P|173:199|131:174,1,85.0000016212464,2|0,0:0|0:0,0:0:0:0:
263,68,31940,1,2,0:0:0:0:
304,65,32023,1,2,0:0:0:0:
340,87,32106,1,2,0:0:0:0:
357,125,32190,1,2,0:0:0:0:
349,165,32273,6,0,P|327:246|397:355,1,200,8|2,0:0|0:0,0:0:0:0:
480,235,32764,1,0,0:0:0:0:
268,326,32928,2,0,B|217:336|217:336|161:318,2,100,2|0|2,0:0|0:0|0:0,0:0:0:0:
349,165,33420,1,0,0:0:0:0:
171,193,33584,6,0,B|160:140|160:140|177:89,1,100,2|0,0:0|0:0,0:0:0:0:
349,165,33912,2,0,B|360:218|360:218|343:269,1,100,2|0,0:0|0:0,0:0:0:0:
118,239,34240,2,0,P|81:162|127:48,1,200,2|2,0:0|0:0,0:0:0:0:
349,165,34732,1,0,0:0:0:0:
172,124,34895,6,0,P|119:145|58:121,1,100,8|0,0:0|0:0,0:0:0:0:
295,108,35223,2,0,P|348:87|409:111,1,100,2|0,0:0|0:0,0:0:0:0:
440,309,35551,2,0,L|445:193,2,100,2|0|2,0:0|0:0|0:0,0:0:0:0:
217,234,36043,1,0,0:0:0:0:
405,147,36207,6,0,P|452:132|506:165,1,100,2|0,0:0|0:0,0:0:0:0:
295,108,36535,2,0,P|251:85|236:23,1,100,2|0,0:0|0:0,0:0:0:0:
316,211,36863,2,0,P|285:306|168:318,1,200,2|2,0:0|0:0,0:0:0:0:
140,159,37354,1,0,0:0:0:0:
317,211,37518,6,0,B|355:228|355:228|385:213|385:213|415:226|415:226|441:215|441:215|471:228|471:228|505:208,1,200,8|2,0:0|0:0,0:0:0:0:
451,95,38010,1,0,0:0:0:0:
405,309,38174,2,0,B|352:319|352:319|306:309,2,100,2|0|2,0:0|0:0|0:0,0:0:0:0:
242,155,38666,1,0,0:0:0:0:
242,154,38830,6,0,P|253:106|245:57,1,100,2|0,0:0|0:0,0:0:0:0:
67,140,39158,2,0,P|59:189|70:237,1,100,2|0,0:0|0:0,0:0:0:0:
317,199,39486,2,0,P|336:96|310:-4,1,200,2|2,0:0|0:0,0:0:0:0:
156,114,39977,1,0,0:0:0:0:
317,199,40141,6,0,B|370:192|370:192|423:213,1,100,8|0,0:0|0:0,0:0:0:0:
287,324,40469,2,0,B|234:331|234:331|181:310,2,100,2|0|2,0:0|0:0|0:0,0:0:0:0:
348,88,40961,1,0,0:0:0:0:
392,268,41125,1,2,0:0:0:0:
460,32,41289,1,0,0:0:0:0:
315,198,41453,6,0,P|308:302|402:360,1,200,8|2,0:0|0:0,0:0:0:0:
512,208,41945,1,0,0:0:0:0:
315,198,42109,2,0,B|237:201|237:201|196:218|196:218|113:222|113:222,1,200,8|2,0:0|0:0,0:0:0:0:
118,221,42764,6,0,B|105:329|105:328,2,100,2|0|2,0:0|0:0|0:0,0:0:0:0:
263,59,43256,1,0,0:0:0:0:
430,308,43584,1,0,0:0:0:0:
56,149,43912,1,0,0:0:0:0:
364,96,44240,1,0,0:0:0:0:
276,273,44404,2,0,P|182:291|115:207,2,200,2|2|2,0:0|0:0|0:0,0:0:0:0:
276,273,45387,5,8,0:0:0:0:
217,54,45551,1,8,0:0:0:0:
434,113,45715,1,8,0:0:0:0:
171,191,45879,2,0,P|127:243|160:361,2,200,2|2|2,0:0|0:0|0:0,0:0:0:0:
428,162,46863,2,0,P|440:114|416:66,1,100
279,187,47191,1,0,0:0:0:0:
262,336,47354,1,0,0:0:0:0:
169,161,47682,2,0,P|121:149|73:173,1,100
279,187,48010,6,0,P|375:203|438:146,1,170.000003242493,8|8,0:0|0:0,0:0:0:0:
428,162,48666,2,0,L|447:265,2,85.0000016212464,8|0|0,0:0|0:0|0:0,0:0:0:0:
319,51,49158,1,0,0:0:0:0:
173,97,49322,6,0,P|130:112|79:108,1,85.0000016212464,8|0,0:0|0:0,0:0:0:0:
279,187,49650,2,0,P|348:142|428:162,2,170.000003242493,8|8|8,0:0|0:0|0:0,0:0:0:0:
248,338,50469,1,0,0:0:0:0:
364,239,50633,6,0,B|350:147|350:147|293:83,1,170.000003242493,8|8,0:0|0:0,0:0:0:0:
97,107,51289,2,0,B|101:164|90:193|90:193|106:218|111:284,1,170.000003242493,8|8,0:0|0:0,0:0:0:0:
248,338,51781,1,0,0:0:0:0:
364,239,51945,6,0,B|409:246|409:246|462:236,1,85.0000016212464,8|0,0:0|0:0,0:0:0:0:
316,147,52273,2,0,P|268:200|281:301,2,170.000003242493,8|8|8,0:0|0:0|0:0,0:0:0:0:
449,240,53092,1,0,0:0:0:0:
275,293,53256,2,0,B|209:298|209:298|176:317|176:317|99:322,1,170.000003242493,8|8,0:0|0:0,0:0:0:0:
117,171,53912,6,0,L|89:7,1,150.000005722046,8|8,0:0|0:0,0:0:0:0:
232,87,54568,1,8,0:0:0:0:
372,23,54895,2,0,L|347:171,1,150.000005722046,8|8,0:0|0:0,0:0:0:0:
236,273,55551,1,8,0:0:0:0:
387,243,55879,2,0,B|452:193|408:103,2,150.000005722046,8|8|8,0:0|0:0|0:0,0:0:0:0:
236,273,56863,1,8,0:0:0:0:
291,52,57191,1,12,0:0:0:0:
199,233,58517,6,0,P|121:203|105:98,1,200,12|2,0:0|0:0,0:0:0:0:
274,48,59008,1,0,0:0:0:0:
440,104,59172,2,0,P|450:46|437:-9,2,100,2|0|2,0:0|0:0|0:0,0:0:0:0:
398,283,59664,1,0,0:0:0:0:
199,233,59828,6,0,B|148:247|148:247|93:242,1,100,2|0,0:0|0:0,0:0:0:0:
225,118,60156,2,0,B|276:104|276:104|331:109,2,100,2|0|2,0:0|0:0|0:0,0:0:0:0:
269,312,60648,1,0,0:0:0:0:
322,108,60812,1,2,0:0:0:0:
367,303,60976,1,0,0:0:0:0:
225,117,61139,6,0,P|125:110|77:18,1,200,8|2,0:0|0:0,0:0:0:0:
316,68,61631,1,0,0:0:0:0:
302,271,61795,2,0,L|311:163,2,100,2|0|2,0:0|0:0|0:0,0:0:0:0:
155,116,62287,1,0,0:0:0:0:
310,171,62451,6,0,P|360:199|409:191,1,100,2|0,0:0|0:0,0:0:0:0:
512,69,62779,2,0,P|456:84|427:124,1,100,2|0,0:0|0:0,0:0:0:0:
466,284,63107,2,0,P|494:233|486:185,1,100,2|0,0:0|0:0,0:0:0:0:
308,170,63435,1,2,0:0:0:0:
430,115,63598,1,0,0:0:0:0:
385,306,63762,6,0,P|312:328|200:280,1,200,8|2,0:0|0:0,0:0:0:0:
308,170,64254,1,0,0:0:0:0:
159,130,64418,2,0,L|150:22,2,100,2|0|2,0:0|0:0|0:0,0:0:0:0:
201,282,64910,1,0,0:0:0:0:
337,216,65074,6,0,B|390:222|390:222|437:206,1,100,2|0,0:0|0:0,0:0:0:0:
256,116,65402,2,0,B|203:114|203:114|157:130,1,100,2|0,0:0|0:0,0:0:0:0:
201,338,65730,2,0,L|205:228,1,100,2|0,0:0|0:0,0:0:0:0:
291,25,66057,1,2,0:0:0:0:
434,206,66221,1,0,0:0:0:0:
204,238,66385,6,0,P|144:257|104:237,1,100,8|0,0:0|0:0,0:0:0:0:
342,211,66713,2,0,P|402:192|442:212,1,100,2|0,0:0|0:0,0:0:0:0:
340,336,67041,1,2,0:0:0:0:
204,238,67205,1,0,0:0:0:0:
301,103,67369,1,2,0:0:0:0:
433,205,67533,1,0,0:0:0:0:
204,238,67697,6,0,P|132:169|154:64,1,200,8|2,0:0|0:0,0:0:0:0:
301,103,68189,1,0,0:0:0:0:
304,258,68353,2,0,P|235:330|130:308,1,200,8|2,0:0|0:0,0:0:0:0:
142,317,69008,6,0,P|214:248|192:143,1,200,8|2,0:0|0:0,0:0:0:0:
34,182,69500,1,0,0:0:0:0:
201,155,69664,2,0,B|253:143|253:143|303:148,2,100,2|0|2,0:0|0:0|0:0,0:0:0:0:
142,317,70156,1,0,0:0:0:0:
337,224,70320,6,0,P|380:162|377:124,1,100,2|0,0:0|0:0,0:0:0:0:
222,282,70648,2,0,P|269:334|330:347,1,100,2|0,0:0|0:0,0:0:0:0:
470,235,70976,1,2,0:0:0:0:
297,142,71139,1,0,0:0:0:0:
394,312,71303,1,2,0:0:0:0:
405,114,71466,1,0,0:0:0:0:
296,295,71631,6,0,P|218:275|134:351,1,200,8|2,0:0|0:0,0:0:0:0:
330,377,72123,1,0,0:0:0:0:
327,209,72287,2,0,P|336:152|321:113,2,100,2|0|2,0:0|0:0|0:0,0:0:0:0:
193,305,72779,1,0,0:0:0:0:
180,141,72943,6,0,B|133:122|133:122|73:132,1,100,2|0,0:0|0:0,0:0:0:0:
112,347,73271,1,2,0:0:0:0:
126,206,73435,1,0,0:0:0:0:
239,289,73598,2,0,B|286:308|286:308|346:298,1,100,2|0,0:0|0:0,0:0:0:0:
461,241,73926,1,2,0:0:0:0:
447,382,74090,1,0,0:0:0:0:
334,299,74254,6,0,P|305:211|363:121,1,200,8|2,0:0|0:0,0:0:0:0:
461,241,74746,1,0,0:0:0:0:
410,64,74910,2,0,P|356:45|314:58,2,100,2|0|2,0:0|0:0|0:0,0:0:0:0:
461,241,75402,1,0,0:0:0:0:
288,258,75566,6,0,P|240:270|195:250,1,100,2|0,0:0|0:0,0:0:0:0:
205,71,75894,2,0,P|252:58|297:78,1,100,2|0,0:0|0:0,0:0:0:0:
330,315,76221,2,0,P|228:339|122:275,1,200,2|2,0:0|0:0,0:0:0:0:
59,163,76713,1,0,0:0:0:0:
251,198,76877,2,0,P|271:150|262:90,1,100,8|0,0:0|0:0,0:0:0:0:
153,201,77205,2,0,L|142:325,2,100,2|0|2,0:0|0:0|0:0,0:0:0:0:
168,35,77697,1,0,0:0:0:0:
251,198,77861,1,2,0:0:0:0:
59,163,78025,1,0,0:0:0:0:
267,103,78189,6,0,P|366:100|425:190,1,200,8|2,0:0|0:0,0:0:0:0:
293,267,78681,1,0,0:0:0:0:
182,159,78844,2,0,P|179:59|269:0,1,200,8|2,0:0|0:0,0:0:0:0:
252,2,79525,6,0,P|239:51|249:102,2,100,10|0|2,0:0|0:0|0:0,0:0:0:0:
356,57,80016,1,0,0:0:0:0:
126,179,80344,1,0,0:0:0:0:
353,305,80672,1,0,0:0:0:0:
247,98,81000,1,0,0:0:0:0:
250,242,81164,2,0,P|141:294|57:246,2,200,2|2|2,0:0|0:0|0:0,0:0:0:0:
408,60,82147,5,8,0:0:0:0:
334,232,82311,1,8,0:0:0:0:
330,52,82475,1,8,0:0:0:0:
418,258,82639,1,8,0:0:0:0:
434,278,82967,1,8,0:0:0:0:
451,297,83295,1,8,0:0:0:0:
250,242,83623,2,0,P|185:256|145:242,1,100
101,113,83951,1,0,0:0:0:0:
258,162,84115,2,0,P|306:141|445:223,1,200
432,196,84770,6,0,L|424:317,2,100,8|0|2,0:0|0:0|0:0,0:0:0:0:
442,67,85262,1,0,0:0:0:0:
260,253,85590,1,0,0:0:0:0:
111,39,85918,1,0,0:0:0:0:
57,292,86246,1,0,0:0:0:0:
197,327,86410,2,0,P|288:342|358:241,2,200,2|2|2,0:0|0:0|0:0,0:0:0:0:
167,83,87393,5,8,0:0:0:0:
345,83,87557,1,8,0:0:0:0:
131,204,87721,1,8,0:0:0:0:
381,204,87885,1,8,0:0:0:0:
257,323,88213,1,8,0:0:0:0:
257,39,88541,1,6,0:0:0:0:
