osu file format v14

[General]
AudioFilename: Asian Kung-fu Generation - Blood Circulator.mp3
AudioLeadIn: 0
PreviewTime: 32065
Countdown: 0
SampleSet: Normal
StackLeniency: 0.3
Mode: 0
LetterboxInBreaks: 0
WidescreenStoryboard: 0

[Editor]
DistanceSpacing: 1.6
BeatDivisor: 4
GridSize: 4
TimelineZoom: 2.5

[Metadata]
Title:Blood Circulator
TitleUnicode:ブラッドサーキュレーター
Artist:ASIAN KUNG-FU GENERATION
ArtistUnicode:ASIAN KUNG-FU GENERATION
Creator:Lefia
Version:Insane
Source:NARUTO -ナルト- 疾風伝
Tags:Nyu - Naruto Shippuuden opening 19 tv tokyo Akg vs sasuke
BeatmapID:1103847
BeatmapSetID:516022

[Difficulty]
HPDrainRate:6.7
CircleSize:4
OverallDifficulty:8
ApproachRate:8.7
SliderMultiplier:1.80000000596046
SliderTickRate:1

[Events]
//Background and Video events
0,0,"BG.jpg",0,0
Video,0,"Video.avi"
//Break Periods
//Storyboard Layer 0 (Background)
//Storyboard Layer 1 (Fail)
//Storyboard Layer 2 (Pass)
//Storyboard Layer 3 (Foreground)
//Storyboard Sound Samples

[TimingPoints]
666,327.868852459016,4,2,1,40,1,0
666,-125,4,2,1,40,0,0
3616,-111.111111111111,4,1,1,45,0,0
3944,-111.111111111111,4,1,1,45,0,0
4272,-111.111111111111,4,1,1,55,0,0
4600,-111.111111111111,4,1,1,60,0,0
4928,-111.111111111111,4,1,1,65,0,0
5584,-111.111111111111,4,1,1,75,0,0
5911,-111.111111111111,4,1,1,75,0,0
11157,-133.333333333333,4,2,1,55,0,0
21656,327.868852459016,4,1,1,65,1,0
21656,-125,4,1,1,65,0,0
31655,-100,4,1,1,65,0,0
32147,-100,4,1,1,60,0,1
42639,-111.111111111111,4,1,1,60,0,0
47893,327.868852459016,4,2,1,60,1,0
47893,-166.666666666667,4,2,1,60,0,0
58056,-166.666666666667,4,2,1,5,0,0
58419,327.868852459016,4,1,1,75,1,1
68828,-100,4,1,1,75,0,0
68910,-100,4,1,1,75,0,1
79402,-111.111111111111,4,1,1,75,0,0
88418,-125,4,2,1,75,0,0
89567,-125,4,2,1,5,0,0

[Colours]
Combo1 : 179,179,255
Combo2 : 255,128,64
Combo3 : 128,128,255
Combo4 : 255,174,136

[HitObjects]
140,124,666,5,2,0:0:0:0:
240,132,829,1,0,0:0:0:0:
184,216,993,1,0,0:0:0:0:
288,64,1157,2,0,P|328:136|284:200,1,144.000000476837,2|0,0:0|0:0,0:0:0:0:
184,216,1649,1,0,0:0:0:0:
96,132,1813,6,0,L|256:132,1,144.000000476837,2|0,0:0|0:0,0:0:0:0:
424,200,2305,2,0,L|348:200,1,72.0000002384184,2|0,0:0|0:0,0:0:0:0:
168,132,2633,2,0,L|244:132,1,72.0000002384184
256,300,2961,2,0,L|260:200,1,72.0000002384184,2|0,0:0|0:0,0:0:0:0:
333,111,3289,6,0,L|332:40,1,72.0000002384184,2|0,0:0|0:0,0:0:0:0:
112,56,3616,2,0,L|129:135,1,80.9999977962969,8|0,0:0|0:0,0:0:0:0:
413,143,3944,2,8,L|412:72,1,72.0000002384184,8|0,0:0|0:0,0:0:0:0:
192,68,4272,2,8,L|209:147,1,80.9999977962969,8|0,0:0|0:0,0:0:0:0:
489,175,4600,6,8,L|488:92,1,80.9999977962969,8|0,0:0|0:0,0:0:0:0:
276,84,4928,2,8,L|293:163,1,80.9999977962969,8|0,0:0|0:0,0:0:0:0:
316,276,5256,1,8,0:0:0:0:
400,200,5420,1,0,0:0:0:0:
224,240,5584,2,0,L|108:256,1,80.9999977962969,12|0,0:0|2:0,0:0:0:0:
224,324,5911,6,0,L|328:308,1,80.9999977962969
384,148,6239,1,8,0:0:0:0:
464,192,6403,2,0,P|424:232|308:200,1,161.999995592594
212,88,6895,1,8,0:0:0:0:
380,0,7059,6,0,B|368:48|368:48|400:100|400:100|380:172,1,161.999995592594
316,316,7551,2,0,P|272:328|224:308,1,80.9999977962969,8|0,0:0|2:0,0:0:0:0:
160,168,7879,1,0,0:0:0:0:
200,68,8043,1,0,0:0:0:0:
268,152,8206,2,0,L|272:248,1,80.9999977962969,8|0,0:0|2:0,0:0:0:0:
372,240,8534,6,0,P|410:230|456:240,1,80.9999977962969
412,336,8862,1,8,0:0:0:0:
271,232,9026,2,0,P|232:156|284:76,1,161.999995592594
364,40,9518,1,8,0:0:0:0:
484,136,9682,6,0,L|312:160,1,161.999995592594
200,296,10174,1,8,0:0:0:0:
216,184,10338,1,0,0:0:0:0:
300,260,10502,2,0,P|308:300|300:348,1,80.9999977962969
216,184,10829,2,0,P|208:144|216:96,1,80.9999977962969,8|0,0:0|2:0,0:0:0:0:
300,260,11157,6,0,L|208:268,1,67.500002798438,4|0,0:0|0:0,0:0:0:0:
80,344,11485,1,8,0:0:0:0:
132,268,11649,1,0,0:0:0:0:
172,352,11813,2,0,L|256:348,1,67.500002798438
328,224,12141,1,8,0:0:0:0:
248,264,12305,1,0,0:0:0:0:
328,316,12469,6,0,L|416:316,1,67.500002798438
328,224,12797,2,0,L|252:224,1,67.500002798438,8|0,0:0|0:0,0:0:0:0:
156,208,13125,2,0,P|148:240|156:275,1,67.500002798438
260,224,13452,1,8,0:0:0:0:
224,136,13616,1,0,0:0:0:0:
132,112,13780,6,0,L|36:116,1,67.500002798438
156,208,14108,1,8,0:0:0:0:
224,136,14272,1,0,0:0:0:0:
224,136,14436,2,0,L|320:132,1,67.500002798438
392,208,14764,1,8,0:0:0:0:
360,296,14928,1,0,0:0:0:0:
296,228,15092,6,0,L|208:228,1,67.500002798438
136,285,15420,2,0,B|140:325|140:325|132:357,1,67.500002798438,8|0,0:0|0:0,0:0:0:0:
48,232,15747,2,0,B|44:192|44:192|52:160,1,67.500002798438
180,56,16075,1,8,0:0:0:0:
164,148,16239,1,0,0:0:0:0:
92,88,16403,6,0,L|92:8,1,67.500002798438
252,112,16731,1,8,0:0:0:0:
236,208,16895,1,0,0:0:0:0:
164,148,17059,6,0,L|164:60,1,67.500002798438
324,172,17387,1,8,0:0:0:0:
308,268,17551,1,0,0:0:0:0:
236,208,17715,6,0,L|236:120,1,67.500002798438
324,36,18043,2,0,L|324:116,1,67.500002798438,8|0,0:0|0:0,0:0:0:0:
216,248,18370,6,0,L|216:160,1,67.500002798438
324,36,18698,1,8,0:0:0:0:
324,132,18862,1,0,0:0:0:0:
244,84,19026,6,0,P|208:80|164:100,1,67.500002798438
120,232,19354,1,8,0:0:0:0:
172,312,19518,1,0,0:0:0:0:
216,224,19682,2,0,L|212:128,1,67.500002798438
308,228,20010,1,8,0:0:0:0:
260,308,20174,1,0,0:0:0:0:
153,302,20338,6,0,L|153:389,1,67.500002798438
42,289,20666,2,0,L|42:221,1,67.500002798438,8|0,0:0|0:0,0:0:0:0:
108,136,20993,2,0,L|176:136,1,67.500002798438
296,204,21321,2,0,L|228:204,1,67.500002798438,8|0,0:0|0:0,0:0:0:0:
364,144,21656,6,0,P|392:216|352:276,1,144.000000476837,4|8,0:0|0:0,0:0:0:0:
184,296,22148,1,0,2:0:0:0:
228,204,22312,2,0,L|304:204,1,72.0000002384184
433,269,22640,2,0,L|361:269,1,72.0000002384184,8|0,0:0|2:0,0:0:0:0:
492,200,22968,6,0,P|520:240|500:336,2,144.000000476837,0|8|0,0:0|0:0|0:0,0:0:0:0:
356,148,23787,1,0,0:0:0:0:
308,236,23951,2,0,P|332:260|392:264,1,72.0000002384184,8|0,0:0|2:0,0:0:0:0:
356,148,24279,6,0,P|286:135|220:184,1,144.000000476837,0|8,0:0|0:0,0:0:0:0:
132,280,24771,1,0,2:0:0:0:
52,220,24935,2,0,L|48:140,1,72.0000002384184
116,72,25263,2,0,L|112:-8,1,72.0000002384184,8|0,0:0|0:0,0:0:0:0:
48,148,25591,6,0,P|112:180|184:152,1,144.000000476837,0|8,0:0|0:0,0:0:0:0:
296,36,26082,1,0,2:0:0:0:
376,100,26246,2,0,P|392:144|396:180,1,72.0000002384184
312,328,26574,2,0,P|298:294|292:259,1,72.0000002384184,8|0,0:0|0:0,0:0:0:0:
395,168,26902,6,0,L|495:168,1,72.0000002384184,4|0,0:0|2:0,0:0:0:0:
356,252,27230,2,0,P|316:220|312:132,1,144.000000476837,8|0,0:0|0:0,0:0:0:0:
428,52,27722,1,0,0:0:0:0:
463,147,27886,2,0,L|371:175,1,72.0000002384184,8|0,0:0|2:0,0:0:0:0:
217,227,28213,6,0,B|284:255|284:255|365:251,2,144.000000476837,0|8|0,0:0|0:0|0:0,0:0:0:0:
228,60,29033,1,0,0:0:0:0:
292,168,29197,2,0,L|216:140,1,72.0000002384184,8|0,0:0|2:0,0:0:0:0:
383,125,29525,6,0,P|396:191|348:255,1,144.000000476837,0|8,0:0|0:0,0:0:0:0:
226,324,30017,1,0,2:0:0:0:
226,324,30181,2,0,L|218:224,1,72.0000002384184
286,96,30509,2,0,L|294:196,1,72.0000002384184,8|0,0:0|0:0,0:0:0:0:
108,84,30836,5,0,0:0:0:0:
188,24,31000,1,0,0:0:0:0:
204,124,31164,2,0,L|212:204,1,72.0000002384184,8|0,0:0|0:0,0:0:0:0:
312,336,31492,1,0,0:0:0:0:
412,260,31656,5,0,0:0:0:0:
408,224,31738,1,0,0:0:0:0:
404,188,31820,1,0,0:0:0:0:
400,152,31902,1,0,0:0:0:0:
396,116,31984,1,0,0:0:0:0:
392,80,32066,1,0,0:0:0:0:
388,40,32147,6,0,P|343:40|298:31,1,90.000000298023,4|0,0:0|2:0,0:0:0:0:
108,104,32475,2,0,P|156:104|208:116,1,90.000000298023,8|0,0:0|2:0,0:0:0:0:
360,188,32803,1,0,0:0:0:0:
252,256,32967,1,0,0:0:0:0:
248,132,33131,2,0,P|256:80|236:36,1,90.000000298023,8|0,0:0|0:0,0:0:0:0:
108,104,33459,6,0,L|112:212,1,90.000000298023
272,280,33786,1,8,0:0:0:0:
356,188,33950,1,0,0:0:0:0:
360,312,34114,2,0,P|328:360|264:368,1,90.000000298023
266,184,34442,2,0,L|366:188,1,90.000000298023,8|0,0:0|2:0,0:0:0:0:
447,314,34770,6,0,B|390:323|390:323|357:310,1,90.000000298023,4|0,0:0|2:0,0:0:0:0:
176,264,35098,2,0,B|233:255|233:255|263:266,1,90.000000298023,8|0,0:0|2:0,0:0:0:0:
104,368,35426,1,0,0:0:0:0:
104,368,35590,1,0,0:0:0:0:
48,256,35753,1,8,0:0:0:0:
48,256,35917,1,0,0:0:0:0:
124,156,36082,6,0,L|244:140,1,90.000000298023
384,208,36409,1,8,0:0:0:0:
340,328,36573,1,0,0:0:0:0:
256,236,36737,2,0,B|240:192|240:192|240:128,1,90.000000298023
376,80,37065,2,0,B|392:124|392:124|392:188,1,90.000000298023,8|0,0:0|2:0,0:0:0:0:
284,72,37393,6,0,P|332:4|432:8,1,180.000000596046,4|8,0:0|0:0,0:0:0:0:
468,176,37885,1,0,0:0:0:0:
468,176,37967,1,0,0:0:0:0:
468,176,38049,1,0,0:0:0:0:
296,184,38212,1,0,0:0:0:0:
376,80,38377,2,0,L|380:180,1,90.000000298023,8|0,0:0|2:0,0:0:0:0:
460,312,38705,6,0,B|420:332|420:332|372:312,1,90.000000298023
224,200,39032,1,8,0:0:0:0:
348,168,39196,1,0,0:0:0:0:
308,288,39360,2,0,L|308:388,1,90.000000298023
224,200,39688,2,0,L|224:100,1,90.000000298023,8|0,0:0|2:0,0:0:0:0:
308,288,40016,6,0,B|264:304|264:304|196:280,1,90.000000298023,4|0,0:0|2:0,0:0:0:0:
92,164,40344,1,8,0:0:0:0:
156,56,40508,1,0,0:0:0:0:
208,172,40671,1,0,0:0:0:0:
52,72,40835,1,0,0:0:0:0:
176,48,41000,2,0,L|272:48,1,90.000000298023,8|0,0:0|2:0,0:0:0:0:
436,164,41327,5,0,0:0:0:0:
316,224,41491,1,0,0:0:0:0:
320,88,41655,1,8,0:0:0:0:
416,276,41819,1,0,0:0:0:0:
416,276,41983,2,0,P|348:336|272:328,1,135.000000447034,8|0,0:0|2:0,0:0:0:0:
248,344,42311,2,0,L|96:352,1,135.000000447034,8|0,0:0|2:0,0:0:0:0:
60,328,42639,5,0,0:0:0:0:
108,224,42803,1,0,0:0:0:0:
168,320,42967,1,8,0:0:0:0:
48,152,43131,2,0,P|132:132|192:188,1,161.999995592594
252,344,43623,1,8,0:0:0:0:
114,384,43787,6,0,L|106:196,1,161.999995592594
208,84,44279,2,0,L|196:196,1,80.9999977962969,8|0,0:0|0:0,0:0:0:0:
35,61,44607,1,0,0:0:0:0:
143,33,44770,1,0,0:0:0:0:
115,141,44934,2,0,L|103:257,1,80.9999977962969,8|0,0:0|2:0,0:0:0:0:
276,248,45262,5,0,0:0:0:0:
388,256,45426,1,0,0:0:0:0:
320,344,45590,1,8,0:0:0:0:
336,176,45754,2,0,L|340:80,1,80.9999977962969
228,28,46082,2,0,L|240:124,1,80.9999977962969,8|0,0:0|2:0,0:0:0:0:
144,280,46410,6,0,L|132:184,1,80.9999977962969,8|0,0:0|2:0,0:0:0:0:
280,104,46738,1,0,2:0:0:0:
388,124,46902,1,0,2:0:0:0:
312,212,47066,1,0,2:0:0:0:
352,44,47229,2,0,L|456:52,1,80.9999977962969,0|0,2:0|0:0,0:0:0:0:
428,204,47557,1,8,0:0:0:0:
356,292,47721,1,0,0:0:0:0:
356,292,47893,6,0,P|308:264|252:284,1,107.999997061729,4|0,0:0|0:0,0:0:0:0:
184,340,48384,1,0,0:0:0:0:
124,264,48548,2,0,L|127:156,1,107.999997061729,8|0,0:0|0:0,0:0:0:0:
192,84,49040,1,0,0:0:0:0:
276,136,49204,6,0,L|272:212,1,53.9999985308646
368,172,49532,2,0,L|370:248,1,53.9999985308646
468,208,49860,2,0,L|477:283,1,53.9999985308646,8|0,0:0|0:0,0:0:0:0:
396,320,50188,1,0,0:0:0:0:
268,344,50406,1,0,0:0:0:0:
268,344,50515,6,0,L|148:328,1,107.999997061729
88,264,51007,1,0,0:0:0:0:
180,232,51171,2,0,B|196:180|196:180|184:116,1,107.999997061729,8|0,0:0|0:0,0:0:0:0:
160,32,51663,1,0,0:0:0:0:
160,32,51745,1,0,0:0:0:0:
160,32,51827,6,0,L|228:40,1,53.9999985308646
288,104,52155,2,0,L|341:110,1,53.9999985308646
436,128,52483,2,0,B|444:164|444:164|436:196,1,53.9999985308646,8|0,0:0|0:0,0:0:0:0:
352,220,52811,2,0,B|347:236|347:236|355:272,1,53.9999985308646
424,340,53138,6,0,P|372:368|320:360,2,107.999997061729,8|0|8,0:0|0:0|0:0,0:0:0:0:
508,212,54122,1,0,0:0:0:0:
344,152,54450,6,0,L|352:216,1,53.9999985308646,8|0,0:0|0:0,0:0:0:0:
276,268,54778,2,0,L|269:214,1,53.9999985308646
188,188,55106,2,0,L|196:252,1,53.9999985308646,8|0,0:0|0:0,0:0:0:0:
120,304,55434,2,0,L|113:250,1,53.9999985308646
100,152,55761,5,8,0:0:0:0:
276,68,56089,1,8,0:0:0:0:
228,256,56417,5,8,0:0:0:0:
404,172,56745,1,8,0:0:0:0:
324,348,57073,6,0,L|196:344,1,107.999997061729,8|0,0:0|0:0,0:0:0:0:
132,296,57565,1,0,0:0:0:0:
212,240,57729,2,0,B|240:152|240:152|208:72,1,175.49999522531
92,180,58419,6,0,B|95:245|95:245|104:272,1,90.000000298023,4|0,0:0|2:0,0:0:0:0:
212,240,58746,2,0,B|208:305|208:305|200:332,1,90.000000298023,8|0,0:0|2:0,0:0:0:0:
160,144,59074,1,0,0:0:0:0:
284,156,59238,1,0,0:0:0:0:
212,240,59402,1,8,0:0:0:0:
224,80,59566,1,0,0:0:0:0:
224,80,59730,6,0,P|176:56|116:68,2,90.000000298023,0|0|8,0:0|0:0|0:0,0:0:0:0:
296,196,60222,1,0,0:0:0:0:
201,281,60386,1,0,0:0:0:0:
172,160,60550,1,0,0:0:0:0:
296,196,60714,2,0,B|340:212|340:212|376:252,1,90.000000298023,8|0,0:0|2:0,0:0:0:0:
440,348,61041,6,0,B|340:320,1,90.000000298023,4|0,0:0|2:0,0:0:0:0:
204,248,61369,2,0,B|304:276,1,90.000000298023,8|0,0:0|2:0,0:0:0:0:
124,344,61697,1,0,0:0:0:0:
84,224,61861,1,0,0:0:0:0:
204,248,62025,2,0,L|212:128,1,90.000000298023,8|0,0:0|2:0,0:0:0:0:
248,324,62353,6,0,P|204:334|160:320,2,90.000000298023,0|0|8,0:0|0:0|0:0,0:0:0:0:
404,208,62845,1,0,0:0:0:0:
328,108,63009,2,0,L|220:100,1,90.000000298023,0|0,0:0|2:0,0:0:0:0:
272,224,63337,2,0,L|376:232,1,90.000000298023,8|0,0:0|2:0,0:0:0:0:
464,192,63664,6,0,B|476:236|476:236|460:300,1,90.000000298023,4|0,0:0|2:0,0:0:0:0:
376,120,63992,2,0,B|364:76|364:76|380:12,1,90.000000298023,8|0,0:0|2:0,0:0:0:0:
372,220,64320,1,0,0:0:0:0:
296,320,64484,1,0,0:0:0:0:
236,208,64648,2,0,P|176:196|120:224,1,90.000000298023,8|0,0:0|0:0,0:0:0:0:
296,320,64976,6,0,L|416:320,2,90.000000298023,0|0|8,0:0|0:0|0:0,0:0:0:0:
136,244,65468,1,0,0:0:0:0:
118,117,65632,1,0,0:0:0:0:
236,164,65796,1,0,0:0:0:0:
136,244,65959,2,0,L|16:244,1,90.000000298023,8|0,0:0|2:0,0:0:0:0:
236,164,66287,6,0,B|268:116|268:116|312:176|380:156,1,180.000000596046,4|8,0:0|0:0,0:0:0:0:
456,4,66779,1,0,0:0:0:0:
348,71,66943,1,0,0:0:0:0:
460,125,67107,1,0,0:0:0:0:
348,71,67271,2,0,L|384:184,1,90.000000298023,8|0,0:0|2:0,0:0:0:0:
404,336,67599,5,0,0:0:0:0:
468,248,67763,1,0,0:0:0:0:
320,272,67927,2,0,L|216:280,1,90.000000298023,8|0,0:0|2:0,0:0:0:0:
68,360,68255,2,0,P|40:284|64:224,1,135.000000447034,8|0,0:0|2:0,0:0:0:0:
80,180,68582,2,0,B|100:112|100:112|68:28,1,135.000000447034,8|0,0:0|2:0,0:0:0:0:
77,52,68910,6,0,P|125:52|177:64,1,90.000000298023,4|0,0:0|2:0,0:0:0:0:
352,160,69238,2,0,P|307:160|262:151,1,90.000000298023,8|0,0:0|2:0,0:0:0:0:
368,40,69566,1,0,0:0:0:0:
495,37,69730,1,0,0:0:0:0:
441,155,69894,2,0,L|338:160,1,90.000000298023,8|0,0:0|0:0,0:0:0:0:
220,72,70222,6,0,L|309:68,1,90.000000298023
144,216,70549,1,8,0:0:0:0:
140,92,70713,1,0,0:0:0:0:
252,148,70877,2,0,L|256:252,1,90.000000298023
112,304,71205,2,0,L|212:308,1,90.000000298023,8|0,0:0|2:0,0:0:0:0:
360,328,71533,6,0,B|351:271|351:271|364:238,1,90.000000298023,4|0,0:0|2:0,0:0:0:0:
428,44,71861,2,0,B|437:101|437:101|426:131,1,90.000000298023,8|0,0:0|2:0,0:0:0:0:
316,48,72189,1,0,0:0:0:0:
316,48,72353,1,0,0:0:0:0:
192,100,72517,1,8,0:0:0:0:
192,100,72681,1,0,0:0:0:0:
296,184,72845,6,0,L|300:300,1,90.000000298023
112,240,73172,1,8,0:0:0:0:
176,120,73336,1,0,0:0:0:0:
296,184,73500,2,0,B|340:168|340:168|404:168,1,90.000000298023
500,268,73828,2,0,B|456:284|456:284|392:284,1,90.000000298023,8|0,0:0|2:0,0:0:0:0:
256,116,74156,6,0,B|320:92|320:92|452:88,1,180.000000596046,4|8,0:0|0:0,0:0:0:0:
344,204,74648,1,0,0:0:0:0:
344,204,74730,1,0,0:0:0:0:
344,204,74812,1,0,0:0:0:0:
180,220,74975,1,0,0:0:0:0:
260,116,75140,2,0,L|264:216,1,90.000000298023,8|0,0:0|2:0,0:0:0:0:
264,344,75468,6,0,B|224:364|224:364|182:346,1,90.000000298023
96,144,75795,1,8,0:0:0:0:
232,140,75959,1,0,0:0:0:0:
168,260,76123,2,0,L|68:284,1,90.000000298023
256,220,76451,2,0,L|360:196,1,90.000000298023,8|0,0:0|2:0,0:0:0:0:
300,288,76779,6,0,B|256:320|208:284,1,90.000000298023,4|0,0:0|2:0,0:0:0:0:
92,164,77107,1,8,0:0:0:0:
156,56,77271,1,0,0:0:0:0:
208,172,77434,1,0,0:0:0:0:
52,72,77598,1,0,0:0:0:0:
176,48,77763,2,0,L|272:48,1,90.000000298023,8|0,0:0|2:0,0:0:0:0:
436,164,78090,5,0,0:0:0:0:
316,224,78254,1,0,0:0:0:0:
320,88,78418,1,8,0:0:0:0:
416,276,78582,1,0,0:0:0:0:
416,276,78746,2,0,B|368:328|368:328|272:328,1,135.000000447034,8|0,0:0|2:0,0:0:0:0:
244,328,79074,2,0,B|196:336|164:288|164:288|96:320,1,135.000000447034,8|0,0:0|2:0,0:0:0:0:
80,328,79402,6,0,L|64:224,1,80.9999977962969
164,96,79730,1,8,0:0:0:0:
244,136,79894,2,0,P|208:176|88:144,1,161.999995592594
248,44,80386,1,8,0:0:0:0:
380,136,80550,6,0,B|409:177|409:177|357:217|373:285,1,161.999995592594
340,64,81042,2,0,P|384:52|432:72,1,80.9999977962969,8|0,0:0|2:0,0:0:0:0:
196,176,81370,1,0,0:0:0:0:
236,76,81534,1,0,0:0:0:0:
304,160,81697,2,0,L|308:256,1,80.9999977962969,8|0,0:0|2:0,0:0:0:0:
144,256,82025,6,0,P|182:246|221:258,1,80.9999977962969
312,324,82353,1,8,0:0:0:0:
392,244,82517,2,0,P|421:171|382:103,1,161.999995592594
240,72,83009,1,8,0:0:0:0:
164,196,83173,6,0,L|324:173,1,161.999995592594
200,92,83665,1,8,0:0:0:0:
88,112,83829,1,0,0:0:0:0:
164,196,83993,2,0,L|184:296,1,80.9999977962969
292,184,84320,2,0,L|276:88,1,80.9999977962969,8|0,0:0|2:0,0:0:0:0:
268,268,84648,6,0,P|316:276|356:248,1,80.9999977962969
380,88,84976,1,8,0:0:0:0:
323,159,85140,2,0,P|399:177|460:128,1,161.999995592594
288,76,85632,1,8,0:0:0:0:
140,144,85796,6,0,B|104:168|104:168|100:104|136:48,1,161.999995592594
224,168,86288,2,0,L|224:272,1,80.9999977962969,8|0,0:0|2:0,0:0:0:0:
64,276,86616,1,0,0:0:0:0:
104,168,86780,1,0,0:0:0:0:
188,324,86943,2,0,P|224:336|268:320,1,80.9999977962969,8|0,0:0|2:0,0:0:0:0:
356,240,87271,6,0,P|394:230|433:242,1,80.9999977962969,8|8,0:0|0:0,0:0:0:0:
392,332,87599,1,8,0:0:0:0:
271,232,87763,2,0,P|232:156|268:100,1,121.499996694445,8|0,0:0|2:0,0:0:0:0:
304,80,88091,2,0,L|448:60,1,121.499996694445,8|0,0:0|2:0,0:0:0:0:
488,108,88418,2,0,L|484:188,1,80.9999977962969,8|0,1:0|0:0,0:0:0:0:
391,304,88746,5,0,0:0:0:0:
339,168,88911,1,0,0:0:0:0:
483,188,89075,1,0,0:0:0:0:
391,304,89239,2,0,B|351:312|316:276|316:276|296:288|296:288|280:272|280:272|260:288|248:280,1,144.000000476837
