osu file format v14

[General]
AudioFilename: Asian Kung-fu Generation - Blood Circulator.mp3
AudioLeadIn: 0
PreviewTime: 32065
Countdown: 0
SampleSet: Normal
StackLeniency: 0.3
Mode: 0
LetterboxInBreaks: 0
WidescreenStoryboard: 0

[Editor]
DistanceSpacing: 1.4
BeatDivisor: 4
GridSize: 4
TimelineZoom: 1.4

[Metadata]
Title:Blood Circulator
TitleUnicode:ブラッドサーキュレーター
Artist:ASIAN KUNG-FU GENERATION
ArtistUnicode:ASIAN KUNG-FU GENERATION
Creator:Lefia
Version:Hard
Source:NARUTO -ナルト- 疾風伝
Tags:Nyu - Naruto Shippuuden opening 19 tv tokyo Akg vs sasuke
BeatmapID:1095689
BeatmapSetID:516022

[Difficulty]
HPDrainRate:5
CircleSize:3.5
OverallDifficulty:6
ApproachRate:8
SliderMultiplier:1.60000000596046
SliderTickRate:1

[Events]
//Background and Video events
0,0,"BG.jpg",0,0
Video,0,"Video.avi"
//Break Periods
//Storyboard Layer 0 (Background)
//Storyboard Layer 1 (Fail)
//Storyboard Layer 2 (Pass)
//Storyboard Layer 3 (Foreground)
//Storyboard Sound Samples

[TimingPoints]
666,327.868852459016,4,2,1,40,1,0
666,-125,4,2,1,40,0,0
3616,-111.111111111111,4,1,1,45,0,0
3944,-111.111111111111,4,1,1,45,0,0
4272,-111.111111111111,4,1,1,55,0,0
4600,-111.111111111111,4,1,1,60,0,0
4928,-111.111111111111,4,1,1,65,0,0
5584,-111.111111111111,4,1,1,75,0,0
5911,-111.111111111111,4,1,1,75,0,0
11157,-133.333333333333,4,2,1,55,0,0
21656,327.868852459016,4,1,1,65,1,0
21656,-125,4,1,1,65,0,0
31655,-100,4,1,1,65,0,0
32147,-100,4,1,1,60,0,1
42639,-111.111111111111,4,1,1,60,0,0
47893,327.868852459016,4,2,1,60,1,0
47893,-166.666666666667,4,2,1,60,0,0
58056,-166.666666666667,4,2,1,5,0,0
58419,327.868852459016,4,1,1,75,1,1
68828,-100,4,1,1,75,0,0
68910,-100,4,1,1,75,0,1
79402,-111.111111111111,4,1,1,75,0,0
88419,-125,4,2,1,75,0,0
89567,-125,4,2,1,5,0,0

[Colours]
Combo1 : 179,179,255
Combo2 : 255,128,64
Combo3 : 128,128,255
Combo4 : 255,174,136

[HitObjects]
120,120,666,6,0,L|196:120,1,64.0000002384186,2|0,0:0|0:0,0:0:0:0:
240,192,993,1,0,0:0:0:0:
124,212,1157,2,0,P|48:184|28:132,1,128.000000476837,2|2,0:0|0:0,0:0:0:0:
76,48,1649,1,0,0:0:0:0:
168,100,1813,6,0,L|312:92,1,128.000000476837,2|0,0:0|0:0,0:0:0:0:
360,156,2305,2,0,L|344:244,1,64.0000002384186,2|0,0:0|0:0,0:0:0:0:
436,100,2633,2,0,L|448:12,1,64.0000002384186
356,28,2961,1,2,0:0:0:0:
295,92,3125,1,0,0:0:0:0:
295,92,3288,6,0,L|276:180,1,64.0000002384186,2|0,0:0|0:0,0:0:0:0:
200,80,3616,2,0,L|200:180,1,71.9999980709553,8|0,0:0|0:0,0:0:0:0:
108,108,3944,2,0,L|125:206,1,71.9999980709553,8|0,0:0|0:0,0:0:0:0:
24,164,4272,2,0,L|60:260,1,71.9999980709553,8|0,0:0|0:0,0:0:0:0:
184,236,4600,6,0,L|272:236,1,71.9999980709553,8|0,0:0|0:0,0:0:0:0:
400,328,4928,2,0,L|316:328,1,71.9999980709553,8|0,0:0|0:0,0:0:0:0:
176,212,5256,2,0,L|260:212,1,71.9999980709553,8|0,0:0|0:0,0:0:0:0:
392,304,5584,2,0,L|308:304,1,71.9999980709553,12|0,0:0|2:0,0:0:0:0:
168,188,5911,6,0,L|240:188,1,71.9999980709551
220,296,6239,1,8,0:0:0:0:
116,264,6403,2,0,P|76:200|104:120,1,143.99999614191
188,92,6895,1,8,0:0:0:0:
304,164,7059,6,0,B|269:186|269:186|160:188,1,143.99999614191
100,124,7551,2,0,L|28:118,1,71.9999980709551,8|0,0:0|2:0,0:0:0:0:
140,48,7879,2,0,L|212:54,1,71.9999980709551
304,164,8206,2,0,L|232:158,1,71.9999980709551,8|0,0:0|2:0,0:0:0:0:
344,88,8534,6,0,L|416:94,1,71.9999980709551
404,204,8862,1,8,0:0:0:0:
304,164,9026,2,0,P|256:100|284:28,1,143.99999614191
360,0,9518,1,8,0:0:0:0:
484,56,9682,6,0,B|425:85|425:85|330:83,1,143.99999614191
252,28,10174,2,0,L|180:34,1,71.9999980709551,8|0,0:0|0:0,0:0:0:0:
92,60,10502,1,0,0:0:0:0:
156,128,10665,1,0,0:0:0:0:
68,152,10829,2,0,L|72:248,1,71.9999980709551,8|0,0:0|2:0,0:0:0:0:
156,212,11157,6,0,L|152:296,1,60.0000025123357,4|0,0:0|0:0,0:0:0:0:
208,344,11485,1,8,0:0:0:0:
248,264,11649,1,0,0:0:0:0:
248,264,11813,2,0,L|320:264,1,60.0000025123357,0|0,1:0|1:0,0:0:0:0:
396,288,12141,1,8,0:0:0:0:
376,200,12305,1,0,0:0:0:0:
376,200,12469,6,0,L|448:200,1,60.0000025123357,0|0,1:0|0:0,0:0:0:0:
308,264,12797,2,0,P|284:188|312:132,1,120.000005024671,8|0,0:0|1:0,0:0:0:0:
380,116,13288,1,0,1:0:0:0:
304,68,13452,2,0,L|220:72,1,60.0000025123357
208,152,13780,6,0,L|124:148,1,60.0000025123357,0|0,1:0|0:0,0:0:0:0:
68,188,14108,1,8,0:0:0:0:
68,188,14272,1,0,0:0:0:0:
140,244,14436,2,0,L|140:328,1,60.0000025123357,0|0,1:0|1:0,0:0:0:0:
228,328,14764,1,8,0:0:0:0:
260,244,14928,1,0,0:0:0:0:
196,180,15092,6,0,P|136:156|72:192,2,120.000005024671,0|8|0,1:0|0:0|1:0,0:0:0:0:
260,244,15911,1,0,1:0:0:0:
287,333,16075,2,0,L|228:328,1,60.0000025123357,8|0,0:0|0:0,0:0:0:0:
348,264,16403,6,0,L|428:272,1,60.0000025123357,0|0,1:0|0:0,0:0:0:0:
448,188,16731,1,8,0:0:0:0:
448,188,16895,1,0,0:0:0:0:
376,132,17059,2,0,L|292:132,1,60.0000025123357,0|0,1:0|1:0,0:0:0:0:
232,168,17387,1,8,0:0:0:0:
168,104,17551,1,0,0:0:0:0:
100,166,17715,6,0,P|76:112|92:52,1,120.000005024671,0|8,1:0|0:0,0:0:0:0:
168,104,18206,1,0,0:0:0:0:
192,192,18370,2,0,B|196:276,1,60.0000025123357,0|0,1:0|1:0,0:0:0:0:
284,228,18698,2,0,B|281:287,1,60.0000025123357,8|0,0:0|0:0,0:0:0:0:
204,340,19026,6,0,L|116:336,1,60.0000025123357,0|0,1:0|0:0,0:0:0:0:
76,276,19354,1,8,0:0:0:0:
76,276,19518,1,0,0:0:0:0:
136,208,19682,2,0,L|140:120,1,60.0000025123357,0|0,1:0|1:0,0:0:0:0:
56,116,20010,1,8,0:0:0:0:
28,200,20174,1,0,0:0:0:0:
76,276,20338,6,0,P|140:300|200:272,2,120.000005024671,0|8|0,1:0|0:0|1:0,0:0:0:0:
28,200,21157,1,0,1:0:0:0:
56,116,21321,2,0,L|132:112,1,60.0000025123357,8|0,0:0|0:0,0:0:0:0:
215,190,21656,6,0,L|152:188,1,64.0000002384184,4|0,0:0|2:0,0:0:0:0:
292,148,21983,2,0,P|304:196|264:264,1,128.000000476837,8|0,0:0|1:0,0:0:0:0:
184,268,22475,1,0,1:0:0:0:
152,188,22639,2,0,L|144:112,1,64.0000002384184,8|0,0:0|2:0,0:0:0:0:
180,48,22967,6,0,P|120:44|68:100,2,128.000000476837,0|8|0,0:0|0:0|0:0,0:0:0:0:
244,104,23786,1,0,0:0:0:0:
268,185,23951,2,0,P|237:191|204:180,1,64.0000002384184,8|0,0:0|2:0,0:0:0:0:
328,124,24278,6,0,L|312:268,1,128.000000476837,0|8,0:0|0:0,0:0:0:0:
244,296,24770,1,0,2:0:0:0:
176,252,24934,2,0,L|92:264,1,64.0000002384184
68,189,25262,2,0,L|132:180,1,64.0000002384184,8|0,0:0|2:0,0:0:0:0:
28,264,25590,6,0,L|4:116,1,128.000000476837,0|8,0:0|0:0,0:0:0:0:
88,108,26081,1,0,2:0:0:0:
132,180,26246,2,0,P|176:184|208:164,1,64.0000002384184
256,120,26573,2,0,P|286:110|317:116,1,64.0000002384184,8|0,0:0|0:0,0:0:0:0:
360,188,26901,6,0,L|376:264,1,64.0000002384184,4|0,0:0|2:0,0:0:0:0:
444,300,27229,2,0,P|388:336|320:320,1,128.000000476837,8|0,0:0|0:0,0:0:0:0:
288,252,27721,1,0,0:0:0:0:
360,188,27885,2,0,L|376:112,1,64.0000002384184,8|0,0:0|2:0,0:0:0:0:
328,56,28213,6,0,P|392:44|448:88,2,128.000000476837,0|8|0,0:0|0:0|0:0,0:0:0:0:
284,128,29033,1,0,0:0:0:0:
204,108,29196,2,0,L|116:104,1,64.0000002384184,8|0,0:0|2:0,0:0:0:0:
84,40,29524,6,0,P|56:100|88:176,1,128.000000476837,0|8,0:0|0:0,0:0:0:0:
148,188,30016,1,0,2:0:0:0:
204,128,30180,2,0,L|280:128,1,64.0000002384184
292,204,30508,2,0,L|228:204,1,64.0000002384184,8|0,0:0|2:0,0:0:0:0:
348,140,30836,5,0,0:0:0:0:
376,220,31000,1,0,0:0:0:0:
432,160,31164,2,0,P|460:224|420:288,1,128.000000476837,8|0,0:0|0:0,0:0:0:0:
340,304,31655,1,8,0:0:0:0:
340,304,31737,1,0,0:0:0:0:
340,304,31819,2,0,L|340:364,2,40.0000001490115,0|0|8,0:0|0:0|0:0,0:0:0:0:
376,220,32147,6,0,B|324:220|324:220|264:236|264:236|200:236,1,160.000000596046,4|8,0:0|0:0,0:0:0:0:
60,220,32803,2,0,P|53:179|52:128,1,80.000000298023
148,160,33131,2,0,P|154:119|156:68,1,80.000000298023,8|0,0:0|0:0,0:0:0:0:
244,52,33458,5,0,0:0:0:0:
244,52,33622,1,0,0:0:0:0:
252,148,33787,2,0,P|296:156|354:152,2,80.000000298023,8|0|0,0:0|0:0|0:0,0:0:0:0:
228,240,34278,1,0,0:0:0:0:
156,180,34442,2,0,P|148:140|172:88,1,80.000000298023,8|0,0:0|2:0,0:0:0:0:
252,148,34770,6,0,P|320:220|308:284,1,160.000000596046,4|8,0:0|0:0,0:0:0:0:
128,364,35426,2,0,P|118:325|112:285,1,80.000000298023
212,318,35754,2,0,P|221:279|227:239,1,80.000000298023,8|0,0:0|0:0,0:0:0:0:
144,176,36082,6,0,P|104:184|52:168,1,80.000000298023
104,80,36409,1,8,0:0:0:0:
216,104,36573,1,0,0:0:0:0:
244,215,36737,2,0,P|257:252|252:291,1,80.000000298023,0|0,0:0|2:0,0:0:0:0:
151,252,37065,2,0,P|138:215|144:176,1,80.000000298023,8|0,0:0|2:0,0:0:0:0:
216,104,37393,6,0,B|296:68|296:132|392:104,1,160.000000596046,4|8,0:0|0:0,0:0:0:0:
456,64,37885,1,0,0:0:0:0:
456,64,37966,1,0,0:0:0:0:
456,64,38049,2,0,P|468:112|448:164,1,80.000000298023
388,208,38376,1,8,0:0:0:0:
388,208,38540,1,0,0:0:0:0:
300,152,38705,6,0,P|256:144|200:172,1,80.000000298023
148,228,39032,2,0,P|109:238|70:229,2,80.000000298023,8|0|0,0:0|0:0|0:0,0:0:0:0:
222,154,39524,1,0,0:0:0:0:
112,64,39688,2,0,L|108:156,1,80.000000298023,8|0,0:0|2:0,0:0:0:0:
148,228,40016,6,0,L|144:324,1,80.000000298023,4|0,0:0|0:0,0:0:0:0:
236,360,40344,1,8,0:0:0:0:
236,360,40508,1,0,0:0:0:0:
244,256,40672,2,0,L|340:252,1,80.000000298023
351,160,41000,2,0,L|272:164,1,80.000000298023,8|0,0:0|0:0,0:0:0:0:
420,228,41327,6,0,P|468:280|396:340,1,160.000000596046,0|8,0:0|0:0,0:0:0:0:
320,372,41819,1,0,0:0:0:0:
236,312,41983,2,0,L|205:238,1,80.000000298023,8|0,0:0|2:0,0:0:0:0:
132,312,42311,2,0,L|83:248,1,80.000000298023,8|0,0:0|0:0,0:0:0:0:
140,140,42639,5,0,0:0:0:0:
184,64,42802,1,0,0:0:0:0:
260,164,42967,1,8,0:0:0:0:
304,80,43131,2,0,P|352:144|328:216,1,143.99999614191
264,252,43623,1,8,0:0:0:0:
122,191,43787,6,0,B|181:162|181:162|276:164,1,143.99999614191
264,264,44279,2,0,L|188:260,1,71.9999980709551,8|0,0:0|0:0,0:0:0:0:
32,204,44606,1,0,0:0:0:0:
122,191,44770,1,0,0:0:0:0:
88,272,44934,2,0,L|96:360,1,71.9999980709551,8|0,0:0|0:0,0:0:0:0:
122,191,45262,6,0,L|112:112,1,71.9999980709551
212,184,45590,1,8,0:0:0:0:
172,264,45754,2,0,P|144:280|96:272,1,71.9999980709551
44,200,46082,2,0,L|32:104,1,71.9999980709551,8|0,0:0|0:0,0:0:0:0:
128,32,46410,6,0,L|136:103,1,71.9999980709551,8|0,1:0|2:0,2:0:0:0:
144,204,46737,1,0,2:0:0:0:
144,204,46901,1,0,2:0:0:0:
228,148,47065,1,0,2:0:0:0:
228,148,47229,2,0,L|312:152,1,71.9999980709551
352,244,47557,1,8,0:0:0:0:
436,196,47721,1,0,2:0:0:0:
436,196,47893,6,0,P|448:236|424:308,1,95.9999974279402,4|0,1:0|0:0,0:0:0:0:
360,336,48384,1,0,1:0:0:0:
284,288,48548,2,0,L|172:284,1,95.9999974279402,8|0,0:0|0:0,0:0:0:0:
132,212,49040,1,0,0:0:0:0:
76,132,49204,2,0,B|128:100|184:120|208:156|208:156|264:128,1,191.99999485588,0|8,1:0|0:0,0:0:0:0:
396,68,50188,2,0,L|400:140,1,63.9999982852935,0|0,1:0|0:0,0:0:0:0:
432,184,50515,6,0,L|428:283,1,95.9999974279402,0|0,1:0|0:0,0:0:0:0:
364,348,51007,1,0,1:0:0:0:
300,280,51171,2,0,P|256:264|200:296,1,95.9999974279402,8|0,0:0|0:0,0:0:0:0:
148,348,51663,1,0,1:0:0:0:
92,276,51827,2,0,B|92:218|52:194|52:194|92:170|92:110,1,191.99999485588,0|8,1:0|0:0,0:0:0:0:
256,192,52811,1,0,0:0:0:0:
420,276,53138,6,0,B|419:218|459:194|459:194|419:170|419:110,1,191.99999485588,4|8,1:0|0:0,0:0:0:0:
256,192,54122,1,0,1:0:0:0:
92,111,54450,2,0,L|84:195,1,47.9999987139701,8|0,0:0|0:0,0:0:0:0:
164,208,54778,2,0,L|172:292,1,47.9999987139701,0|0,1:0|0:0,0:0:0:0:
124,336,55106,2,0,P|176:348|232:320,1,95.9999974279402,8|0,0:0|1:0,0:0:0:0:
372,244,55761,5,8,0:0:0:0:
372,244,56089,1,8,0:0:0:0:
300,76,56417,5,8,0:0:0:0:
300,76,56745,1,8,0:0:0:0:
192,224,57073,6,0,L|192:344,1,95.9999974279402,8|0,0:0|0:0,0:0:0:0:
100,236,57565,1,0,0:0:0:0:
156,140,57729,2,0,P|244:144|280:200,1,155.999995820403
200,244,58419,6,0,L|364:244,1,160.000000596046,4|8,0:0|0:0,0:0:0:0:
476,92,59074,2,0,P|432:96|375:107,1,80.000000298023
304,132,59402,1,8,0:0:0:0:
240,60,59566,1,0,0:0:0:0:
164,116,59730,6,0,P|148:80|156:20,2,80.000000298023,0|0|8,0:0|0:0|0:0,0:0:0:0:
224,192,60222,1,0,0:0:0:0:
314,236,60386,2,0,P|324:276|304:328,1,80.000000298023
228,272,60714,2,0,P|218:232|238:180,1,80.000000298023,8|0,0:0|2:0,0:0:0:0:
314,312,61041,6,0,L|146:312,1,160.000000596046,4|8,0:0|0:0,0:0:0:0:
24,172,61697,2,0,L|108:168,1,80.000000298023
143,76,62025,2,0,L|64:80,1,80.000000298023,8|0,0:0|0:0,0:0:0:0:
236,108,62353,6,0,P|236:52|212:12,2,80.000000298023,0|0|8,0:0|0:0|0:0,0:0:0:0:
200,196,62845,1,0,0:0:0:0:
64,80,63009,2,0,L|143:76,1,80.000000298023
236,108,63337,2,0,L|315:104,1,80.000000298023,8|0,0:0|2:0,0:0:0:0:
376,180,63664,6,0,P|412:128|380:32,1,160.000000596046,4|8,0:0|0:0,0:0:0:0:
216,128,64320,1,0,0:0:0:0:
216,128,64484,1,0,0:0:0:0:
276,204,64648,2,0,L|260:282,1,80.000000298023,8|0,0:0|0:0,0:0:0:0:
192,352,64976,6,0,P|236:376|288:364,2,80.000000298023,0|0|8,0:0|0:0|0:0,0:0:0:0:
164,260,65468,1,0,0:0:0:0:
65,220,65632,2,0,L|76:300,1,80.000000298023
164,260,65959,2,0,L|176:168,1,80.000000298023,8|0,0:0|2:0,0:0:0:0:
124,95,66287,6,0,P|201:86|259:137,1,160.000000596046,4|8,0:0|0:0,0:0:0:0:
312,228,66779,1,0,0:0:0:0:
272,324,66943,2,0,L|192:331,1,80.000000298023
136,236,67271,2,0,L|215:228,1,80.000000298023,8|0,0:0|0:0,0:0:0:0:
88,316,67599,6,0,P|40:240|76:164,1,160.000000596046,0|8,0:0|0:0,0:0:0:0:
160,144,68091,1,0,0:0:0:0:
218,236,68255,2,0,P|256:188|272:152,1,80.000000298023,8|0,0:0|0:0,0:0:0:0:
364,204,68582,2,0,P|362:142|351:105,1,80.000000298023,8|0,0:0|0:0,0:0:0:0:
268,72,68910,6,0,B|216:72|216:72|156:88|156:88|92:88,1,160.000000596046,4|8,0:0|0:0,0:0:0:0:
24,164,69402,1,0,0:0:0:0:
96,248,69566,2,0,L|104:340,1,80.000000298023
196,204,69894,2,0,L|188:296,1,80.000000298023,8|0,0:0|0:0,0:0:0:0:
272,360,70221,5,0,0:0:0:0:
272,360,70385,1,0,0:0:0:0:
376,320,70550,2,0,L|478:324,2,80.000000298023,8|0|0,0:0|0:0|0:0,0:0:0:0:
290,251,71041,1,0,0:0:0:0:
187,207,71205,2,0,P|175:245|184:288,1,80.000000298023,8|0,0:0|0:0,0:0:0:0:
222,122,71533,6,0,P|144:123|96:184,1,160.000000596046,4|8,0:0|0:0,0:0:0:0:
183,283,72025,1,0,0:0:0:0:
280,240,72190,2,0,P|319:230|359:224,1,80.000000298023
326,324,72517,2,0,P|365:333|405:339,1,80.000000298023,8|0,0:0|0:0,0:0:0:0:
448,252,72845,6,0,P|456:213|436:168,1,80.000000298023
380,92,73172,1,8,0:0:0:0:
332,176,73336,1,0,0:0:0:0:
332,176,73500,2,0,P|295:189|256:184,1,80.000000298023
196,87,73828,2,0,P|233:74|272:80,1,80.000000298023,8|0,0:0|0:0,0:0:0:0:
332,176,74156,6,0,B|367:254|303:254|326:330,1,160.000000596046,4|8,0:0|0:0,0:0:0:0:
428,300,74648,1,0,0:0:0:0:
428,300,74730,1,0,0:0:0:0:
428,300,74812,2,0,L|516:300,1,80.000000298023
444,208,75139,1,8,0:0:0:0:
444,208,75303,1,0,0:0:0:0:
332,176,75468,6,0,P|288:168|232:196,1,80.000000298023
168,248,75795,2,0,P|129:258|90:249,2,80.000000298023,8|0|0,0:0|0:0|0:0,0:0:0:0:
254,178,76287,1,0,0:0:0:0:
136,68,76451,2,0,L|132:160,1,80.000000298023,8|0,0:0|2:0,0:0:0:0:
168,248,76779,6,0,L|164:344,1,80.000000298023,4|0,0:0|2:0,0:0:0:0:
260,368,77107,1,8,0:0:0:0:
260,368,77271,1,0,0:0:0:0:
316,280,77435,2,0,L|428:276,1,80.000000298023
460,360,77763,1,8,0:0:0:0:
356,368,77927,1,0,0:0:0:0:
316,280,78090,6,0,B|316:232|316:232|304:164|304:164|304:92,1,160.000000596046,0|8,0:0|0:0,0:0:0:0:
232,44,78582,1,0,0:0:0:0:
136,84,78746,2,0,L|87:148,1,80.000000298023,8|0,0:0|2:0,0:0:0:0:
176,204,79074,2,0,L|145:278,1,80.000000298023,8|0,0:0|2:0,0:0:0:0:
248,284,79402,6,0,L|248:368,1,71.9999980709551
344,304,79730,1,8,0:0:0:0:
304,204,79894,2,0,P|235:190|176:229,1,143.99999614191
172,336,80386,1,8,0:0:0:0:
44,284,80550,6,0,B|22:249|22:249|20:140,1,143.99999614191
60,64,81042,2,0,L|132:70,1,71.9999980709551,8|0,0:0|0:0,0:0:0:0:
204,180,81370,2,0,L|108:172,1,71.9999980709551
240,92,81697,2,0,L|312:98,1,71.9999980709551,8|0,0:0|0:0,0:0:0:0:
404,200,82025,6,0,L|308:192,1,71.9999980709551
388,108,82353,1,8,0:0:0:0:
484,140,82517,2,0,P|508:188|464:280,1,143.99999614191
364,292,83009,1,8,0:0:0:0:
266,229,83173,6,0,B|322:201|322:201|403:199,1,143.99999614191
364,292,83665,2,0,L|300:324,1,71.9999980709551,8|0,0:0|0:0,0:0:0:0:
200,332,83993,1,0,0:0:0:0:
147,246,84156,1,0,0:0:0:0:
232,192,84320,2,0,L|303:189,1,71.9999980709551,8|0,0:0|0:0,0:0:0:0:
412,144,84648,5,0,0:0:0:0:
488,188,84811,1,0,0:0:0:0:
388,264,84976,1,8,0:0:0:0:
468,308,85140,2,0,P|404:356|332:332,1,143.99999614191
256,268,85632,1,8,0:0:0:0:
309,154,85796,6,0,P|369:200|385:284,1,143.99999614191
256,268,86288,2,0,L|180:264,1,71.9999980709551,8|0,0:0|0:0,0:0:0:0:
104,200,86615,1,0,0:0:0:0:
208,172,86779,1,0,0:0:0:0:
256,268,86943,2,0,L|264:356,1,71.9999980709551,8|0,0:0|0:0,0:0:0:0:
356,272,87271,6,0,L|346:193,1,71.9999980709551,8|8,0:0|0:0,0:0:0:0:
244,164,87599,1,8,0:0:0:0:
156,224,87763,2,0,P|140:196|148:148,1,71.9999980709551,8|0,0:0|2:0,0:0:0:0:
204,68,88091,2,0,L|300:56,1,71.9999980709551,8|0,0:0|2:0,0:0:0:0:
244,164,88418,6,0,L|315:156,1,71.9999980709551,8|0,1:0|2:0,2:0:0:0:
376,80,88746,1,0,2:0:0:0:
376,80,88910,1,0,2:0:0:0:
416,168,89074,1,0,2:0:0:0:
416,168,89238,2,0,B|416:228|416:228|428:236|428:236|404:236|404:236|416:244|416:244|416:284,1,128.000000476837
