osu file format v14

[General]
AudioFilename: Asian Kung-fu Generation - Blood Circulator.mp3
AudioLeadIn: 0
PreviewTime: 32065
Countdown: 0
SampleSet: Soft
StackLeniency: 0.3
Mode: 0
LetterboxInBreaks: 0
WidescreenStoryboard: 0

[Editor]
DistanceSpacing: 1.7
BeatDivisor: 4
GridSize: 4
TimelineZoom: 3.099999

[Metadata]
Title:Blood Circulator
TitleUnicode:ブラッドサーキュレーター
Artist:ASIAN KUNG-FU GENERATION
ArtistUnicode:ASIAN KUNG-FU GENERATION
Creator:Lefia
Version:Extra
Source:NARUTO -ナルト- 疾風伝
Tags:Nyu - Naruto Shippuuden opening 19 tv tokyo Akg vs sasuke
BeatmapID:1100322
BeatmapSetID:516022

[Difficulty]
HPDrainRate:7
CircleSize:4.3
OverallDifficulty:8.5
ApproachRate:9.5
SliderMultiplier:1.80000000596046
SliderTickRate:1

[Events]
//Background and Video events
0,0,"BG.jpg",0,0
Video,0,"Video.avi"
//Break Periods
//Storyboard Layer 0 (Background)
//Storyboard Layer 1 (Fail)
//Storyboard Layer 2 (Pass)
//Storyboard Layer 3 (Foreground)
//Storyboard Sound Samples

[TimingPoints]
666,327.868852459016,4,2,1,40,1,0
666,-133.333333333333,4,2,1,40,0,0
3616,-111.111111111111,4,1,1,45,0,0
3944,-111.111111111111,4,1,1,45,0,0
4272,-111.111111111111,4,1,1,55,0,0
4600,-111.111111111111,4,1,1,60,0,0
4928,-111.111111111111,4,1,1,65,0,0
5584,-100,4,1,1,75,0,0
5911,-125,4,1,1,75,0,0
10829,-100,4,1,1,75,0,0
11157,-133.333333333333,4,2,1,55,0,0
21656,327.868852459016,4,1,1,65,1,0
21656,-125,4,1,1,65,0,0
32147,-100,4,1,1,60,0,1
42639,-111.111111111111,4,1,1,60,0,0
46410,-100,4,1,1,60,0,0
46737,-111.111111111111,4,1,1,60,0,0
47893,327.868852459016,4,2,1,60,1,0
47893,-200,4,2,1,60,0,0
58056,-166.666666666667,4,2,1,5,0,0
58419,327.868852459016,4,1,1,75,1,1
68828,-100,4,1,1,75,0,0
68910,-100,4,1,1,75,0,1
78746,-90.9090909090909,4,1,1,75,0,1
79402,-125,4,1,1,75,0,0
87763,-90.9090909090909,4,1,1,75,0,0
88419,-125,4,2,1,75,0,0
89567,-125,4,2,1,5,0,0

[Colours]
Combo1 : 179,179,255
Combo2 : 255,128,64
Combo3 : 128,128,255
Combo4 : 255,174,136

[HitObjects]
188,76,666,5,2,0:0:0:0:
288,144,829,1,0,0:0:0:0:
152,208,993,1,0,0:0:0:0:
296,68,1157,2,0,P|348:88|360:168,1,135.000005596876,2|0,0:0|0:0,0:0:0:0:
328,316,1649,1,0,0:0:0:0:
156,144,1813,6,0,L|312:144,1,135.000005596876,2|0,0:0|0:0,0:0:0:0:
272,236,2305,2,0,L|180:236,1,67.500002798438,2|0,0:0|0:0,0:0:0:0:
20,172,2633,2,0,L|112:172,1,67.500002798438
204,236,2961,2,0,L|208:332,1,67.500002798438,2|0,0:0|0:0,0:0:0:0:
88,172,3288,6,0,L|84:76,1,67.500002798438,2|0,0:0|0:0,0:0:0:0:
228,44,3616,1,8,0:0:0:0:
188,132,3780,5,0,0:0:0:0:
328,84,3944,1,8,0:0:0:0:
280,160,4108,5,0,0:0:0:0:
427,162,4272,1,8,0:0:0:0:
160,228,4436,5,0,0:0:0:0:
312,276,4600,1,8,0:0:0:0:
48,236,4764,5,0,0:0:0:0:
264,208,4928,1,8,0:0:0:0:
116,124,5092,5,0,0:0:0:0:
356,184,5256,1,8,0:0:0:0:
168,20,5420,5,0,0:0:0:0:
439,154,5584,2,0,B|459:206|431:258|431:258|407:258|391:226,1,135.000000447034,12|0,0:0|2:0,0:0:0:0:
344,200,5911,6,0,L|340:116,1,72.0000002384184
448,52,6239,1,8,0:0:0:0:
407,248,6403,2,0,P|340:276|276:244,1,144.000000476837
236,128,6895,1,8,0:0:0:0:
424,164,7059,6,0,L|516:160,1,72.0000002384184,0|0,0:0|2:0,0:0:0:0:
344,200,7387,1,0,0:0:0:0:
440,80,7551,2,0,L|532:76,1,72.0000002384184,8|0,0:0|2:0,0:0:0:0:
352,212,7879,1,0,0:0:0:0:
308,88,8043,1,0,0:0:0:0:
436,236,8206,2,0,L|336:232,1,72.0000002384184,8|0,0:0|2:0,0:0:0:0:
160,200,8534,5,0,0:0:0:0:
192,40,8698,1,0,0:0:0:0:
252,256,8862,1,8,0:0:0:0:
192,40,9026,2,0,P|272:32|348:44,1,144.000000476837
468,132,9518,1,8,0:0:0:0:
336,272,9682,6,0,P|335:236|342:200,1,72.0000002384184,0|0,0:0|2:0,0:0:0:0:
492,96,10010,1,0,0:0:0:0:
336,272,10174,1,8,0:0:0:0:
332,104,10338,1,0,0:0:0:0:
500,160,10502,2,0,L|504:231,1,72.0000002384184
332,104,10829,2,0,B|312:52|340:0|340:0|364:0|380:32,1,135.000000447034,8|0,0:0|2:0,0:0:0:0:
408,76,11157,6,0,L|412:156,1,67.500002798438,4|0,0:0|0:0,0:0:0:0:
352,232,11485,1,8,0:0:0:0:
352,232,11649,1,0,0:0:0:0:
220,152,11813,2,0,P|252:140|300:164,1,67.500002798438
352,232,12141,1,8,0:0:0:0:
280,304,12305,1,0,0:0:0:0:
220,152,12469,6,0,L|220:64,1,67.500002798438
272,224,12797,2,0,P|220:244|168:224,1,101.250004197657,8|0,0:0|0:0,0:0:0:0:
178,231,13125,2,0,L|96:232,1,67.500002798438
144,144,13452,1,8,0:0:0:0:
108,64,13616,1,0,0:0:0:0:
178,231,13780,5,0,0:0:0:0:
384,236,13944,1,0,0:0:0:0:
248,316,14108,1,8,0:0:0:0:
304,176,14272,1,0,0:0:0:0:
244,336,14436,2,0,L|160:336,1,67.500002798438
48,296,14764,1,8,0:0:0:0:
88,112,14928,1,0,0:0:0:0:
32,168,15092,6,0,P|84:196|133:178,1,101.250004197657
198,148,15420,2,0,B|222:143|222:143|324:168,1,101.250004197657,8|0,0:0|0:0,0:0:0:0:
345,222,15747,2,0,P|310:238|270:234,1,67.500002798438
444,152,16075,1,8,0:0:0:0:
412,308,16239,1,0,0:0:0:0:
282,238,16403,6,0,L|278:150,1,67.500002798438
324,36,16731,1,8,0:0:0:0:
392,152,16895,1,0,0:0:0:0:
200,260,17059,6,0,L|196:172,1,67.500002798438
242,58,17387,1,8,0:0:0:0:
310,174,17551,1,0,0:0:0:0:
124,136,17715,6,0,L|134:69,1,67.500002798438
292,96,18043,2,0,L|281:162,1,67.500002798438,8|0,0:0|0:0,0:0:0:0:
148,196,18370,1,0,0:0:0:0:
208,128,18534,1,0,0:0:0:0:
196,272,18698,1,8,0:0:0:0:
208,128,18862,1,0,0:0:0:0:
196,272,19026,6,0,L|108:276,1,67.500002798438
296,260,19354,1,8,0:0:0:0:
392,336,19518,1,0,0:0:0:0:
216,272,19682,2,0,L|216:176,1,67.500002798438
315,63,20010,1,8,0:0:0:0:
132,64,20174,1,0,0:0:0:0:
239,99,20338,6,0,P|268:136|345:137,1,101.250004197657
387,103,20665,2,0,L|397:217,1,101.250004197657,8|0,0:0|0:0,0:0:0:0:
385,281,20993,1,0,0:0:0:0:
458,352,21157,1,0,0:0:0:0:
324,232,21321,2,0,P|280:252|228:232,1,101.250004197657,8|0,0:0|0:0,0:0:0:0:
164,196,21656,6,0,L|156:296,1,72.0000002384184,4|0,0:0|2:0,0:0:0:0:
276,176,21983,2,0,L|272:88,1,72.0000002384184,8|0,0:0|2:0,0:0:0:0:
132,68,22311,1,0,0:0:0:0:
196,176,22475,1,0,0:0:0:0:
298,36,22639,2,0,P|263:28|232:44,1,72.0000002384184,8|0,0:0|2:0,0:0:0:0:
196,176,22967,6,0,L|196:248,1,72.0000002384184,0|0,0:0|2:0,0:0:0:0:
296,168,23295,2,0,L|296:256,1,72.0000002384184,8|0,0:0|2:0,0:0:0:0:
244,104,23622,1,0,0:0:0:0:
196,176,23786,1,0,0:0:0:0:
116,80,23951,2,0,L|36:76,1,72.0000002384184,8|0,0:0|2:0,0:0:0:0:
188,112,24278,6,0,B|228:116|228:116|288:136|288:136|340:140,1,144.000000476837,0|8,0:0|0:0,0:0:0:0:
412,212,24770,1,0,2:0:0:0:
308,240,24934,1,0,0:0:0:0:
428,112,25098,1,0,0:0:0:0:
400,224,25262,2,0,L|412:312,1,72.0000002384184,8|0,0:0|2:0,0:0:0:0:
349,148,25590,6,0,P|416:130|472:172,1,144.000000476837,0|8,0:0|0:0,0:0:0:0:
312,232,26081,1,0,0:0:0:0:
409,295,26245,1,0,0:0:0:0:
300,224,26409,1,0,0:0:0:0:
296,340,26573,2,0,L|226:357,1,72.0000002384184,8|0,0:0|2:0,0:0:0:0:
81,304,26901,6,0,L|173:280,1,72.0000002384184,4|0,0:0|2:0,0:0:0:0:
168,108,27229,2,0,L|256:108,1,72.0000002384184,8|0,0:0|2:0,0:0:0:0:
152,192,27557,1,0,0:0:0:0:
4,192,27721,1,0,0:0:0:0:
88,60,27885,2,0,L|88:132,1,72.0000002384184,8|0,0:0|2:0,0:0:0:0:
152,192,28213,6,0,L|152:264,1,72.0000002384184,0|0,0:0|2:0,0:0:0:0:
248,188,28541,2,0,L|256:276,1,72.0000002384184,8|0,0:0|2:0,0:0:0:0:
416,292,28868,1,0,0:0:0:0:
312,384,29032,1,0,0:0:0:0:
191,290,29196,2,0,P|223:266|275:262,1,72.0000002384184,8|0,0:0|2:0,0:0:0:0:
179,314,29524,6,0,P|147:338|95:342,1,72.0000002384184,0|0,0:0|2:0,0:0:0:0:
44,204,29852,2,0,P|72:181|106:173,1,72.0000002384184,8|0,0:0|2:0,0:0:0:0:
284,256,30180,1,0,0:0:0:0:
112,256,30344,1,0,0:0:0:0:
196,144,30508,2,0,L|292:128,1,72.0000002384184,8|0,0:0|2:0,0:0:0:0:
424,104,30835,5,0,0:0:0:0:
376,268,30999,1,0,0:0:0:0:
267,132,31164,2,0,L|180:148,1,72.0000002384184,8|0,0:0|0:0,0:0:0:0:
164,272,31491,1,0,0:0:0:0:
100,316,31655,5,8,0:0:0:0:
88,264,31737,1,0,0:0:0:0:
112,216,31819,1,0,0:0:0:0:
164,196,31901,1,0,0:0:0:0:
220,220,31983,1,8,0:0:0:0:
236,276,32065,1,0,0:0:0:0:
224,332,32147,6,0,P|280:244|320:240,1,135.000000447034,4|0,0:0|2:0,0:0:0:0:
380,232,32475,2,0,L|484:232,1,90.000000298023,8|0,0:0|2:0,0:0:0:0:
312,324,32803,1,0,0:0:0:0:
312,120,32967,1,0,0:0:0:0:
470,232,33131,1,8,0:0:0:0:
304,228,33294,1,0,0:0:0:0:
460,132,33458,5,0,0:0:0:0:
384,272,33622,1,0,0:0:0:0:
416,64,33787,2,0,P|456:48|512:72,1,90.000000298023,8|0,0:0|0:0,0:0:0:0:
368,144,34114,1,0,0:0:0:0:
284,60,34278,1,0,0:0:0:0:
460,140,34443,2,0,B|476:188|452:228|452:228|416:216|396:224,1,135.000000447034,8|0,0:0|2:0,0:0:0:0:
352,268,34770,6,0,P|284:272|248:200,1,135.000000447034,4|0,0:0|2:0,0:0:0:0:
244,144,35098,2,0,L|236:44,1,90.000000298023,8|0,0:0|2:0,0:0:0:0:
444,96,35426,1,0,0:0:0:0:
320,204,35590,1,0,0:0:0:0:
344,28,35753,1,8,0:0:0:0:
432,188,35917,1,0,0:0:0:0:
244,156,36081,5,0,0:0:0:0:
204,324,36245,1,0,0:0:0:0:
163,161,36409,1,8,0:0:0:0:
308,268,36573,1,0,0:0:0:0:
220,96,36738,2,0,P|176:68|96:104,1,135.000000447034,0|0,0:0|2:0,0:0:0:0:
163,161,37066,2,0,P|224:188|292:144,1,135.000000447034,8|0,0:0|2:0,0:0:0:0:
304,76,37393,6,0,B|360:88|372:140|372:140|408:124|448:148,1,180.000000596046,4|8,0:0|0:0,0:0:0:0:
308,348,37885,1,0,0:0:0:0:
308,348,37967,1,0,0:0:0:0:
308,348,38049,1,0,0:0:0:0:
212,216,38212,1,0,0:0:0:0:
400,220,38376,1,8,0:0:0:0:
212,316,38540,1,0,0:0:0:0:
220,116,38704,5,0,0:0:0:0:
304,256,38868,1,0,0:0:0:0:
112,184,39033,2,0,P|104:232|112:280,1,90.000000298023,8|0,0:0|0:0,0:0:0:0:
220,344,39361,2,0,P|228:296|220:248,1,90.000000298023
112,184,39688,2,0,B|152:188|152:188|204:176|204:176|268:184,1,135.000000447034,8|0,0:0|2:0,0:0:0:0:
324,192,40016,6,0,P|376:264|308:332,1,180.000000596046,4|8,0:0|0:0,0:0:0:0:
124,316,40508,1,0,0:0:0:0:
300,260,40671,1,0,0:0:0:0:
88,240,40835,1,0,0:0:0:0:
224,328,40999,1,8,0:0:0:0:
196,120,41163,1,0,0:0:0:0:
88,240,41328,6,0,P|48:228|-24:260,1,90.000000298023
152,188,41656,2,0,P|192:200|264:168,1,90.000000298023,8|0,0:0|0:0,0:0:0:0:
196,120,41983,2,0,B|263:60|263:60|268:106,1,135.000000447034,8|0,0:0|2:0,0:0:0:0:
238,189,42311,2,0,B|236:277|236:277|296:248,1,135.000000447034,8|0,0:0|2:0,0:0:0:0:
319,189,42639,5,0,0:0:0:0:
376,348,42803,1,0,0:0:0:0:
456,232,42967,1,8,0:0:0:0:
278,256,43131,2,0,P|240:184|296:112,1,161.999995592594
424,64,43622,1,8,0:0:0:0:
319,189,43787,6,0,L|147:185,1,161.999995592594,4|0,0:0|0:0,0:0:0:0:
356,112,44279,2,0,P|404:160|404:180,1,80.9999977962969,8|0,0:0|0:0,0:0:0:0:
288,280,44606,1,0,0:0:0:0:
224,108,44770,1,0,0:0:0:0:
356,112,44934,2,0,L|444:108,1,80.9999977962969,8|0,0:0|2:0,0:0:0:0:
224,108,45262,5,0,0:0:0:0:
296,248,45426,1,0,0:0:0:0:
356,112,45590,1,8,0:0:0:0:
296,248,45754,2,0,L|392:252,1,80.9999977962969,0|0,0:0|2:0,0:0:0:0:
504,224,46082,2,0,B|516:196|516:196|472:216|424:192,1,121.499996694445,8|0,0:0|2:0,0:0:0:0:
376,251,46410,2,0,P|352:200|420:120,1,135.000000447034,8|0,0:0|2:0,0:0:0:0:
476,132,46737,5,0,2:0:0:0:
484,332,46901,1,0,2:0:0:0:
352,88,47065,5,0,2:0:0:0:
368,316,47229,1,0,2:0:0:0:
452,72,47393,5,0,0:0:0:0:
468,292,47557,1,8,0:0:0:0:
348,136,47721,1,0,2:0:0:0:
348,136,47893,6,0,L|253:119,1,90.000000298023,4|0,0:0|0:0,0:0:0:0:
192,192,48384,1,0,0:0:0:0:
116,160,48548,2,0,P|112:212|136:252,1,90.000000298023,8|0,0:0|0:0,0:0:0:0:
204,280,49040,1,0,0:0:0:0:
268,220,49204,6,0,L|328:204,1,45.0000001490115,0|0,1:0|0:0,0:0:0:0:
316,284,49532,2,0,L|376:268,1,45.0000001490115
364,348,49860,2,0,L|424:332,1,45.0000001490115,8|0,0:0|0:0,0:0:0:0:
444,264,50188,1,0,0:0:0:0:
368,112,50406,1,0,0:0:0:0:
368,112,50515,6,0,L|272:116,1,90.000000298023,0|0,1:0|0:0,0:0:0:0:
220,176,51007,1,0,0:0:0:0:
152,228,51171,2,0,P|180:256|236:260,1,90.000000298023,8|0,0:0|0:0,0:0:0:0:
304,220,51663,1,0,0:0:0:0:
304,220,51745,1,0,0:0:0:0:
304,220,51827,6,0,L|320:272,1,45.0000001490115,0|0,1:0|0:0,0:0:0:0:
404,316,52155,2,0,L|388:264,1,45.0000001490115
308,148,52483,2,0,L|324:200,1,45.0000001490115,8|0,0:0|0:0,0:0:0:0:
408,244,52811,2,0,L|392:192,1,45.0000001490115
360,76,53138,6,0,L|270:72,2,90.000000298023,0|0|8,1:0|0:0|0:0,0:0:0:0:
428,204,54122,1,0,0:0:0:0:
264,140,54450,6,0,L|204:140,1,45.0000001490115,8|0,0:0|0:0,0:0:0:0:
104,180,54778,2,0,L|149:180,1,45.0000001490115
232,104,55106,2,0,L|172:104,1,45.0000001490115,8|0,0:0|0:0,0:0:0:0:
72,144,55434,2,0,L|117:144,1,45.0000001490115
200,72,55761,5,8,0:0:0:0:
72,284,56089,5,8,0:0:0:0:
352,128,56417,5,8,0:0:0:0:
312,352,56745,5,8,0:0:0:0:
76,240,57073,6,0,P|140:208|172:216,1,90.000000298023,8|0,0:0|0:0,0:0:0:0:
216,272,57565,1,0,0:0:0:0:
300,288,57729,2,0,P|356:280|392:196,1,146.250000484287
376,72,58419,6,0,P|320:40|248:88,1,135.000000447034,4|0,0:0|2:0,0:0:0:0:
316,120,58746,2,0,L|316:220,1,90.000000298023,8|0,0:0|2:0,0:0:0:0:
368,376,59074,1,0,0:0:0:0:
224,272,59238,1,0,0:0:0:0:
416,272,59402,1,8,0:0:0:0:
272,380,59566,1,0,0:0:0:0:
240,160,59730,5,0,0:0:0:0:
136,268,59894,1,0,0:0:0:0:
188,80,60058,1,8,0:0:0:0:
248,276,60222,1,0,0:0:0:0:
108,184,60386,2,0,P|156:180|200:212,1,90.000000298023
136,268,60714,2,0,B|96:292|96:292|8:300,1,135.000000447034,8|0,0:0|2:0,0:0:0:0:
68,220,61041,6,0,B|108:196|108:196|196:188,1,135.000000447034,4|0,0:0|2:0,0:0:0:0:
276,144,61369,2,0,P|288:176|276:232,1,90.000000298023,8|0,0:0|2:0,0:0:0:0:
188,356,61697,1,0,0:0:0:0:
195,188,61861,1,0,0:0:0:0:
308,312,62025,2,0,L|404:312,1,90.000000298023,8|0,0:0|0:0,0:0:0:0:
464,112,62353,5,0,0:0:0:0:
492,332,62517,1,0,0:0:0:0:
456,100,62681,1,8,0:0:0:0:
488,340,62845,1,0,0:0:0:0:
308,312,63009,2,0,P|250:343|190:319,1,135.000000447034,0|0,0:0|2:0,0:0:0:0:
248,256,63337,2,0,P|307:229|367:257,1,135.000000447034,8|0,0:0|2:0,0:0:0:0:
308,312,63664,6,0,L|308:160,1,135.000000447034,4|0,0:0|2:0,0:0:0:0:
266,104,63992,2,0,P|309:91|352:104,1,90.000000298023,8|0,0:0|2:0,0:0:0:0:
428,232,64320,1,0,0:0:0:0:
200,232,64484,1,0,0:0:0:0:
308,177,64648,2,0,L|308:277,1,90.000000298023,8|0,0:0|0:0,0:0:0:0:
244,352,64976,5,0,0:0:0:0:
132,248,65140,1,0,0:0:0:0:
308,267,65304,1,8,0:0:0:0:
60,348,65468,1,0,0:0:0:0:
218,254,65632,2,0,L|330:270,1,90.000000298023
389,239,65959,2,0,P|385:304|336:348,1,135.000000447034,8|0,0:0|2:0,0:0:0:0:
307,266,66287,6,0,B|308:236|275:209|275:209|328:164|291:97,1,180.000000596046,4|8,0:0|0:0,0:0:0:0:
120,56,66779,1,0,0:0:0:0:
224,144,66943,1,0,0:0:0:0:
304,16,67107,1,0,0:0:0:0:
64,4,67271,2,0,P|44:72|88:128,1,135.000000447034,8|0,0:0|2:0,0:0:0:0:
120,56,67599,6,0,L|210:56,1,90.000000298023
176,280,67927,1,8,0:0:0:0:
72,124,68091,1,0,0:0:0:0:
236,144,68255,2,0,B|238:239|238:239|192:196,1,135.000000447034,8|0,0:0|2:0,0:0:0:0:
140,168,68582,2,0,B|168:120|137:72|137:72|165:98,1,135.000000447034,8|0,0:0|2:0,0:0:0:0:
161,95,68910,6,0,P|216:52|296:88,1,135.000000447034,4|0,0:0|2:0,0:0:0:0:
316,136,69238,2,0,B|360:172|408:136,1,90.000000298023,8|0,0:0|2:0,0:0:0:0:
275,65,69566,1,0,0:0:0:0:
344,280,69730,1,0,0:0:0:0:
360,68,69894,1,8,0:0:0:0:
228,204,70057,1,0,0:0:0:0:
432,180,70221,5,0,0:0:0:0:
285,84,70385,1,0,0:0:0:0:
228,204,70550,2,0,L|228:296,1,90.000000298023,8|0,0:0|0:0,0:0:0:0:
164,128,70877,1,0,0:0:0:0:
228,294,71041,1,0,0:0:0:0:
278,122,71205,2,0,B|294:170|270:210|270:210|248:196|214:206,1,135.000000447034,8|0,0:0|2:0,0:0:0:0:
228,294,71533,6,0,P|168:324|104:288,1,135.000000447034,4|0,0:0|2:0,0:0:0:0:
168,248,71861,2,0,P|152:200|180:144,1,90.000000298023,8|0,0:0|2:0,0:0:0:0:
252,28,72189,1,0,0:0:0:0:
227,202,72353,1,0,0:0:0:0:
104,96,72516,1,8,0:0:0:0:
324,128,72680,1,0,0:0:0:0:
228,294,72844,5,0,0:0:0:0:
192,88,73008,1,0,0:0:0:0:
368,232,73172,1,8,0:0:0:0:
144,208,73336,1,0,0:0:0:0:
134,35,73500,2,0,P|193:7|252:36,1,135.000000447034,0|0,0:0|2:0,0:0:0:0:
310,87,73828,2,0,P|251:115|192:88,1,135.000000447034,8|0,0:0|2:0,0:0:0:0:
252,36,74156,6,0,B|252:200,1,135.000000447034,4|0,0:0|2:0,0:0:0:0:
252,171,74484,1,8,0:0:0:0:
400,80,74648,1,0,0:0:0:0:
400,80,74730,1,0,0:0:0:0:
400,80,74812,1,0,0:0:0:0:
348,292,74975,1,0,0:0:0:0:
488,208,75139,1,8,0:0:0:0:
252,216,75303,1,0,0:0:0:0:
460,316,75467,5,0,0:0:0:0:
400,80,75631,1,0,0:0:0:0:
348,292,75796,1,8,0:0:0:0:
512,156,75959,1,0,0:0:0:0:
284,168,76123,2,0,B|224:160|224:160|188:168,1,90.000000298023
120,92,76451,2,0,B|160:96|160:96|212:84|212:84|276:92,1,135.000000447034,8|0,0:0|2:0,0:0:0:0:
296,28,76779,6,0,P|322:54|324:115,1,90.000000298023,4|0,0:0|2:0,0:0:0:0:
312,336,77108,1,8,0:0:0:0:
176,152,77271,1,0,0:0:0:0:
424,184,77435,1,0,0:0:0:0:
176,308,77599,1,0,0:0:0:0:
308,112,77763,1,8,0:0:0:0:
312,336,77927,1,0,0:0:0:0:
176,152,78091,5,0,0:0:0:0:
400,260,78255,1,0,0:0:0:0:
176,308,78418,2,0,P|132:324|84:300,1,90.000000298023,8|0,0:0|0:0,0:0:0:0:
266,363,78746,2,0,B|244:348|244:348|276:292|220:240,1,148.500005023598,8|0,0:0|2:0,0:0:0:0:
136,244,79074,2,0,B|129:212|149:189|149:189|95:213|49:161,1,148.500005023598,8|0,0:0|2:0,0:0:0:0:
116,112,79402,5,0,0:0:0:0:
296,144,79566,1,0,0:0:0:0:
232,28,79730,1,8,0:0:0:0:
332,216,79894,2,0,P|368:176|348:84,1,144.000000476837
232,28,80386,1,8,0:0:0:0:
224,155,80550,6,0,L|324:139,1,72.0000002384184,0|0,0:0|2:0,0:0:0:0:
116,112,80878,1,0,0:0:0:0:
260,227,81041,2,0,L|360:211,1,72.0000002384184,8|0,0:0|2:0,0:0:0:0:
184,84,81369,1,0,0:0:0:0:
260,227,81533,1,0,0:0:0:0:
220,12,81697,2,0,P|184:4|136:24,1,72.0000002384184,8|0,0:0|2:0,0:0:0:0:
92,168,82025,5,0,0:0:0:0:
300,168,82189,1,0,0:0:0:0:
184,84,82353,1,8,0:0:0:0:
292,244,82517,2,0,P|357:222|376:156,1,144.000000476837
184,84,83009,1,8,0:0:0:0:
228,168,83173,6,0,L|300:168,1,72.0000002384184,0|0,0:0|2:0,0:0:0:0:
480,228,83501,1,0,0:0:0:0:
332,320,83665,1,8,0:0:0:0:
424,124,83829,1,0,0:0:0:0:
292,244,83993,2,0,L|220:244,1,72.0000002384184
120,116,84320,2,0,P|164:88|208:88,1,72.0000002384184,8|0,0:0|2:0,0:0:0:0:
292,244,84648,5,0,0:0:0:0:
184,176,84812,1,0,0:0:0:0:
388,172,84975,1,8,0:0:0:0:
356,300,85140,2,0,P|289:328|225:296,1,144.000000476837
236,128,85631,1,8,0:0:0:0:
388,172,85795,6,0,L|480:168,1,72.0000002384184,0|0,0:0|2:0,0:0:0:0:
292,244,86123,1,0,0:0:0:0:
420,92,86287,2,0,L|512:88,1,72.0000002384184,8|0,0:0|0:0,0:0:0:0:
368,248,86615,1,0,0:0:0:0:
340,108,86779,1,0,0:0:0:0:
408,312,86943,2,0,P|372:324|320:300,1,72.0000002384184,8|0,0:0|2:0,0:0:0:0:
284,144,87270,5,8,0:0:0:0:
192,40,87434,1,8,0:0:0:0:
220,276,87598,1,8,0:0:0:0:
192,40,87763,2,0,B|248:24|280:72|280:72|312:60|264:40,1,148.500005023598,8|0,0:0|2:0,0:0:0:0:
216,112,88091,2,0,B|196:164|236:204|236:204|220:220|220:220|228:164,1,148.500005023598,8|0,0:0|2:0,0:0:0:0:
284,144,88418,2,0,P|336:164|384:144,1,99.0000033490656,8|0,1:0|0:0,0:0:0:0:
440,272,88746,5,0,0:0:0:0:
332,88,88910,1,0,0:0:0:0:
284,300,89074,1,0,0:0:0:0:
332,88,89238,2,0,B|384:64|428:80|428:80|448:60|388:40,1,144.000000476837
